自购原抓音乐圈:只有自购、合购、原抓级高解析(hires、sacd、dsd)正版音乐资源分享!【点我打开
极速无线网卡:千兆无线网卡、服务器网卡、USB接口台式机笔记本网卡 硬盘代考无损音乐!【点我打开
广告

[摇滚] Infaust - Des Schmerzes Macht (2006) [FLAC]

[复制链接]
kayda 发表于 2021-5-24 10:47:09 | 显示全部楼层 |阅读模式 打印 上一主题 下一主题




Band Name: Infaust
Album Title: Des Schmerzes Macht
Total Playing Time: 00:38:11 Min.
Country: Germany
Year: 2006
Record Label: Eisenwald Tonschmiede
Music Genre: Black Metal
Codec: FLAC
Rip Format: Image + Cue + Log
Booklet Scans: Yes
Archive size: ~ 293 Мб
Host: Yadi.sk




1. Des Todes Angesicht 01:33
2. Lohegrab 03:14
3. Verloren in Hoffnungslosigkeit 03:59
4. Blutige Pracht 04:22
5. Unschuldig meiner Verbitterung 04:11
6. Ein Traum aus Schmerz 05:42
7. Im Rausch der Stille 05:38
8. Sterbend kam in Ewigkeit 04:13
9. ...eines Trauernden im Sinn 05:19


EAC Log File:
Spoiler: EAC Log (click to show/hide)Exact Audio Copy V0.99 prebeta 5 from 4. May 2009
Отчёт EAC об извлечении, выполненном 11. августа 2010, 21:27
Infaust / Des Schmerzes Macht
Дисковод: Optiarc DVD RW AD-5240S Adapter: 3 ID: 0
Режим чтения        : Достоверность
Использование точного потока : Да
Отключение кэша аудио    : Да
Использование указателей C2 : Нет
Коррекция смещения при чтении          : 48
Способность читать области Lead-in и Lead-out  : Нет
Заполнение пропущенных сэмплов тишиной      : Да
Удаление блоков с тишиной в начале и конце    : Нет
При вычислениях CRC использовались нулевые сэмплы : Да
Интерфейс                    : Установленный внешний ASPI-интерфейс
Выходной формат     : Пользовательский кодировщик
Выбранный битрейт    : 768 kBit/s
Качество        : Высокий
Добавление ID3-тэга   : Нет
Утилита сжатия     : C:\Program Files\Exact Audio Copy\FLAC\FLAC.EXE
Дополнительные параметры : -6 -V -T "ARTIST=%a" -T "TITLE=%t" -T "ALBUM=%g" -T "DATE=%y" -T "TRACKNUMBER=%n" -T "GENRE=%m" -T "COMMENT=%e" %s -o %d
TOC извлечённого CD
  Трек | Старт | Длительность | Начальный сектор | Конечный сектор
  ---------------------------------------------------------------------
   1 | 0:00.00 |  1:33.19 |     0   |   6993
   2 | 1:33.19 |  3:13.41 |    6994   |   21509
   3 | 4:46.60 |  3:59.00 |   21510   |   39434
   4 | 8:45.60 |  4:21.70 |   39435   |   59079
   5 | 13:07.55 |  4:11.17 |   59080   |   77921
   6 | 17:18.72 |  5:42.16 |   77922   |  103587
   7 | 23:01.13 |  5:37.62 |   103588   |  128924
   8 | 28:39.00 |  4:12.44 |   128925   |  147868
   9 | 32:51.44 |  5:18.28 |   147869   |  171746
Характеристики диапазона извлечения и сообщения об ошибках
Выбранный диапазон
  Имя файла E:\ЯОБРАЗА\Infaust - Des Schmerzes Macht.wav
  Пиковый уровень 100.0 %
  Качество диапазона 100.0 %
  CRC теста A5A0F0E8
  CRC копии A5A0F0E8
  Копирование... OK
Ошибок не произошло
AccurateRip: сводка
Трек 1 точное извлечение (доверие 1) [1EEFFC6F]
Трек 2 точное извлечение (доверие 1) [58318E29]
Трек 3 точное извлечение (доверие 1) [DD55AC24]
Трек 4 точное извлечение (доверие 1) [DE83EED1]
Трек 5 точное извлечение (доверие 1) [CD00A1A5]
Трек 6 точное извлечение (доверие 1) [57F55A9C]
Трек 7 точное извлечение (доверие 1) [8DD5707F]
Трек 8 точное извлечение (доверие 1) [B77A290D]
Трек 9 точное извлечение (доверие 1) [7A8E7463]
Все треки извлечены точно
Конец отчёта
                                                       
                                               
游客,本主题需向作者支付 10音乐币 才能浏览,金币充值, 免回复、免金币,直接查看内容请开通VIP支付

温馨提示

记得善用社区搜索功能,那里可能会有你想要的资源;论坛站内搜索

如果你有什么需要的资源可以去资源求档发帖,求助社区的网友,我们会在第一时间给你回复哦;资源求档

对于本社区网盘链接失效密码错误各种报错请在反馈板块反馈报错发帖,您的支持,是我们发展的最大动力;投诉建议

回复

使用道具 举报

您需要登录后才可以回帖 登录 | 立即注册 微信登录

本版积分规则

关注0

粉丝0

帖子30977

发布主题
阅读排行更多+
关闭

站长推荐上一条 /1 下一条

活动提示

[限时折扣][自购]Patricia Barber - Exclusive U.S. Release of Patricia Barber’s “Clique” – This Weekend Only 2021[DSD1024/DSF]

地址:立即购买DSD1024

我知道了
收藏帖子 返回列表 这是一个自定义按钮
音乐分享,音乐下载。
微信公众号
微信号:hires_
意见反馈:admin@maomicd.com

加入我们的官方QQ群和微信群

Powered by Discuz! X3.4 Archiver|手机版|小黑屋|捌零音乐论坛 ( 苏ICP备20015413号 )|( 苏公网安备 32030502000272号) 繁體

GMT+8, 2021-6-13 01:51