自购原抓音乐圈:只有自购、合购、原抓级高解析(hires、sacd、dsd)正版音乐资源分享!【点我打开
极速无线网卡:千兆无线网卡、服务器网卡、USB接口台式机笔记本网卡 硬盘代考无损音乐!【点我打开
广告

[摇滚] Azrael - Into Shadows Act I: Denial (2003) [FLAC]

[复制链接]
elmisy 发表于 2021-5-24 10:47:08 | 显示全部楼层 |阅读模式 打印 上一主题 下一主题




Band Name: Azrael
Album Title: Into Shadows Act I: Denial
Total Playing Time: 00:58:08 Min.
Country: USA
Year: 2003
Record Label: Moribund Records
Music Genre: Avant-Garde Black Metal
Codec: FLAC
Rip Format: Image + Cue + Log
Booklet Scans: No
Archive size: ~ 383 Мб
Host: Yadi.sk




1. Intro
2. Dominion of Abysmal Crypts
3. Into Shadows
4. Holiness Embodiment
5. Darkness Binds Us All
6. Shround of Icy Stillness
7. Unseen Emptiness


EAC Log File:
Spoiler: EAC Log (click to show/hide)Exact Audio Copy V0.99 prebeta 4 from 23. January 2008
Отчёт EAC об извлечении, выполненном 13. апреля 2008, 20:02
Azrael / Into Shadows Act I: Denial
Дисковод: TSSTcorpCD/DVDW SH-S182D Adapter: 0 ID: 0
Режим чтения        : Достоверность
Использование точного потока : Да
Отключение кэша аудио    : Да
Использование указателей C2 : Нет
Коррекция смещения при чтении          : 6
Способность читать области Lead-in и Lead-out  : Да
Заполнение пропущенных сэмплов тишиной      : Да
Удаление блоков с тишиной в начале и конце    : Нет
При вычислениях CRC использовались нулевые сэмплы : Да
Интерфейс                    : Установленный внешний ASPI-интерфейс
Выходной формат     : Пользовательский кодировщик
Выбранный битрейт    : 768 kBit/s
Качество        : Высокий
Добавление ID3-тэга   : Нет
Утилита сжатия     : C:\Program Files\Exact Audio Copy\FLAC\FLAC.EXE
Дополнительные параметры : -8 -V -T "ARTIST=%a" -T "TITLE=%t" -T "ALBUM=%g" -T "DATE=%y" -T "TRACKNUMBER=%n" -T "GENRE=%m" -T "COMMENT=%e" %s -o %d
TOC извлечённого CD
  Трек | Старт | Длительность | Начальный сектор | Конечный сектор
  ---------------------------------------------------------------------
   1 | 0:00.00 |  4:21.01 |     0   |   19575
   2 | 4:21.01 |  8:40.74 |   19576   |   58649
   3 | 13:02.00 | 10:27.23 |   58650   |  105697
   4 | 23:29.23 |  8:49.66 |   105698   |  145438
   5 | 32:19.14 |  3:10.16 |   145439   |  159704
   6 | 35:29.30 | 10:02.30 |   159705   |  204884
   7 | 45:31.60 | 12:38.37 |   204885   |  261771
Характеристики диапазона извлечения и сообщения об ошибках
Выбранный диапазон
  Имя файла C:\lossless\Azrael - 2003 - Into Shadows Act I Denial\Azrael - 2003 - Into Shadows Act I Denial.wav
  Пиковый уровень 96.6 %
  Качество диапазона 99.9 %
  CRC теста D98D7FA3
  CRC копии D98D7FA3
  Копирование... OK
Ошибок не произошло
AccurateRip: сводка
Трек 1 нет в базе данных
Трек 2 нет в базе данных
Трек 3 нет в базе данных
Трек 4 нет в базе данных
Трек 5 нет в базе данных
Трек 6 нет в базе данных
Трек 7 нет в базе данных
Ни одного трека нет в базе AccurateRip
Конец отчёта
                                                       
                                               
游客,本主题需向作者支付 10音乐币 才能浏览,金币充值, 免回复、免金币,直接查看内容请开通VIP支付

温馨提示

记得善用社区搜索功能,那里可能会有你想要的资源;论坛站内搜索

如果你有什么需要的资源可以去资源求档发帖,求助社区的网友,我们会在第一时间给你回复哦;资源求档

对于本社区网盘链接失效密码错误各种报错请在反馈板块反馈报错发帖,您的支持,是我们发展的最大动力;投诉建议

回复

使用道具 举报

您需要登录后才可以回帖 登录 | 立即注册 微信登录

本版积分规则

关注0

粉丝2

帖子30429

发布主题
阅读排行更多+
关闭

站长推荐上一条 /1 下一条

活动提示

[限时折扣][自购]Patricia Barber - Exclusive U.S. Release of Patricia Barber’s “Clique” – This Weekend Only 2021[DSD1024/DSF]

地址:立即购买DSD1024

我知道了
收藏帖子 返回列表 这是一个自定义按钮
音乐分享,音乐下载。
微信公众号
微信号:hires_
意见反馈:admin@maomicd.com

加入我们的官方QQ群和微信群

Powered by Discuz! X3.4 Archiver|手机版|小黑屋|捌零音乐论坛 ( 苏ICP备20015413号 )|( 苏公网安备 32030502000272号) 繁體

GMT+8, 2021-6-13 01:19