自购原抓音乐圈:只有自购、合购、原抓级高解析(hires、sacd、dsd)正版音乐资源分享!【点我打开
极速无线网卡:千兆无线网卡、服务器网卡、USB接口台式机笔记本网卡 硬盘代考无损音乐!【点我打开
广告

[摇滚] Oksanat - Na Ulasku u Zemlju Koja Spava [Promo Series] (2005) [FLAC]

[复制链接]
全球采集 发表于 2021-5-24 10:47:08 | 显示全部楼层 |阅读模式 打印 上一主题 下一主题




Band Name: Oksanat
Album Title: Na Ulasku u Zemlju Koja Spava
Total Playing Time: 00:49:43 Min.
Country: Serbia
Year: 2005
Record Label: Self Released
Music Genre: Pagan Black Metal
Codec: FLAC
Rip Format: Image + Cue + Log
Booklet Scans: Partially
Archive size: ~ 304 Мб
Host: Yadi.sk




01. Crna Gavran Ptico (05:07)
02. Nestajem (06:20)
03. Kuda God Da Odlazi Tama (05:16)
04. Starac Sa Planine (05:38)
05. Morana Sivog Meseca (05:36)
06. Bogovi Vremena (04:51)
07. Na Ulasku U Zemlju Koja Spava (Pt.1) (02:50)
08. Na Ulasku U Zemlju Koja Spava (Pt.2) (07:13)
09. Na Ulasku U Zemlju Koja Spava (Pt.3) (05:12)
10. Kad Je Gavran Rasirio Krila (01:40)


EAC Log File:
Spoiler: EAC Log (click to show/hide)Exact Audio Copy V0.99 prebeta 5 from 4. May 2009
EAC extraction logfile from 20. June 2011, 19:12
Oksanat / Na Ulasku u Zemlju Koja Spava
Used drive : _NEC  DVD_RW ND-3540A Adapter: 0 ID: 0
Read mode       : Secure
Utilize accurate stream : Yes
Defeat audio cache   : Yes
Make use of C2 pointers : No
Read offset correction           : 48
Overread into Lead-In and Lead-Out     : No
Fill up missing offset samples with silence : Yes
Delete leading and trailing silent blocks : No
Null samples used in CRC calculations   : Yes
Used interface               : Native Win32 interface for Win NT & 2000
Used output format       : User Defined Encoder
Selected bitrate        : 40 kBit/s
Quality            : High
Add ID3 tag          : No
Command line compressor    : C:\Program Files\Exact Audio Copy\FLAC.EXE
Additional command line options : -6 -V %s
TOC of the extracted CD
  Track | Start | Length | Start sector | End sector
  ---------------------------------------------------------
    1 | 0:00.00 | 5:09.01 |    0  |  23175
    2 | 5:09.01 | 4:06.17 |  23176  |  41642
    3 | 9:15.18 | 5:18.26 |  41643  |  65518
    4 | 14:33.44 | 4:28.11 |  65519  |  85629
    5 | 19:01.55 | 3:47.49 |  85630  | 102703
    6 | 22:49.29 | 3:46.40 |  102704  | 119693
    7 | 26:35.69 | 2:52.08 |  119694  | 132601
    8 | 29:28.02 | 7:15.21 |  132602  | 165247
    9 | 36:43.23 | 5:14.58 |  165248  | 188855
   10 | 41:58.06 | 1:40.58 |  188856  | 196413
Range status and errors
Selected range
  Filename E:\Oksanat - 2005 - Na Ulasku u Zemlju Koja Spava (Demo) {snecy.moole.ru}\Oksanat - Na Ulasku u Zemlju Koja Spava.wav
  Peak level 97.2 %
  Range quality 100.0 %
  Copy CRC E54B3979
  Copy OK
No errors occurred
AccurateRip summary
Track 1 not present in database
Track 2 not present in database
Track 3 not present in database
Track 4 not present in database
Track 5 not present in database
Track 6 not present in database
Track 7 not present in database
Track 8 not present in database
Track 9 not present in database
Track 10 not present in database
None of the tracks are present in the AccurateRip database
End of status report
                                                       
                                               
游客,本主题需向作者支付 10音乐币 才能浏览,金币充值, 免回复、免金币,直接查看内容请开通VIP支付

温馨提示

记得善用社区搜索功能,那里可能会有你想要的资源;论坛站内搜索

如果你有什么需要的资源可以去资源求档发帖,求助社区的网友,我们会在第一时间给你回复哦;资源求档

对于本社区网盘链接失效密码错误各种报错请在反馈板块反馈报错发帖,您的支持,是我们发展的最大动力;投诉建议

回复

使用道具 举报

您需要登录后才可以回帖 登录 | 立即注册 微信登录

本版积分规则

关注0

粉丝16

帖子87467

发布主题
阅读排行更多+
关闭

站长推荐上一条 /1 下一条

活动提示

[限时折扣][自购]Patricia Barber - Exclusive U.S. Release of Patricia Barber’s “Clique” – This Weekend Only 2021[DSD1024/DSF]

地址:立即购买DSD1024

我知道了
收藏帖子 返回列表 这是一个自定义按钮
音乐分享,音乐下载。
微信公众号
微信号:hires_
意见反馈:admin@maomicd.com

加入我们的官方QQ群和微信群

Powered by Discuz! X3.4 Archiver|手机版|小黑屋|捌零音乐论坛 ( 苏ICP备20015413号 )|( 苏公网安备 32030502000272号) 繁體

GMT+8, 2021-6-13 13:01