自购原抓音乐圈:只有自购、合购、原抓级高解析(hires、sacd、dsd)正版音乐资源分享!【点我打开
极速无线网卡:千兆无线网卡、服务器网卡、USB接口台式机笔记本网卡 硬盘代考无损音乐!【点我打开
广告

[摇滚] Artep - Thy Will Be Done On Earth As Is Done In Hell (2010) [FLAC]

[复制链接]
lz189 发表于 2021-5-24 10:47:08 | 显示全部楼层 |阅读模式 打印 上一主题 下一主题




Band Name: Artep
Album Title: Thy Will Be Done On Earth As Is Done In Hell
Total Playing Time: 00:43:44 Min.
Country: Canada
Year: 2010
Record Label: Bleak Art Records
Music Genre: Symphonic Black Metal
Codec: FLAC
Rip Format: Image + Cue + Log
Booklet Scans: Yes
Archive size: ~ 332 Мб
Host: Yadi.sk




1. Birth Of The Antichrist 01:43
2. Antichrist 05:19
3. Eruption 06:44
4. Desolate Land 05:39
5. Crossing The Archeron 06:18
6. Armageddon 04:37
7. Black War 08:04
8. Eye Of The Serpent / Oko Hada 05:42


EAC Log File:
Spoiler: EAC Log (click to show/hide)Exact Audio Copy V0.99 prebeta 5 from 4. May 2009
EAC extraction logfile from 2. October 2010, 23:07
Artep / Thy Will Be Done On Earth As Is Done In Hell
Used drive : HL-DT-STDVD-RAM GH22NP20 Adapter: 0 ID: 0
Read mode       : Secure
Utilize accurate stream : Yes
Defeat audio cache   : Yes
Make use of C2 pointers : No
Read offset correction           : 102
Overread into Lead-In and Lead-Out     : No
Fill up missing offset samples with silence : Yes
Delete leading and trailing silent blocks : No
Null samples used in CRC calculations   : Yes
Used interface               : Native Win32 interface for Win NT & 2000
Used output format       : User Defined Encoder
Selected bitrate        : 128 kBit/s
Quality            : High
Add ID3 tag          : No
Command line compressor    : C:\Program Files (x86)\FLAC\flac.exe
Additional command line options : ?8 ?V ?T "ARTIST=%a" ?T "TITLE=%t" ?T "ALBUM=%g" ?T "DATE=%y" ?T "TRACKNUMBER=%n" ?T "GENRE=%m" ?T "COMMENT=EAC FLAC ?8" %s
TOC of the extracted CD
  Track | Start | Length | Start sector | End sector
  ---------------------------------------------------------
    1 | 0:00.00 | 1:33.48 |    0  |  7022
    2 | 1:33.48 | 5:19.39 |   7023  |  30986
    3 | 6:53.12 | 6:41.72 |  30987  |  61133
    4 | 13:35.09 | 5:38.74 |  61134  |  86557
    5 | 19:14.08 | 6:17.17 |  86558  | 114849
    6 | 25:31.25 | 4:31.49 |  114850  | 135223
    7 | 30:02.74 | 7:58.72 |  135224  | 171145
    8 | 38:01.71 | 5:41.53 |  171146  | 196773
Range status and errors
Selected range
  Filename C:\Users\vvb05\Desktop\Аудио\Artep - Thy Will Be Done On Earth As Is Done In Hell.wav
  Peak level 100.0 %
  Range quality 99.9 %
  Test CRC 635A2B26
  Copy CRC 635A2B26
  Copy OK
No errors occurred
AccurateRip summary
Track 1 not present in database
Track 2 not present in database
Track 3 not present in database
Track 4 not present in database
Track 5 not present in database
Track 6 not present in database
Track 7 not present in database
Track 8 not present in database
None of the tracks are present in the AccurateRip database
End of status report
                                                       
                                               
游客,本主题需向作者支付 10音乐币 才能浏览,金币充值, 免回复、免金币,直接查看内容请开通VIP支付

温馨提示

记得善用社区搜索功能,那里可能会有你想要的资源;论坛站内搜索

如果你有什么需要的资源可以去资源求档发帖,求助社区的网友,我们会在第一时间给你回复哦;资源求档

对于本社区网盘链接失效密码错误各种报错请在反馈板块反馈报错发帖,您的支持,是我们发展的最大动力;投诉建议

回复

使用道具 举报

您需要登录后才可以回帖 登录 | 立即注册 微信登录

本版积分规则

关注0

粉丝0

帖子31058

发布主题
阅读排行更多+
关闭

站长推荐上一条 /1 下一条

活动提示

[限时折扣][自购]Patricia Barber - Exclusive U.S. Release of Patricia Barber’s “Clique” – This Weekend Only 2021[DSD1024/DSF]

地址:立即购买DSD1024

我知道了
收藏帖子 返回列表 这是一个自定义按钮
音乐分享,音乐下载。
微信公众号
微信号:hires_
意见反馈:admin@maomicd.com

加入我们的官方QQ群和微信群

Powered by Discuz! X3.4 Archiver|手机版|小黑屋|捌零音乐论坛 ( 苏ICP备20015413号 )|( 苏公网安备 32030502000272号) 繁體

GMT+8, 2021-6-13 12:42