自购原抓音乐圈:只有自购、合购、原抓级高解析(hires、sacd、dsd)正版音乐资源分享!【点我打开
极速无线网卡:千兆无线网卡、服务器网卡、USB接口台式机笔记本网卡 硬盘代考无损音乐!【点我打开
广告

[摇滚] Behemoth - Pandemonic Incantations [Reissue 2002 + bonus tracks] (1998) [FLAC]

[复制链接]
lz189 发表于 2021-5-24 10:47:08 | 显示全部楼层 |阅读模式 打印 上一主题 下一主题






Band Name: Behemoth
Album Title: Pandemonic Incantations (Reissue 2002 + bonus tracks)
Total Playing Time: 01:00:22 Min.
Year: 1998 (2002)
Country: Poland
Record Label: CD Maximum
Music Genre: black metal
Rip Format: FLAC (Image+Cue+Log)
Booklet Scans: Yes
Size Archive: ~ 514 MB
Host: Yadi.sk



01. Diableria (The Great Introduction) [0:50]
02. The Thousand Plagues I Witness [5:16]
03. Satan's Sword (I Have Become) [4:18]
04. In Thy Pandemaeternum [4:52]
05. Driven By The Five-Winged Star [5:01]
06. The Past Is Like A Funeral [6:41]
07. The Entrance To The Spheres Of Mars [4:48]
08. With Spell Of Inferno (Mefisto) ('98) (bonus) [4:38]
09. Chwala Mordercom Wojciecha (997 – 1997 Dziesiec Wiekow Hanby) [4:42]
10. Diableria (The Great Introduction) (live in Toulouse (France), 27.02.1999) (b... [0:29]
11. The Thousand Plagues I Witness (live in Toulouse (France), 27.02.1999) (bonus) [5:24]
12. Satan's Sword (I Have Become) (live in Toulouse (France), 27.02.1999) (bonus) [4:36]
13. From The Pagan Vastlands (live in Toulouse (France), 27.02.1999) (bonus) [3:40]
14. Driven By The Five-Winged Star (live in Toulouse (France), 27.02.1999) (bonus) [5:09]



! No longer available


EAC Log File:
Spoiler: EAC Log (click to show/hide)Exact Audio Copy V1.0 beta 3 from 29. August 2011
EAC extraction logfile from 25. October 2014, 19:31
Behemoth / Pandemonic Incantations (Reissue 2000)
Used drive : ASUS  DRW-22B2L Adapter: 0 ID: 1
Read mode       : Secure
Utilize accurate stream : Yes
Defeat audio cache   : Yes
Make use of C2 pointers : No
Read offset correction           : 6
Overread into Lead-In and Lead-Out     : No
Fill up missing offset samples with silence : Yes
Delete leading and trailing silent blocks : No
Null samples used in CRC calculations   : Yes
Used interface               : Native Win32 interface for Win NT & 2000
Used output format : Internal WAV Routines
Sample format   : 44.100 Hz; 16 Bit; Stereo

TOC of the extracted CD
  Track | Start | Length | Start sector | End sector
  ---------------------------------------------------------
    1 | 0:00.00 | 0:49.60 |    0  |  3734
    2 | 0:49.60 | 5:15.44 |   3735  |  27403
    3 | 6:05.29 | 4:17.49 |  27404  |  46727
    4 | 10:23.03 | 4:51.69 |  46728  |  68621
    5 | 15:14.72 | 5:00.56 |  68622  |  91177
    6 | 20:15.53 | 6:41.18 |  91178  | 121270
    7 | 26:56.71 | 4:47.42 |  121271  | 142837
    8 | 31:44.38 | 4:38.28 |  142838  | 163715
    9 | 36:22.66 | 4:42.09 |  163716  | 184874
   10 | 41:05.00 | 0:29.06 |  184875  | 187055
   11 | 41:34.06 | 5:23.43 |  187056  | 211323
   12 | 46:57.49 | 4:35.39 |  211324  | 231987
   13 | 51:33.13 | 3:40.16 |  231988  | 248503
   14 | 55:13.29 | 5:08.62 |  248504  | 271665

Range status and errors
Selected range
  Filename D:\Behemoth 1997\Behemoth - Pandemonic Incantations (Reissue 2000).wav
  Peak level 100.0 %
  Extraction speed 3.8 X
  Range quality 100.0 %
  Test CRC B0814888
  Copy CRC B0814888
  Copy OK
No errors occurred

AccurateRip summary
Track 1 accurately ripped (confidence 4) [19A5B7DF] (AR v1)
Track 2 accurately ripped (confidence 4) [9D4D383D] (AR v1)
Track 3 accurately ripped (confidence 4) [BB2D9AD7] (AR v1)
Track 4 accurately ripped (confidence 4) [10D8B130] (AR v1)
Track 5 accurately ripped (confidence 4) [0C625828] (AR v1)
Track 6 accurately ripped (confidence 4) [91C79AD7] (AR v1)
Track 7 accurately ripped (confidence 4) [680B9F2B] (AR v1)
Track 8 accurately ripped (confidence 4) [109B67E9] (AR v1)
Track 9 accurately ripped (confidence 4) [982E96DC] (AR v1)
Track 10 accurately ripped (confidence 4) [05D37CAF] (AR v1)
Track 11 accurately ripped (confidence 4) [9596F356] (AR v1)
Track 12 accurately ripped (confidence 4) [DB38032A] (AR v1)
Track 13 accurately ripped (confidence 4) [6943BB5A] (AR v1)
Track 14 accurately ripped (confidence 4) [CEF9CBE2] (AR v1)
All tracks accurately ripped
End of status report
==== Log checksum E53C78B502281994FCA47DC845A65A222B2C63438BC7B4E519ACC0E604176704 ====
                                                       
                                               
游客,本主题需向作者支付 10音乐币 才能浏览,金币充值, 免回复、免金币,直接查看内容请开通VIP支付

温馨提示

记得善用社区搜索功能,那里可能会有你想要的资源;论坛站内搜索

如果你有什么需要的资源可以去资源求档发帖,求助社区的网友,我们会在第一时间给你回复哦;资源求档

对于本社区网盘链接失效密码错误各种报错请在反馈板块反馈报错发帖,您的支持,是我们发展的最大动力;投诉建议

回复

使用道具 举报

您需要登录后才可以回帖 登录 | 立即注册 微信登录

本版积分规则

关注0

粉丝0

帖子31058

发布主题
阅读排行更多+
关闭

站长推荐上一条 /1 下一条

活动提示

[限时折扣][自购]Patricia Barber - Exclusive U.S. Release of Patricia Barber’s “Clique” – This Weekend Only 2021[DSD1024/DSF]

地址:立即购买DSD1024

我知道了
收藏帖子 返回列表 这是一个自定义按钮
音乐分享,音乐下载。
微信公众号
微信号:hires_
意见反馈:admin@maomicd.com

加入我们的官方QQ群和微信群

Powered by Discuz! X3.4 Archiver|手机版|小黑屋|捌零音乐论坛 ( 苏ICP备20015413号 )|( 苏公网安备 32030502000272号) 繁體

GMT+8, 2021-6-14 23:47