自购原抓音乐圈:只有自购、合购、原抓级高解析(hires、sacd、dsd)正版音乐资源分享!【点我打开
极速无线网卡:千兆无线网卡、服务器网卡、USB接口台式机笔记本网卡 硬盘代考无损音乐!【点我打开
广告

[摇滚] Never Ending - Cause I'm Happy [Limited Edition] (2015) [Demo] [FLAC]

[复制链接]
kayda 发表于 2021-5-24 10:47:08 | 显示全部楼层 |阅读模式 打印 上一主题 下一主题




Band Name: Never Ending
Album Title: Cause I'm Happy
Total Playing Time: 00:15:21 Min.
Country: China
Year: 2015
Record Label: Kill the Light Productions
Music Genre: Depressive Black Metal
Codec: FLAC
Rip Format: Image + Cue + Log
Booklet Scans: No
Archive size: ~ 35 Mb
Host: Yadi.sk




I
II
III
V


EAC Log File:
Spoiler: EAC Log (click to show/hide)Exact Audio Copy V1.0 beta 3 from 29. August 2011
EAC 抓取日志文件从24. 四月 2015, 20:58
Never Ending / Cause I'm Happy
使用驱动器 :PLDS  DVD-RW DS8A8SH Adapter: 0 ID: 0
读取模式   : 可靠Secure
使用精确流  : 是
清空音频缓存  : 是
使用 C2 指示器 : 否
读取偏移校正:       : 6
读取 Lead-In 和 Lead-Out : 否
用静音填充抓取中丢失偏移的采样   : 是
去除首尾静音块       : 否
在CRC 计算中使用了空样本   : 是
已用接口         : Win NT 及 2000 本地 Win32 接口
所用输出模式: : 内部 WAV 函数
样本格式  : 44.100 Hz; 16 Bit; 立体声

已抓取 CD 的 TOC
  音轨 |  起始  |  长度  | 起始扇区 | 结束扇区
  --------------------------------------------
   1 | 0:00.00 | 2:25.68 |   0 | 10942
   2 | 2:25.68 | 4:08.30 | 10943 | 29572
   3 | 6:34.23 | 5:09.11 | 29573 | 52758
   4 | 11:43.34 | 3:39.34 | 52759 | 69217

范围状态及错误
已选择范围
  文件名 E:\ape\Never Ending - Cause I'm Happy.wav
  峰值电平 100.0 %
  抓取速度 2.9 X
  范围质量 100.0 %
  复制 CRC 81EACA26
  复制成功
没有错误发生

AccurateRip 摘要
音轨 1 在数据库中不存在
音轨 2 在数据库中不存在
音轨 3 在数据库中不存在
音轨 4 在数据库中不存在
没有任何音轨在 AccurateRip 数据库中有记录
状态报告结尾
                                                       
                                               
游客,本主题需向作者支付 10音乐币 才能浏览,金币充值, 免回复、免金币,直接查看内容请开通VIP支付

温馨提示

记得善用社区搜索功能,那里可能会有你想要的资源;论坛站内搜索

如果你有什么需要的资源可以去资源求档发帖,求助社区的网友,我们会在第一时间给你回复哦;资源求档

对于本社区网盘链接失效密码错误各种报错请在反馈板块反馈报错发帖,您的支持,是我们发展的最大动力;投诉建议

回复

使用道具 举报

您需要登录后才可以回帖 登录 | 立即注册 微信登录

本版积分规则

关注0

粉丝0

帖子30977

发布主题
阅读排行更多+
关闭

站长推荐上一条 /1 下一条

活动提示

[限时折扣][自购]Patricia Barber - Exclusive U.S. Release of Patricia Barber’s “Clique” – This Weekend Only 2021[DSD1024/DSF]

地址:立即购买DSD1024

我知道了
收藏帖子 返回列表 这是一个自定义按钮
音乐分享,音乐下载。
微信公众号
微信号:hires_
意见反馈:admin@maomicd.com

加入我们的官方QQ群和微信群

Powered by Discuz! X3.4 Archiver|手机版|小黑屋|捌零音乐论坛 ( 苏ICP备20015413号 )|( 苏公网安备 32030502000272号) 繁體

GMT+8, 2021-6-14 23:14