自购原抓音乐圈:只有自购、合购、原抓级高解析(hires、sacd、dsd)正版音乐资源分享!【点我打开
极速无线网卡:千兆无线网卡、服务器网卡、USB接口台式机笔记本网卡 硬盘代考无损音乐!【点我打开
广告

[摇滚] Briargh - Ebro (2009) [Pro CD-R] [FLAC]

[复制链接]
lz189 发表于 2021-5-24 10:47:07 | 显示全部楼层 |阅读模式 打印 上一主题 下一主题




Band Name: Briargh
Album Title: Ebro
Total Playing Time: 00:52:58 Min.
Country: Spain
Year: 2009
Record Label: Steel Blazes Records
Music Genre: Pagan Black Metal
Codec: FLAC
Rip Format: Image + Cue + Log
Booklet Scans: Yes
Archive size: ~ 330 Mb
Host: Yadi.sk




01. Preludio a la Añoranza
02. Foresta de las Sombras
03. Niebla en los Páramos Invernales
04. El Canto de las Anjanas (Part I)
05. El Honor de la Luna Llena
06. Dark Citadel
07. The Grief of Morgoth
08. Gurthang
09. Kantaber
10. Osgiliath (Intro)
11. Through the Forest of the Eternal Lament
12. Lobo Solitario
13. On a Grey Horse
14. Montañas del Norte
15. Un Antiguo Trono Olvidado
16. In Sorrow with the Dark (Part II)


EAC Log File:
Spoiler: EAC Log (click to show/hide)Exact Audio Copy V1.0 beta 3 from 29. August 2011
EAC extraction logfile from 29. July 2014, 0:05
Briargh / Ebro
Used drive : PIONEER DVD-RW DVR-111D Adapter: 2 ID: 0
Read mode       : Secure
Utilize accurate stream : Yes
Defeat audio cache   : Yes
Make use of C2 pointers : No
Read offset correction           : 48
Overread into Lead-In and Lead-Out     : No
Fill up missing offset samples with silence : Yes
Delete leading and trailing silent blocks : No
Null samples used in CRC calculations   : Yes
Used interface               : Installed external ASPI interface
Used output format       : User Defined Encoder
Selected bitrate        : 768 kBit/s
Quality            : High
Add ID3 tag          : No
Command line compressor    : C:\Program Files (x86)\Exact Audio Copy\FLAC\FLAC.EXE
Additional command line options : -6 -V -T "ARTIST=%artist%" -T "TITLE=%title%" -T "ALBUM=%albumtitle%" -T "DATE=%year%" -T "TRACKNUMBER=%tracknr%" -T "GENRE=%genre%" -T "COMMENT=%comment%" -T "BAND=%albuminterpret%" -T "ALBUMARTIST=%albuminterpret%" -T "COMPOSER=%composer%" %haslyrics%--tag-from-file=LYRICS="%lyricsfile%"%haslyrics% -T "DISCNUMBER=%cdnumber%" -T "TOTALDISCS=%totalcds%" -T "TOTALTRACKS=%numtracks%" %hascover%--picture="%coverfile%"%hascover% %source% -o %dest%

TOC of the extracted CD
  Track | Start | Length | Start sector | End sector
  ---------------------------------------------------------
    1 | 0:00.00 | 1:40.72 |    0  |  7571
    2 | 1:40.72 | 4:31.59 |   7572  |  27955
    3 | 6:12.56 | 3:45.29 |  27956  |  44859
    4 | 9:58.10 | 0:44.37 |  44860  |  48196
    5 | 10:42.47 | 4:08.12 |  48197  |  66808
    6 | 14:50.59 | 1:20.28 |  66809  |  72836
    7 | 16:11.12 | 3:58.22 |  72837  |  90708
    8 | 20:09.34 | 2:19.69 |  90709  | 101202
    9 | 22:29.28 | 6:26.19 |  101203  | 130171
   10 | 28:55.47 | 1:22.30 |  130172  | 136351
   11 | 30:18.02 | 4:18.19 |  136352  | 155720
   12 | 34:36.21 | 7:25.09 |  155721  | 189104
   13 | 42:01.30 | 4:19.56 |  189105  | 208585
   14 | 46:21.11 | 0:37.18 |  208586  | 211378
   15 | 46:58.29 | 4:12.68 |  211379  | 230346
   16 | 51:11.22 | 1:46.67 |  230347  | 238363

Range status and errors
Selected range
  Filename C:\Users\ZYKLON_B\Desktop\отправить\Briargh\2009 '' Ebro (ProCD-R) ''\Briargh - Ebro.wav
  Peak level 100.0 %
  Extraction speed 6.9 X
  Range quality 100.0 %
  Test CRC F221BC3A
  Copy CRC F221BC3A
  Copy OK
No errors occurred

AccurateRip summary
Track 1 not present in database
Track 2 not present in database
Track 3 not present in database
Track 4 not present in database
Track 5 not present in database
Track 6 not present in database
Track 7 not present in database
Track 8 not present in database
Track 9 not present in database
Track 10 not present in database
Track 11 not present in database
Track 12 not present in database
Track 13 not present in database
Track 14 not present in database
Track 15 not present in database
Track 16 not present in database
None of the tracks are present in the AccurateRip database
End of status report
---- CUETools DB Plugin V2.1.5
[CTDB TOCID: zagVnZfyeLnTCOZ9gy5_PaxjdYA-] found
Submit result: zagVnZfyeLnTCOZ9gy5_PaxjdYA- has been confirmed
Track | CTDB Status
1 | (1/1) Accurately ripped
2 | (1/1) Accurately ripped
3 | (1/1) Accurately ripped
4 | (1/1) Accurately ripped
5 | (1/1) Accurately ripped
6 | (1/1) Accurately ripped
7 | (1/1) Accurately ripped
8 | (1/1) Accurately ripped
9 | (1/1) Accurately ripped
10 | (1/1) Accurately ripped
11 | (1/1) Accurately ripped
12 | (1/1) Accurately ripped
13 | (1/1) Accurately ripped
14 | (1/1) Accurately ripped
15 | (1/1) Accurately ripped
16 | (1/1) Accurately ripped

==== Log checksum 0789EB32FD76BDB521D5FD4CE5484C482C94211ABCD6F6B509BE70AB213948A4 ====
                                                       
                                               
游客,本主题需向作者支付 10音乐币 才能浏览,金币充值, 免回复、免金币,直接查看内容请开通VIP支付

温馨提示

记得善用社区搜索功能,那里可能会有你想要的资源;论坛站内搜索

如果你有什么需要的资源可以去资源求档发帖,求助社区的网友,我们会在第一时间给你回复哦;资源求档

对于本社区网盘链接失效密码错误各种报错请在反馈板块反馈报错发帖,您的支持,是我们发展的最大动力;投诉建议

回复

使用道具 举报

您需要登录后才可以回帖 登录 | 立即注册 微信登录

本版积分规则

关注0

粉丝0

帖子31058

发布主题
阅读排行更多+
关闭

站长推荐上一条 /1 下一条

活动提示

[限时折扣][自购]Patricia Barber - Exclusive U.S. Release of Patricia Barber’s “Clique” – This Weekend Only 2021[DSD1024/DSF]

地址:立即购买DSD1024

我知道了
收藏帖子 返回列表 这是一个自定义按钮
音乐分享,音乐下载。
微信公众号
微信号:hires_
意见反馈:admin@maomicd.com

加入我们的官方QQ群和微信群

Powered by Discuz! X3.4 Archiver|手机版|小黑屋|捌零音乐论坛 ( 苏ICP备20015413号 )|( 苏公网安备 32030502000272号) 繁體

GMT+8, 2021-6-14 22:57