自购原抓音乐圈:只有自购、合购、原抓级高解析(hires、sacd、dsd)正版音乐资源分享!【点我打开
极速无线网卡:千兆无线网卡、服务器网卡、USB接口台式机笔记本网卡 硬盘代考无损音乐!【点我打开
广告

[摇滚] Isarnheimr - Isarnheimr (2006) [APE]

[复制链接]
lz189 发表于 2021-5-24 10:47:07 | 显示全部楼层 |阅读模式 打印 上一主题 下一主题




Band Name: Isarnheimr
Album Title: Isarnheimr
Total Playing Time: 00:32:26 Min.
Country: Norway
Year: 2006
Record Label: GoatowaRex
Music Genre: Black Metal
Codec: APE
Rip Format: Image + Cue + Log
Booklet Scans: Yes
Archive size: ~ 248 Мб
Host: Yadi.sk




1. Hat og sorg 05:12
2. Eldkveikja 04:34
3. Livlost 03:47
4. Svartahaf 04:20
5. I evighet 03:47
6. Kaosets ytterste grense 04:17
7. Solefall 04:02
8. Utferd 02:24


EAC Log File:
Spoiler: EAC Log (click to show/hide)Exact Audio Copy V0.99 prebeta 1 from 25. May 2007
Отчёт EAC об извлечении, выполненном 18. августа 2012, 18:44
Isarnheimr / Isarnheimr
Дисковод: Optiarc DVD RW AD-7243S Adapter: 5 ID: 0
Режим чтения        : Достоверность
Использование точного потока : Да
Отключение кэша аудио    : Да
Использование указателей C2 : Нет
Коррекция смещения при чтении        : 48
Способность читать области Lead-in и Lead-out : Нет
Заполнение пропущенных сэмплов тишиной    : Да
Удаление блоков с тишиной в начале и конце  : Нет
Интерфейс                  : Встроенный Win32-интерфейс для Win NT/2000
Выходной формат : Внутренние WAV-операции
Формат сэмплов : 44.100 Гц; 16 бит; стерео
TOC извлечённого CD
  Трек | Старт | Длительность | Начальный сектор | Конечный сектор
  ---------------------------------------------------------------------
   1 | 0:00.00 |  5:12.01 |     0   |   23400
   2 | 5:12.01 |  4:34.39 |   23401   |   43989
   3 | 9:46.40 |  3:47.27 |   43990   |   61041
   4 | 13:33.67 |  4:20.45 |   61042   |   80586
   5 | 17:54.37 |  3:47.27 |   80587   |   97638
   6 | 21:41.64 |  4:17.67 |   97639   |  116980
   7 | 25:59.56 |  4:02.04 |   116981   |  135134
   8 | 30:01.60 |  2:24.43 |   135135   |  145977
Характеристики диапазона извлечения и сообщения об ошибках
Выбранный диапазон
  Имя файла F:\666 EVIL 666\Isarnheimr - Isarnheimr.wav
  Пиковый уровень 89.1 %
  Качество диапазона 100.0 %
  CRC копии C2579230
  Копирование... OK
AccurateRip: сводка
Трек 1 точное извлечение (доверие 1) [46DCF1FB]
Трек 2 точное извлечение (доверие 1) [B626D862]
Трек 3 точное извлечение (доверие 1) [3DDDD5FA]
Трек 4 точное извлечение (доверие 1) [CD4052FB]
Трек 5 точное извлечение (доверие 1) [3DDDD5FA]
Трек 6 точное извлечение (доверие 1) [CF4864B1]
Трек 7 точное извлечение (доверие 1) [F11C6D50]
Трек 8 точное извлечение (доверие 1) [D41EEC1C]
Ошибок не произошло
Конец отчёта
                                                       
                                               
游客,本主题需向作者支付 10音乐币 才能浏览,金币充值, 免回复、免金币,直接查看内容请开通VIP支付

温馨提示

记得善用社区搜索功能,那里可能会有你想要的资源;论坛站内搜索

如果你有什么需要的资源可以去资源求档发帖,求助社区的网友,我们会在第一时间给你回复哦;资源求档

对于本社区网盘链接失效密码错误各种报错请在反馈板块反馈报错发帖,您的支持,是我们发展的最大动力;投诉建议

回复

使用道具 举报

您需要登录后才可以回帖 登录 | 立即注册 微信登录

本版积分规则

关注0

粉丝0

帖子31058

发布主题
阅读排行更多+
关闭

站长推荐上一条 /1 下一条

活动提示

[限时折扣][自购]Patricia Barber - Exclusive U.S. Release of Patricia Barber’s “Clique” – This Weekend Only 2021[DSD1024/DSF]

地址:立即购买DSD1024

我知道了
收藏帖子 返回列表 这是一个自定义按钮
音乐分享,音乐下载。
微信公众号
微信号:hires_
意见反馈:admin@maomicd.com

加入我们的官方QQ群和微信群

Powered by Discuz! X3.4 Archiver|手机版|小黑屋|捌零音乐论坛 ( 苏ICP备20015413号 )|( 苏公网安备 32030502000272号) 繁體

GMT+8, 2021-6-13 01:11