自购原抓音乐圈:只有自购、合购、原抓级高解析(hires、sacd、dsd)正版音乐资源分享!【点我打开
极速无线网卡:千兆无线网卡、服务器网卡、USB接口台式机笔记本网卡 硬盘代考无损音乐!【点我打开
广告

[摇滚] Denouncement Pyre - World Cremation (2010) [FLAC]

[复制链接]
全球采集 发表于 2021-5-24 10:47:06 | 显示全部楼层 |阅读模式 打印 上一主题 下一主题




Band Name: Denouncement Pyre
Album Title: World Cremation
Total Playing Time: 00:36:27 Min.
Country: Australia
Year: 2010
Record Label: Hells Headbangers
Music Genre: Black Metal
Codec: FLAC
Rip Format: Image + Cue + Log
Booklet Scans: Yes
Archive size: ~ 416 Мб
Host: Yadi.sk




1. Black Womb Of Magdelene 4:23
2. The Flesh Of Thy Master 3:49
3. Purification 3:58
4. Coven Of Diabolical Prophecies 4:59
5. Engulfed Temples 3:29
6. Salvation, The Fading Light 4:12
7. A Banner Drenched In Blood 4:43
8. Invination Of Poison 7:01


EAC Log File:
Spoiler: EAC Log (click to show/hide)Exact Audio Copy V1.1 from 23. June 2015
EAC extraction logfile from 2. October 2015, 22:35
Denouncement Pyre / World Cremation
Used drive : TSSTcorpCDDVDW SH-224DB Adapter: 1 ID: 0
Read mode : Secure
Utilize accurate stream : Yes
Defeat audio cache : Yes
Make use of C2 pointers : No
Read offset correction : 6
Overread into Lead-In and Lead-Out : No
Fill up missing offset samples with silence : Yes
Delete leading and trailing silent blocks : No
Null samples used in CRC calculations : Yes
Used interface : Native Win32 interface for Win NT & 2000
Used output format : User Defined Encoder
Selected bitrate : 1024 kBit/s
Quality : High
Add ID3 tag : No
Command line compressor : C:\Program Files (x86)\Exact Audio Copy\Flac\flac.exe
Additional command line options : -V -8 -T "Date=%year%" -T "Genre=%genre%" %source%
TOC of the extracted CD
Track | Start | Length | Start sector | End sector
---------------------------------------------------------
1 | 0:00.00 | 4:23.36 | 0 | 19760
2 | 4:23.36 | 3:49.40 | 19761 | 36975
3 | 8:13.01 | 3:58.68 | 36976 | 54893
4 | 12:11.69 | 4:59.43 | 54894 | 77361
5 | 17:11.37 | 3:28.74 | 77362 | 93035
6 | 20:40.36 | 4:12.00 | 93036 | 111935
7 | 24:52.36 | 4:43.36 | 111936 | 133196
8 | 29:35.72 | 7:01.69 | 133197 | 164840
Range status and errors
Selected range
Filename D:\1\1temp_musiqck\F1sher16\Denouncement Pyre - World Cremation\Denouncement Pyre - World Cremation.wav
Peak level 100.0 %
Extraction speed 2.4 X
Range quality 100.0 %
Test CRC 430E17BF
Copy CRC 430E17BF
Copy OK
No errors occurred
AccurateRip summary
Track 1 accurately ripped (confidence 4) [0F17DDC7] (AR v2)
Track 2 accurately ripped (confidence 4) [B6F08774] (AR v2)
Track 3 accurately ripped (confidence 4) [32745725] (AR v2)
Track 4 accurately ripped (confidence 4) [433D1B41] (AR v2)
Track 5 accurately ripped (confidence 4) [432A8A2C] (AR v2)
Track 6 accurately ripped (confidence 4) [1F66043C] (AR v2)
Track 7 accurately ripped (confidence 4) [C11BAAF1] (AR v2)
Track 8 accurately ripped (confidence 4) [85E9C942] (AR v2)
All tracks accurately ripped
End of status report
---- CUETools DB Plugin V2.1.6
[CTDB TOCID: jr_WBce_p5OfEdG8AXDYBIycszI-] found
Submit result: jr_WBce_p5OfEdG8AXDYBIycszI- has been confirmed
Track | CTDB Status
1 | (5/5) Accurately ripped
2 | (5/5) Accurately ripped
3 | (5/5) Accurately ripped
4 | (5/5) Accurately ripped
5 | (5/5) Accurately ripped
6 | (5/5) Accurately ripped
7 | (5/5) Accurately ripped
8 | (4/5) Accurately ripped, or (1/5) differs in 4584 samples @07:01:46-07:01:57
==== Log checksum A2491C0B382A8CC1F5F466E80E4DD9E233A04D6CDC570E2CAFE48AC6FCFA46F1 ====
                                                       
                                               
游客,本主题需向作者支付 10音乐币 才能浏览,金币充值, 免回复、免金币,直接查看内容请开通VIP支付

温馨提示

记得善用社区搜索功能,那里可能会有你想要的资源;论坛站内搜索

如果你有什么需要的资源可以去资源求档发帖,求助社区的网友,我们会在第一时间给你回复哦;资源求档

对于本社区网盘链接失效密码错误各种报错请在反馈板块反馈报错发帖,您的支持,是我们发展的最大动力;投诉建议

回复

使用道具 举报

您需要登录后才可以回帖 登录 | 立即注册 微信登录

本版积分规则

关注0

粉丝16

帖子87467

发布主题
阅读排行更多+
关闭

站长推荐上一条 /1 下一条

活动提示

[限时折扣][自购]Patricia Barber - Exclusive U.S. Release of Patricia Barber’s “Clique” – This Weekend Only 2021[DSD1024/DSF]

地址:立即购买DSD1024

我知道了
收藏帖子 返回列表 这是一个自定义按钮
音乐分享,音乐下载。
微信公众号
微信号:hires_
意见反馈:admin@maomicd.com

加入我们的官方QQ群和微信群

Powered by Discuz! X3.4 Archiver|手机版|小黑屋|捌零音乐论坛 ( 苏ICP备20015413号 )|( 苏公网安备 32030502000272号) 繁體

GMT+8, 2021-6-14 23:39