自购原抓音乐圈:只有自购、合购、原抓级高解析(hires、sacd、dsd)正版音乐资源分享!【点我打开
极速无线网卡:千兆无线网卡、服务器网卡、USB接口台式机笔记本网卡 硬盘代考无损音乐!【点我打开
广告

[摇滚] Sinpularctos - The Voidance of Man (2005) [FLAC]

[复制链接]
elmisy 发表于 2021-5-24 10:47:07 | 显示全部楼层 |阅读模式 打印 上一主题 下一主题




Band Name: Sinpularctos
Album Title: The Voidance of Man
Total Playing Time: 01:13:02 Min.
Country: United Kingdom
Year: 2005
Record Label: Sabbathid
Music Genre: Depressive Black Metal
Codec: FLAC
Rip Format: Image + Cue + Log
Booklet Scans: Yes
Archive size: ~ 440 Мб
Host: Yadi.sk




1. Disconnection
2. Midnight Revelation
3. Bi-Polar Disorder
4. Death Through Inimical Natural Order & The Insignificance Of Faith
5. Interlude
6. The Ongoing Fight Against Lesser Human Shits
7. Dirge/Cleansed Earth
8. Living Amongst The Ruins Of A Cursed Mind
9. End


EAC Log File:
Spoiler: EAC Log (click to show/hide)Exact Audio Copy V1.0 beta 1 from 15. November 2010
EAC extraction logfile from 18. February 2011, 12:11
Sinpularctos / The Voidance of Man
Used drive : HL-DT-STDVD-RAM GH22NP20 Adapter: 1 ID: 0
Read mode       : Secure
Utilize accurate stream : Yes
Defeat audio cache   : Yes
Make use of C2 pointers : No
Read offset correction           : 102
Overread into Lead-In and Lead-Out     : No
Fill up missing offset samples with silence : Yes
Delete leading and trailing silent blocks : No
Null samples used in CRC calculations   : Yes
Used interface               : Installed external ASPI interface
Used output format       : User Defined Encoder
Selected bitrate        : 768 kBit/s
Quality            : High
Add ID3 tag          : No
Command line compressor    : C:\Program Files\FLAC\flac.exe
Additional command line options : -8 -V %s
TOC of the extracted CD
  Track | Start | Length | Start sector | End sector
  ---------------------------------------------------------
    1 | 0:00.00 | 6:34.04 |    0  |  29553
    2 | 6:34.04 | 8:06.04 |  29554  |  66007
    3 | 14:40.08 | 20:38.17 |  66008  | 158874
    4 | 35:18.25 | 4:02.37 |  158875  | 177061
    5 | 39:20.62 | 3:38.36 |  177062  | 193447
    6 | 42:59.23 | 3:49.71 |  193448  | 210693
    7 | 46:49.19 | 9:45.09 |  210694  | 254577
    8 | 56:34.28 | 8:09.61 |  254578  | 291313
    9 | 64:44.14 | 8:17.12 |  291314  | 328600
Range status and errors
Selected range
  Filename D:\dedho\Sinpularctos - The Voidance of Man\Sinpularctos - The Voidance of Man.wav
  Peak level 100.0 %
  Extraction speed 0.3 X
  Range quality 100.0 %
  Test CRC FE717C12
  Copy CRC FE717C12
  Copy OK
No errors occurred
AccurateRip summary
Track 1 not present in database
Track 2 not present in database
Track 3 not present in database
Track 4 not present in database
Track 5 not present in database
Track 6 not present in database
Track 7 not present in database
Track 8 not present in database
Track 9 not present in database
None of the tracks are present in the AccurateRip database
End of status report
                                                       
                                               
游客,本主题需向作者支付 10音乐币 才能浏览,金币充值, 免回复、免金币,直接查看内容请开通VIP支付

温馨提示

记得善用社区搜索功能,那里可能会有你想要的资源;论坛站内搜索

如果你有什么需要的资源可以去资源求档发帖,求助社区的网友,我们会在第一时间给你回复哦;资源求档

对于本社区网盘链接失效密码错误各种报错请在反馈板块反馈报错发帖,您的支持,是我们发展的最大动力;投诉建议

回复

使用道具 举报

您需要登录后才可以回帖 登录 | 立即注册 微信登录

本版积分规则

关注0

粉丝2

帖子30429

发布主题
阅读排行更多+
关闭

站长推荐上一条 /1 下一条

活动提示

[限时折扣][自购]Patricia Barber - Exclusive U.S. Release of Patricia Barber’s “Clique” – This Weekend Only 2021[DSD1024/DSF]

地址:立即购买DSD1024

我知道了
收藏帖子 返回列表 这是一个自定义按钮
音乐分享,音乐下载。
微信公众号
微信号:hires_
意见反馈:admin@maomicd.com

加入我们的官方QQ群和微信群

Powered by Discuz! X3.4 Archiver|手机版|小黑屋|捌零音乐论坛 ( 苏ICP备20015413号 )|( 苏公网安备 32030502000272号) 繁體

GMT+8, 2021-6-19 14:48