自购原抓音乐圈:只有自购、合购、原抓级高解析(hires、sacd、dsd)正版音乐资源分享!【点我打开
极速无线网卡:千兆无线网卡、服务器网卡、USB接口台式机笔记本网卡 硬盘代考无损音乐!【点我打开
广告

[摇滚] Fornost Arnor - Escaping The Abyss (2009) [FLAC]

[复制链接]
kayda 发表于 2021-5-24 10:47:06 | 显示全部楼层 |阅读模式 打印 上一主题 下一主题




Band Name: Fornost Arnor
Album Title: Escaping The Abyss
Total Playing Time: 00:51:40 Min.
Country: United Kingdom
Year: 2009
Record Label: Witch-King Records
Music Genre: Progressive Black Metal
Codec: FLAC
Rip Format: Image + Cue + Log
Booklet Scans: Yes
Archive size: ~ 455 Мб
Host: Yadi.sk




01. I Am Misery 7:38
02. A Trance of Madness 5:37
03. If the Trees Could Only Speak 7:29
04. Her Face in the Water 5:45
05. Gravity Defied 4:13
06. Strength of the Heart 5:43
07. Falling into the Arms of Sorrow 1:50
08. The Tragedy of Delusion 13:28


EAC Log File:
Spoiler: EAC Log (click to show/hide)Exact Audio Copy V1.0 beta 3 from 29. August 2011
EAC extraction logfile from 19. May 2012, 17:08
Fornost Arnor / Escaping the Abyss
Used drive : TSSTcorpCD/DVDW SH-S182D Adapter: 2 ID: 0
Read mode : Secure
Utilize accurate stream : Yes
Defeat audio cache : Yes
Make use of C2 pointers : No
Read offset correction : 6
Overread into Lead-In and Lead-Out : No
Fill up missing offset samples with silence : Yes
Delete leading and trailing silent blocks : No
Null samples used in CRC calculations : Yes
Used interface : Native Win32 interface for Win NT & 2000
Used output format : User Defined Encoder
Selected bitrate : 320 kBit/s
Quality : High
Add ID3 tag : No
Command line compressor : C:\Program Files (x86)\Common Files\Audiocodecs\flac.exe
Additional command line options : -8 -T "Artist=%artist%" -T "Title=%title%" -T "Album=%albumtitle%" -T "Date=%year%" -T "Tracknumber=%tracknr%" -T "Genre=%genre%" %source% -o %dest%
TOC of the extracted CD
Track | Start | Length | Start sector | End sector
---------------------------------------------------------
1 | 0:00.00 | 7:37.56 | 0 | 34330
2 | 7:37.56 | 5:37.37 | 34331 | 59642
3 | 13:15.18 | 7:29.07 | 59643 | 93324
4 | 20:44.25 | 5:45.20 | 93325 | 119219
5 | 26:29.45 | 4:12.48 | 119220 | 138167
6 | 30:42.18 | 5:43.13 | 138168 | 163905
7 | 36:25.31 | 1:49.39 | 163906 | 172119
8 | 38:14.70 | 13:27.72 | 172120 | 232716
Range status and errors
Selected range
Filename E:\EAC Rips\Fornost Arnor - Escaping the Abyss.wav
Peak level 99.2 %
Extraction speed 6.9 X
Range quality 99.9 %
Test CRC 56572ED4
Copy CRC 56572ED4
Copy OK
No errors occurred
AccurateRip summary
Track 1 accurately ripped (confidence 1) [60067447] (AR v1)
Track 2 accurately ripped (confidence 1) [08DF1D55] (AR v1)
Track 3 accurately ripped (confidence 1) [75BB5851] (AR v1)
Track 4 accurately ripped (confidence 1) [0CEA6BAE] (AR v1)
Track 5 accurately ripped (confidence 1) [9A31EAAE] (AR v1)
Track 6 accurately ripped (confidence 1) [FDFE84DC] (AR v1)
Track 7 accurately ripped (confidence 1) [9115FD92] (AR v1)
Track 8 accurately ripped (confidence 1) [199B269F] (AR v1)
All tracks accurately ripped
End of status report
---- CUETools DB Plugin V2.1.3
[CTDB TOCID: ttlTJ7LxUi47DXQiVf0UtlpJ_DU-] found, Submit result: already submitted
[305378d2] (1/1) Accurately ripped
==== Log checksum 2604F4BF7A9B5C260AC616614CB037CB9EDF5178B3C5FE946702964516A3CDCF ====
                                                       
                                               
游客,本主题需向作者支付 10音乐币 才能浏览,金币充值, 免回复、免金币,直接查看内容请开通VIP支付

温馨提示

记得善用社区搜索功能,那里可能会有你想要的资源;论坛站内搜索

如果你有什么需要的资源可以去资源求档发帖,求助社区的网友,我们会在第一时间给你回复哦;资源求档

对于本社区网盘链接失效密码错误各种报错请在反馈板块反馈报错发帖,您的支持,是我们发展的最大动力;投诉建议

回复

使用道具 举报

您需要登录后才可以回帖 登录 | 立即注册 微信登录

本版积分规则

关注0

粉丝0

帖子30977

发布主题
阅读排行更多+
关闭

站长推荐上一条 /1 下一条

活动提示

[限时折扣][自购]Patricia Barber - Exclusive U.S. Release of Patricia Barber’s “Clique” – This Weekend Only 2021[DSD1024/DSF]

地址:立即购买DSD1024

我知道了
收藏帖子 返回列表 这是一个自定义按钮
音乐分享,音乐下载。
微信公众号
微信号:hires_
意见反馈:admin@maomicd.com

加入我们的官方QQ群和微信群

Powered by Discuz! X3.4 Archiver|手机版|小黑屋|捌零音乐论坛 ( 苏ICP备20015413号 )|( 苏公网安备 32030502000272号) 繁體

GMT+8, 2021-6-16 03:38