自购原抓音乐圈:只有自购、合购、原抓级高解析(hires、sacd、dsd)正版音乐资源分享!【点我打开
极速无线网卡:千兆无线网卡、服务器网卡、USB接口台式机笔记本网卡 硬盘代考无损音乐!【点我打开
广告

[摇滚] Zerstörer - Declaration of War (2009) [FLAC]

[复制链接]
韬199435 发表于 2021-5-24 10:47:06 | 显示全部楼层 |阅读模式 打印 上一主题 下一主题




Band Name: Zerstörer
Album Title: Declaration of War
Total Playing Time: 00:37:09 Min.
Country: Germany
Year: 2009
Record Label: Ashen Productions
Music Genre: Black Metal
Codec: FLAC
Rip Format: Image + Cue + Log
Booklet Scans: Yes
Archive size: ~ 289 Мб
Host: Yadi.sk




1 Metal Terror 02:14
2 Hatred Rising 03:30
3 Vengeance 03:47
4 Slaughter of Divinity 04:29
5 Pick Axe Blasphemy 03:23
6 Total Frost 04:02
7 Infernal Warfare 01:58
8 Life Absorber 03:40
9 Buried Alive 04:59
10 Shattering Universe 05:00


EAC Log File:
Spoiler: EAC Log (click to show/hide)Exact Audio Copy V1.0 beta 3 from 29. August 2011
EAC extraction logfile from 20. October 2013, 19:02
Zerstörer / Declaration of War
Used drive : ASUS  DRW-22B2L b Adapter: 5 ID: 5
Read mode       : Secure
Utilize accurate stream : Yes
Defeat audio cache   : Yes
Make use of C2 pointers : No
Read offset correction           : 6
Overread into Lead-In and Lead-Out     : No
Fill up missing offset samples with silence : Yes
Delete leading and trailing silent blocks : No
Null samples used in CRC calculations   : Yes
Used interface               : Native Win32 interface for Win NT & 2000
Used output format       : User Defined Encoder
Selected bitrate        : 128 kBit/s
Quality            : High
Add ID3 tag          : No
Command line compressor    : C:\Program Files\Exact Audio Copy\Flac\flac.exe
Additional command line options : -V -8 -T "Date=%year%" -T "Genre=%genre%" -T "Composer=%composer%" %source%

TOC of the extracted CD
  Track | Start | Length | Start sector | End sector
  ---------------------------------------------------------
    1 | 0:00.00 | 2:14.48 |    0  |  10097
    2 | 2:14.48 | 3:30.48 |  10098  |  25895
    3 | 5:45.21 | 3:47.48 |  25896  |  42968
    4 | 9:32.69 | 4:29.48 |  42969  |  63191
    5 | 14:02.42 | 3:23.48 |  63192  |  78464
    6 | 17:26.15 | 4:02.48 |  78465  |  96662
    7 | 21:28.63 | 1:58.48 |  96663  | 105560
    8 | 23:27.36 | 3:40.48 |  105561  | 122108
    9 | 27:08.09 | 4:59.48 |  122109  | 144581
   10 | 32:07.57 | 5:00.48 |  144582  | 167129

Range status and errors
Selected range
  Filename C:\1st0m1n\!!! Special for polkamelomana.ucoz.ru !!!\Zerstörer - Declaration of War.wav
  Peak level 100.0 %
  Extraction speed 7.5 X
  Range quality 99.9 %
  Test CRC 919F169F
  Copy CRC 919F169F
  Copy OK
No errors occurred

AccurateRip summary
Track 1 accurately ripped (confidence 1) [CEC62523] (AR v2)
Track 2 accurately ripped (confidence 1) [FAD846D2] (AR v2)
Track 3 accurately ripped (confidence 1) [72C037DF] (AR v2)
Track 4 accurately ripped (confidence 1) [CF6A0DE2] (AR v2)
Track 5 accurately ripped (confidence 1) [8494DDDB] (AR v2)
Track 6 accurately ripped (confidence 1) [6A82CD5F] (AR v2)
Track 7 accurately ripped (confidence 1) [E45F68A6] (AR v2)
Track 8 accurately ripped (confidence 1) [089F7AFC] (AR v2)
Track 9 accurately ripped (confidence 1) [CAB41610] (AR v2)
Track 10 accurately ripped (confidence 1) [D3354458] (AR v2)
All tracks accurately ripped
End of status report
---- CUETools DB Plugin V2.1.5
[CTDB TOCID: 3lsnzFDT9OlpUUMtKhhTzojqhdI-] found
Submit result: already submitted
Track | CTDB Status
1 | (2/2) Accurately ripped
2 | (2/2) Accurately ripped
3 | (2/2) Accurately ripped
4 | (2/2) Accurately ripped
5 | (2/2) Accurately ripped
6 | (2/2) Accurately ripped
7 | (2/2) Accurately ripped
8 | (2/2) Accurately ripped
9 | (2/2) Accurately ripped
10 | (2/2) Accurately ripped

==== Log checksum F1EE40D06C958A65530BFAF317FBDF6B9EBD0C160048ED07613E5E8E47B2C1BD ====
                                                       
                                               
游客,本主题需向作者支付 10音乐币 才能浏览,金币充值, 免回复、免金币,直接查看内容请开通VIP支付

温馨提示

记得善用社区搜索功能,那里可能会有你想要的资源;论坛站内搜索

如果你有什么需要的资源可以去资源求档发帖,求助社区的网友,我们会在第一时间给你回复哦;资源求档

对于本社区网盘链接失效密码错误各种报错请在反馈板块反馈报错发帖,您的支持,是我们发展的最大动力;投诉建议

回复

使用道具 举报

您需要登录后才可以回帖 登录 | 立即注册 微信登录

本版积分规则

关注0

粉丝0

帖子31129

发布主题
阅读排行更多+
关闭

站长推荐上一条 /1 下一条

活动提示

[限时折扣][自购]Patricia Barber - Exclusive U.S. Release of Patricia Barber’s “Clique” – This Weekend Only 2021[DSD1024/DSF]

地址:立即购买DSD1024

我知道了
收藏帖子 返回列表 这是一个自定义按钮
音乐分享,音乐下载。
微信公众号
微信号:hires_
意见反馈:admin@maomicd.com

加入我们的官方QQ群和微信群

Powered by Discuz! X3.4 Archiver|手机版|小黑屋|捌零音乐论坛 ( 苏ICP备20015413号 )|( 苏公网安备 32030502000272号) 繁體

GMT+8, 2021-6-13 01:23