自购原抓音乐圈:只有自购、合购、原抓级高解析(hires、sacd、dsd)正版音乐资源分享!【点我打开
极速无线网卡:千兆无线网卡、服务器网卡、USB接口台式机笔记本网卡 硬盘代考无损音乐!【点我打开
广告

[摇滚] Waffenträger Luzifers & Muert & Necrogoat - Satanic Brotherhood (2014) [Split] [FLAC]

[复制链接]
elmisy 发表于 2021-5-24 10:47:06 | 显示全部楼层 |阅读模式 打印 上一主题 下一主题




Band Name: Waffenträger Luzifers & Muert & Necrogoat
Album Title: Satanic Brotherhood
Total Playing Time: 00:35:27 Min.
Country: United-Nations
Year: 2014
Record Label: Total Death Records
Music Genre: Black Metal
Codec: FLAC
Rip Format: Image + Cue + Log
Booklet Scans: Yes
Archive size: ~ 260 Мб
Host: Yadi.sk




Waffenträger Luzifers
01. Slut of Hell (Bitch-version)02:55
02. Fleischeslust - Last Super of the Horned One03:15
03. Blood for Satan - Cut Your Flesh03:03
04. Blasphemic Lust03:02
Muert
05. Asphyxia on the Gravestone04:47
06. Blasphemy in Lastenia!03:40
Necrogoat
07. Black Night05:06
08. Ritual of Dark Demonic Spell05:35
09. Stench of Open Graves04:04


EAC Log File:
Spoiler: EAC Log (click to show/hide)Exact Audio Copy V1.0 beta 3 from 29. August 2011
EAC extraction logfile from 23. October 2015, 11:44
Waffenträger Luzifers / Muert / Necrogoat / Satanic Brotherhood
Used drive : hp   CDDVDW SN-208BB Adapter: 1 ID: 0
Read mode       : Secure
Utilize accurate stream : Yes
Defeat audio cache   : Yes
Make use of C2 pointers : No
Read offset correction           : 6
Overread into Lead-In and Lead-Out     : No
Fill up missing offset samples with silence : Yes
Delete leading and trailing silent blocks : No
Null samples used in CRC calculations   : Yes
Used interface               : Native Win32 interface for Win NT & 2000
Used output format       : User Defined Encoder
Selected bitrate        : 768 kBit/s
Quality            : High
Add ID3 tag          : Yes
Command line compressor    : C:\Program Files (x86)\Exact Audio Copy\FLAC\FLAC.EXE
Additional command line options : -V -8 -T "Date=%year%" -T "Genre=%genre%" %source%

TOC of the extracted CD
  Track | Start | Length | Start sector | End sector
  ---------------------------------------------------------
    1 | 0:00.00 | 2:54.72 |    0  |  13121
    2 | 2:54.72 | 3:15.36 |  13122  |  27782
    3 | 6:10.33 | 3:03.32 |  27783  |  41539
    4 | 9:13.65 | 3:02.04 |  41540  |  55193
    5 | 12:15.69 | 4:47.20 |  55194  |  76738
    6 | 17:03.14 | 3:40.28 |  76739  |  93266
    7 | 20:43.42 | 5:05.47 |  93267  | 116188
    8 | 25:49.14 | 5:35.21 |  116189  | 141334
    9 | 31:24.35 | 4:04.07 |  141335  | 159641

Range status and errors
Selected range
  Filename D:\beherit1972\Waffenträger Luzifers , Muert , Necrogoat - Satanic Brotherhood.wav
  Peak level 100.0 %
  Extraction speed 3.4 X
  Range quality 100.0 %
  Test CRC 05B30F51
  Copy CRC 05B30F51
  Copy OK
No errors occurred

AccurateRip summary
Track 1 not present in database
Track 2 not present in database
Track 3 not present in database
Track 4 not present in database
Track 5 not present in database
Track 6 not present in database
Track 7 not present in database
Track 8 not present in database
Track 9 not present in database
None of the tracks are present in the AccurateRip database
End of status report
---- CUETools DB Plugin V2.1.5
[CTDB TOCID: UreXKpPiU6BilnS8IhQGyLVGSJQ-] disk not present in database
Submit result: UreXKpPiU6BilnS8IhQGyLVGSJQ- has been uploaded

==== Log checksum 2B3D60E1CEE9BF2869CD49ABE1B2CFEA2FC6C37E2A4E79FF3C7E23D2BC66CF8D ====
                                                       
                                               
游客,本主题需向作者支付 10音乐币 才能浏览,金币充值, 免回复、免金币,直接查看内容请开通VIP支付

温馨提示

记得善用社区搜索功能,那里可能会有你想要的资源;论坛站内搜索

如果你有什么需要的资源可以去资源求档发帖,求助社区的网友,我们会在第一时间给你回复哦;资源求档

对于本社区网盘链接失效密码错误各种报错请在反馈板块反馈报错发帖,您的支持,是我们发展的最大动力;投诉建议

回复

使用道具 举报

您需要登录后才可以回帖 登录 | 立即注册 微信登录

本版积分规则

关注0

粉丝2

帖子30429

发布主题
阅读排行更多+
关闭

站长推荐上一条 /1 下一条

活动提示

[限时折扣][自购]Patricia Barber - Exclusive U.S. Release of Patricia Barber’s “Clique” – This Weekend Only 2021[DSD1024/DSF]

地址:立即购买DSD1024

我知道了
收藏帖子 返回列表 这是一个自定义按钮
音乐分享,音乐下载。
微信公众号
微信号:hires_
意见反馈:admin@maomicd.com

加入我们的官方QQ群和微信群

Powered by Discuz! X3.4 Archiver|手机版|小黑屋|捌零音乐论坛 ( 苏ICP备20015413号 )|( 苏公网安备 32030502000272号) 繁體

GMT+8, 2021-6-13 01:48