自购原抓音乐圈:只有自购、合购、原抓级高解析(hires、sacd、dsd)正版音乐资源分享!【点我打开
极速无线网卡:千兆无线网卡、服务器网卡、USB接口台式机笔记本网卡 硬盘代考无损音乐!【点我打开
广告

[摇滚] Morok - And I Walk Among The Shadows... (2015) [FLAC]

[复制链接]
kayda 发表于 2021-5-24 10:47:05 | 显示全部楼层 |阅读模式 打印 上一主题 下一主题




Band Name: Morok
Album Title: And I Walk Among The Shadows...
Total Playing Time: 00:44:27 Min.
Country: Ukraine
Year: 2015
Record Label: Werewolf Promotion
Music Genre: Black Metal
Codec: FLAC
Rip Format: Image + Cue + Log
Booklet Scans: Yes
Archive size: ~ 362 Мб
Host: Yadi.sk




01. Полум'я Війни 04:17
02. Дзвони Безодні 05:06
03. Царство Ночі 08:22
04. Стежками Вічності 02:32
05. Вітер Хмар 07:39
06. Холодне Сяйво Зірок 06:33
07. Морок 09:58


EAC Log File:
Spoiler: EAC Log (click to show/hide)Exact Audio Copy V1.0 beta 3 from 29. August 2011
EAC extraction logfile from 4. December 2015, 21:40
Morok / And I Walk Among The Shadows...
Used drive : hp   CDDVDW SN-208BB Adapter: 1 ID: 0
Read mode       : Secure
Utilize accurate stream : Yes
Defeat audio cache   : Yes
Make use of C2 pointers : No
Read offset correction           : 6
Overread into Lead-In and Lead-Out     : No
Fill up missing offset samples with silence : Yes
Delete leading and trailing silent blocks : No
Null samples used in CRC calculations   : Yes
Used interface               : Native Win32 interface for Win NT & 2000
Used output format       : User Defined Encoder
Selected bitrate        : 768 kBit/s
Quality            : High
Add ID3 tag          : Yes
Command line compressor    : C:\Program Files (x86)\Exact Audio Copy\FLAC\FLAC.EXE
Additional command line options : -V -8 -T "Date=%year%" -T "Genre=%genre%" %source%

TOC of the extracted CD
  Track | Start | Length | Start sector | End sector
  ---------------------------------------------------------
    1 | 0:00.00 | 4:17.18 |    0  |  19292
    2 | 4:17.18 | 5:06.26 |  19293  |  42268
    3 | 9:23.44 | 8:22.00 |  42269  |  79918
    4 | 17:45.44 | 2:31.56 |  79919  |  91299
    5 | 20:17.25 | 7:39.20 |  91300  | 125744
    6 | 27:56.45 | 6:33.00 |  125745  | 155219
    7 | 34:29.45 | 9:58.00 |  155220  | 200069

Range status and errors
Selected range
  Filename D:\beherit1972\Morok - And I Walk Among The Shadows....wav
  Peak level 100.0 %
  Extraction speed 3.8 X
  Range quality 99.9 %
  Test CRC 5856360E
  Copy CRC 5856360E
  Copy OK
No errors occurred

AccurateRip summary
Track 1 not present in database
Track 2 not present in database
Track 3 not present in database
Track 4 not present in database
Track 5 not present in database
Track 6 not present in database
Track 7 not present in database
None of the tracks are present in the AccurateRip database
End of status report
---- CUETools DB Plugin V2.1.5
[CTDB TOCID: JGN5dmeah5aY_Fph8dckSRn01d4-] disk not present in database
Submit result: JGN5dmeah5aY_Fph8dckSRn01d4- has been uploaded

==== Log checksum DAA89C9252FECA1281AAF0F61439D0D851C969262A4DD6C2A1E2347312F52298 ====
                                                       
                                               
游客,本主题需向作者支付 10音乐币 才能浏览,金币充值, 免回复、免金币,直接查看内容请开通VIP支付

温馨提示

记得善用社区搜索功能,那里可能会有你想要的资源;论坛站内搜索

如果你有什么需要的资源可以去资源求档发帖,求助社区的网友,我们会在第一时间给你回复哦;资源求档

对于本社区网盘链接失效密码错误各种报错请在反馈板块反馈报错发帖,您的支持,是我们发展的最大动力;投诉建议

回复

使用道具 举报

您需要登录后才可以回帖 登录 | 立即注册 微信登录

本版积分规则

关注0

粉丝0

帖子30977

发布主题
阅读排行更多+
关闭

站长推荐上一条 /1 下一条

活动提示

[限时折扣][自购]Patricia Barber - Exclusive U.S. Release of Patricia Barber’s “Clique” – This Weekend Only 2021[DSD1024/DSF]

地址:立即购买DSD1024

我知道了
收藏帖子 返回列表 这是一个自定义按钮
音乐分享,音乐下载。
微信公众号
微信号:hires_
意见反馈:admin@maomicd.com

加入我们的官方QQ群和微信群

Powered by Discuz! X3.4 Archiver|手机版|小黑屋|捌零音乐论坛 ( 苏ICP备20015413号 )|( 苏公网安备 32030502000272号) 繁體

GMT+8, 2021-6-13 13:03