自购原抓音乐圈:只有自购、合购、原抓级高解析(hires、sacd、dsd)正版音乐资源分享!【点我打开
极速无线网卡:千兆无线网卡、服务器网卡、USB接口台式机笔记本网卡 硬盘代考无损音乐!【点我打开
广告

[摇滚] Desolate Heaven - Воспеть конец времён [Digipack] (2015) [FLAC]

[复制链接]
fqw1001 发表于 2021-5-24 10:47:05 | 显示全部楼层 |阅读模式 打印 上一主题 下一主题




Band Name: Desolate Heaven
Album Title: Воспеть конец времён
Total Playing Time: 00:34:13 Min.
Country: Belarus
Year: 2015
Record Label: Gardarika Musikk
Music Genre: Black Metal
Codec: FLAC
Rip Format: Image + Cue + Log
Booklet Scans: Yes
Archive size: ~ 308 Мб
Host: Yadi.sk




1.Прокляты все пути (Smutak Ciemraszal)07:38
2.Мёрзлому опустошению05:39
3.На рога небесного зов...04:16
4.Воспеть конец времён08:38
5.Последнее заклятье08:02


EAC Log File:
Spoiler: EAC Log (click to show/hide)Exact Audio Copy V1.1 from 23. June 2015
EAC extraction logfile from 18. October 2015, 0:13
Desolate Heaven / Воспеть конец времён
Used drive : TSSTcorpCDDVDW SH-224DB Adapter: 1 ID: 0
Read mode       : Secure
Utilize accurate stream : Yes
Defeat audio cache   : Yes
Make use of C2 pointers : No
Read offset correction           : 6
Overread into Lead-In and Lead-Out     : No
Fill up missing offset samples with silence : Yes
Delete leading and trailing silent blocks : No
Null samples used in CRC calculations   : Yes
Used interface               : Native Win32 interface for Win NT & 2000
Used output format       : User Defined Encoder
Selected bitrate        : 1024 kBit/s
Quality            : High
Add ID3 tag          : No
Command line compressor    : C:\Program Files (x86)\Exact Audio Copy\Flac\flac.exe
Additional command line options : -V -8 -T "Date=%year%" -T "Genre=%genre%" %source%

TOC of the extracted CD
  Track | Start | Length | Start sector | End sector
  ---------------------------------------------------------
    1 | 0:00.00 | 7:40.29 |    0  |  34528
    2 | 7:40.29 | 5:41.16 |  34529  |  60119
    3 | 13:21.45 | 4:18.59 |  60120  |  79528
    4 | 17:40.29 | 8:40.32 |  79529  | 118560
    5 | 26:20.61 | 8:02.20 |  118561  | 154730

Range status and errors
Selected range
  Filename D:\1\1temp_musiqck\F1sher16\Desolate Heaven - Воспеть конец времён\Desolate Heaven - Воспеть конец времён.wav
  Peak level 98.9 %
  Extraction speed 2.7 X
  Range quality 99.9 %
  Test CRC 228FE31C
  Copy CRC 228FE31C
  Copy OK
No errors occurred

AccurateRip summary
Track 1 not present in database
Track 2 not present in database
Track 3 not present in database
Track 4 not present in database
Track 5 not present in database
None of the tracks are present in the AccurateRip database
End of status report
---- CUETools DB Plugin V2.1.6
[CTDB TOCID: bwGHNguTveSK0ebXA_yF8IJIbBs-] disk not present in database
Submit result: bwGHNguTveSK0ebXA_yF8IJIbBs- has been uploaded

==== Log checksum B107F85ABDA5E582EC4B5C5EFEF176D29DC6DA8BD98857772891EE9FCA79B089 ====
                                                       
                                               
游客,本主题需向作者支付 10音乐币 才能浏览,金币充值, 免回复、免金币,直接查看内容请开通VIP支付

温馨提示

记得善用社区搜索功能,那里可能会有你想要的资源;论坛站内搜索

如果你有什么需要的资源可以去资源求档发帖,求助社区的网友,我们会在第一时间给你回复哦;资源求档

对于本社区网盘链接失效密码错误各种报错请在反馈板块反馈报错发帖,您的支持,是我们发展的最大动力;投诉建议

回复

使用道具 举报

您需要登录后才可以回帖 登录 | 立即注册 微信登录

本版积分规则

关注0

粉丝0

帖子30416

发布主题
阅读排行更多+
关闭

站长推荐上一条 /1 下一条

活动提示

[限时折扣][自购]Patricia Barber - Exclusive U.S. Release of Patricia Barber’s “Clique” – This Weekend Only 2021[DSD1024/DSF]

地址:立即购买DSD1024

我知道了
收藏帖子 返回列表 这是一个自定义按钮
音乐分享,音乐下载。
微信公众号
微信号:hires_
意见反馈:admin@maomicd.com

加入我们的官方QQ群和微信群

Powered by Discuz! X3.4 Archiver|手机版|小黑屋|捌零音乐论坛 ( 苏ICP备20015413号 )|( 苏公网安备 32030502000272号) 繁體

GMT+8, 2021-6-13 01:06