自购原抓音乐圈:只有自购、合购、原抓级高解析(hires、sacd、dsd)正版音乐资源分享!【点我打开
极速无线网卡:千兆无线网卡、服务器网卡、USB接口台式机笔记本网卡 硬盘代考无损音乐!【点我打开
广告

[摇滚] Melechesh - Djinn [2CD Limited Edition Digipack 2010 Remastered] [2000 copies] (2001) [FLAC]

[复制链接]
全球采集 发表于 2021-5-24 10:47:04 | 显示全部楼层 |阅读模式 打印 上一主题 下一主题






Band Name: Melechesh
Album Title: Djinn (2CD Limited Edition Digipack 2010 Remastered) (2000 copies)
Total Playing Time: 00:58:06 + 00:42:06 Min.
Year: 2001 (2010)
Country: Israel
Record Label: Osmose Productions
Music Genre: black death middle eastern folk metal
Rip Format: FLAC (Image+Cue+Log)
Booklet Scans: Yes
Size Archive: ~ 821 MB
Host: Yadi.sk



CD 1:
01. Whispers from the Tower [1:07]
02. Genies Sorcerers and Mesopotamian Nights [6:34]
03. A Summoning of Ifrit and Genii [7:41]
04. Wardjinn [5:20]
05. Rub The lantern [8:58]
06. Covering the Sun [6:40]
07. Kurnugi’s Reign [5:44]
08. Oasis of Molten Gold [4:03]
09. Dragon's Legacy [5:38]
10. The Siege of Lachish [6:21]
CD 2:
01. Summoning of Ifrit and Genii [7:25]
02. Rub the Lantern [8:16]
03. Wardjinn [5:54]
04. Dragon's Legacy [5:53]
05. Genies, Sorcerers and Mesopotamian Nights [8:31]
06. The Siege of Lachish [6:10]



! No longer available


EAC Log File:
Spoiler: EAC Log (click to show/hide)Exact Audio Copy V1.0 beta 1 from 15. November 2010
EAC extraction logfile from 10. December 2010, 14:31
Melechesh / Djinn Remix
Used drive : TSSTcorpCDRWDVD TS-H492C Adapter: 0 ID: 0
Read mode       : Secure
Utilize accurate stream : Yes
Defeat audio cache   : Yes
Make use of C2 pointers : No
Read offset correction           : 6
Overread into Lead-In and Lead-Out     : No
Fill up missing offset samples with silence : Yes
Delete leading and trailing silent blocks : No
Null samples used in CRC calculations   : Yes
Used interface               : Native Win32 interface for Win NT & 2000
Used output format : Internal WAV Routines
Sample format   : 44.100 Hz; 16 Bit; Stereo

TOC of the extracted CD
  Track | Start | Length | Start sector | End sector
  ---------------------------------------------------------
    1 | 0:00.00 | 1:07.02 |    0  |  5026
    2 | 1:07.02 | 6:34.01 |   5027  |  34577
    3 | 7:41.03 | 7:41.00 |  34578  |  69152
    4 | 15:22.03 | 5:20.31 |  69153  |  93183
    5 | 20:42.34 | 8:58.00 |  93184  | 133533
    6 | 29:40.34 | 6:40.00 |  133534  | 163533
    7 | 36:20.34 | 5:43.74 |  163534  | 189332
    8 | 42:04.33 | 4:03.00 |  189333  | 207557
    9 | 46:07.33 | 5:38.01 |  207558  | 232908
   10 | 51:45.34 | 6:21.22 |  232909  | 261505

Range status and errors
Selected range
  Filename C:\Melechesh\2010-Djinn Remix\Djinn Remix Disc 1.wav
  Peak level 100.0 %
  Extraction speed 0.7 X
  Range quality 100.0 %
  Test CRC B610F56C
  Copy CRC B610F56C
  Copy OK
No errors occurred

AccurateRip summary
Track 1 accurately ripped (confidence 1) [108D9FD1]
Track 2 accurately ripped (confidence 1) [54D3176F]
Track 3 accurately ripped (confidence 1) [BFAF6216]
Track 4 accurately ripped (confidence 1) [32835005]
Track 5 accurately ripped (confidence 1) [EC829F4A]
Track 6 accurately ripped (confidence 1) [33690FF6]
Track 7 accurately ripped (confidence 1) [10E7748D]
Track 8 accurately ripped (confidence 1) [BD0B1C8E]
Track 9 accurately ripped (confidence 1) [60B6F8A0]
Track 10 accurately ripped (confidence 1) [B6F9BD62]
All tracks accurately ripped
End of status reportEAC Log File:
Spoiler: EAC Log (click to show/hide)Exact Audio Copy V1.0 beta 1 from 15. November 2010
EAC extraction logfile from 10. December 2010, 14:44
Melechesh / Djinn Remix Disc 2 - Djinn Demo
Used drive : TSSTcorpCDRWDVD TS-H492C Adapter: 0 ID: 0
Read mode       : Secure
Utilize accurate stream : Yes
Defeat audio cache   : Yes
Make use of C2 pointers : No
Read offset correction           : 6
Overread into Lead-In and Lead-Out     : No
Fill up missing offset samples with silence : Yes
Delete leading and trailing silent blocks : No
Null samples used in CRC calculations   : Yes
Used interface               : Native Win32 interface for Win NT & 2000
Used output format : Internal WAV Routines
Sample format   : 44.100 Hz; 16 Bit; Stereo

TOC of the extracted CD
  Track | Start | Length | Start sector | End sector
  ---------------------------------------------------------
    1 | 0:00.00 | 7:25.30 |    0  |  33404
    2 | 7:25.30 | 8:15.51 |  33405  |  70580
    3 | 15:41.06 | 5:54.16 |  70581  |  97146
    4 | 21:35.22 | 5:52.50 |  97147  | 123596
    5 | 27:27.72 | 8:31.24 |  123597  | 161945
    6 | 35:59.21 | 6:09.46 |  161946  | 189666

Range status and errors
Selected range
  Filename C:\Melechesh\2010-Djinn Remix\Djinn Remix Disc 2 - Djinn Demo.wav
  Peak level 98.0 %
  Extraction speed 0.9 X
  Range quality 100.0 %
  Test CRC 76323AE7
  Copy CRC 76323AE7
  Copy OK
No errors occurred

AccurateRip summary
Track 1 not present in database
Track 2 not present in database
Track 3 not present in database
Track 4 not present in database
Track 5 not present in database
Track 6 not present in database
None of the tracks are present in the AccurateRip database
End of status report
                                                       
                                               
游客,本主题需向作者支付 10音乐币 才能浏览,金币充值, 免回复、免金币,直接查看内容请开通VIP支付

温馨提示

记得善用社区搜索功能,那里可能会有你想要的资源;论坛站内搜索

如果你有什么需要的资源可以去资源求档发帖,求助社区的网友,我们会在第一时间给你回复哦;资源求档

对于本社区网盘链接失效密码错误各种报错请在反馈板块反馈报错发帖,您的支持,是我们发展的最大动力;投诉建议

回复

使用道具 举报

您需要登录后才可以回帖 登录 | 立即注册 微信登录

本版积分规则

关注0

粉丝16

帖子87467

发布主题
阅读排行更多+
关闭

站长推荐上一条 /1 下一条

活动提示

[限时折扣][自购]Patricia Barber - Exclusive U.S. Release of Patricia Barber’s “Clique” – This Weekend Only 2021[DSD1024/DSF]

地址:立即购买DSD1024

我知道了
收藏帖子 返回列表 这是一个自定义按钮
音乐分享,音乐下载。
微信公众号
微信号:hires_
意见反馈:admin@maomicd.com

加入我们的官方QQ群和微信群

Powered by Discuz! X3.4 Archiver|手机版|小黑屋|捌零音乐论坛 ( 苏ICP备20015413号 )|( 苏公网安备 32030502000272号) 繁體

GMT+8, 2021-6-15 00:09