自购原抓音乐圈:只有自购、合购、原抓级高解析(hires、sacd、dsd)正版音乐资源分享!【点我打开
极速无线网卡:千兆无线网卡、服务器网卡、USB接口台式机笔记本网卡 硬盘代考无损音乐!【点我打开
广告

[摇滚] Ancient Spheres - In Conspiracy with the Night (2015) [FLAC]

[复制链接]
kayda 发表于 2021-5-24 10:47:04 | 显示全部楼层 |阅读模式 打印 上一主题 下一主题




Band Name: Ancient Spheres
Album Title: In Conspiracy with the Night
Total Playing Time: 01:17:08 Min.
Country: Costa Rica
Year: 2015
Record Label: More Hate Records
Music Genre: Black Metal
Codec: FLAC
Rip Format: Image + Cue + Log
Booklet Scans: Yes
Archive size: ~ 595 Mb
Host: Yadi.sk




01. Enchantment of the Night. - 01:42
02. Invoking Darkness. - 05:25
03. A Tale Told Two Thousand Times. - 05:46
04. Ethereal. - 05:17
05. Emperors of the Night. - 05:34
06. The Sign. - 05:41
07. My Ancient Spirits. - 05:08
08. Slaughters. - 05:35
09. The Old Forest. - 05:28
10. Cold and Dead Stone. - 06:06
11. In Solitude I Die. - 05:53
Remastered bonus tracks:
12. Lord of the Morbid Ritual (Alternative lyrics). - 05:19
13. Chaos Compass (Alternative lyrics). - 03:49
14. Serkes (Voice re-recorded). - 06:08
15. Sands of Oblivion (Voice re-recorded). - 04:09


EAC Log File:
Spoiler: EAC Log (click to show/hide)Exact Audio Copy V1.1 from 23. June 2015
Отчёт EAC об извлечении, выполненном 4. мая 2016, 21:36
Ancient Spheres / In Conspiracy with the Night
Дисковод: ASUS  DRW-24F1ST a Adapter: 3 ID: 0
Режим чтения        : Достоверность
Использование точного потока : Да
Отключение кэша аудио    : Да
Использование указателей C2 : Нет
Коррекция смещения при чтении          : 6
Способность читать области Lead-in и Lead-out  : Нет
Заполнение пропущенных сэмплов тишиной      : Да
Удаление блоков с тишиной в начале и конце    : Нет
При вычислениях CRC использовались нулевые сэмплы : Да
Интерфейс                    : Установленный внешний ASPI-интерфейс
Выходной формат     : Пользовательский кодировщик
Выбранный битрейт    : 128 kBit/s
Качество        : Высокий
Добавление ID3-тега   : Нет
Утилита сжатия     : C:\Program Files (x86)\Exact Audio Copy\Flac\flac.exe
Дополнительные параметры : -V -8 -T "Date=%year%" -T "Genre=%genre%" %source%

TOC извлечённого CD
  Трек | Старт | Длительность | Начальный сектор | Конечный сектор
  ---------------------------------------------------------------------
   1 | 0:00.00 |  1:42.00 |     0   |   7649   
   2 | 1:42.00 |  5:25.55 |    7650   |   32079   
   3 | 7:07.55 |  5:46.40 |   32080   |   58069   
   4 | 12:54.20 |  5:17.66 |   58070   |   81910   
   5 | 18:12.11 |  5:34.30 |   81911   |  106990   
   6 | 23:46.41 |  5:41.46 |   106991   |  132611   
   7 | 29:28.12 |  5:08.55 |   132612   |  155766   
   8 | 34:36.67 |  5:35.64 |   155767   |  180955   
   9 | 40:12.56 |  5:28.00 |   180956   |  205555   
   10 | 45:40.56 |  6:06.31 |   205556   |  233036   
   11 | 51:47.12 |  5:53.68 |   233037   |  259579   
   12 | 57:41.05 |  5:19.15 |   259580   |  283519   
   13 | 63:00.20 |  3:49.51 |   283520   |  300745   
   14 | 66:49.71 |  6:08.30 |   300746   |  328375   
   15 | 72:58.26 |  4:09.29 |   328376   |  347079   

Характеристики диапазона извлечения и сообщения об ошибках
Выбранный диапазон
  Имя файла C:\Users\ZYKLON\Desktop\отправить\Ancient Spheres\2015 '' In Conspiracy with the Night ''\Ancient Spheres - In Conspiracy with the Night.wav
  Пиковый уровень 100.0 %
  Скорость извлечения 3.4 X
  Качество диапазона 99.9 %
  CRC теста 1360AAA0
  CRC копии 1360AAA0
  Копирование... OK
Ошибок не произошло

AccurateRip: сводка
Трек 1 отсутствует в базе данных
Трек 2 отсутствует в базе данных
Трек 3 отсутствует в базе данных
Трек 4 отсутствует в базе данных
Трек 5 отсутствует в базе данных
Трек 6 отсутствует в базе данных
Трек 7 отсутствует в базе данных
Трек 8 отсутствует в базе данных
Трек 9 отсутствует в базе данных
Трек 10 отсутствует в базе данных
Трек 11 отсутствует в базе данных
Трек 12 отсутствует в базе данных
Трек 13 отсутствует в базе данных
Трек 14 отсутствует в базе данных
Трек 15 отсутствует в базе данных
Ни одного трека нет в базе AccurateRip
Конец отчёта
---- CUETools DB Plugin V2.1.6
[CTDB TOCID: vjCml6vql9jwbZ8EmJE5DINrNXc-] found
Submit result: vjCml6vql9jwbZ8EmJE5DINrNXc- has been confirmed
Track | CTDB Status
1 | (1/1) Accurately ripped
2 | (1/1) Accurately ripped
3 | (1/1) Accurately ripped
4 | (1/1) Accurately ripped
5 | (1/1) Accurately ripped
6 | (1/1) Accurately ripped
7 | (1/1) Accurately ripped
8 | (1/1) Accurately ripped
9 | (1/1) Accurately ripped
10 | (1/1) Accurately ripped
11 | (1/1) Accurately ripped
12 | (1/1) Accurately ripped
13 | (1/1) Accurately ripped
14 | (1/1) Accurately ripped
15 | (1/1) Accurately ripped

==== Контрольная сумма отчёта 96CC592C32D36ADDE45E6E2DBD543F729147477BAB748B4B6B96E98547D990AE ====
                                                       
                                               
游客,本主题需向作者支付 10音乐币 才能浏览,金币充值, 免回复、免金币,直接查看内容请开通VIP支付

温馨提示

记得善用社区搜索功能,那里可能会有你想要的资源;论坛站内搜索

如果你有什么需要的资源可以去资源求档发帖,求助社区的网友,我们会在第一时间给你回复哦;资源求档

对于本社区网盘链接失效密码错误各种报错请在反馈板块反馈报错发帖,您的支持,是我们发展的最大动力;投诉建议

回复

使用道具 举报

您需要登录后才可以回帖 登录 | 立即注册 微信登录

本版积分规则

关注0

粉丝0

帖子30977

发布主题
阅读排行更多+
关闭

站长推荐上一条 /1 下一条

活动提示

[限时折扣][自购]Patricia Barber - Exclusive U.S. Release of Patricia Barber’s “Clique” – This Weekend Only 2021[DSD1024/DSF]

地址:立即购买DSD1024

我知道了
收藏帖子 返回列表 这是一个自定义按钮
音乐分享,音乐下载。
微信公众号
微信号:hires_
意见反馈:admin@maomicd.com

加入我们的官方QQ群和微信群

Powered by Discuz! X3.4 Archiver|手机版|小黑屋|捌零音乐论坛 ( 苏ICP备20015413号 )|( 苏公网安备 32030502000272号) 繁體

GMT+8, 2021-6-13 02:29