自购原抓音乐圈:只有自购、合购、原抓级高解析(hires、sacd、dsd)正版音乐资源分享!【点我打开
极速无线网卡:千兆无线网卡、服务器网卡、USB接口台式机笔记本网卡 硬盘代考无损音乐!【点我打开
广告

[摇滚] Bloodrose - Into Oblivion (2002) [APE]

[复制链接]
kayda 发表于 2021-5-24 10:47:04 | 显示全部楼层 |阅读模式 打印 上一主题 下一主题




Band Name: Bloodrose
Album Title: Into Oblivion
Total Playing Time: 00:41:41 Min.
Country: Finland
Year: 2002
Record Label: Bloodrose
Music Genre: Sympho Black Metal
Codec: APE
Rip Format: Image + Cue + Log
Booklet Scans: No
Archive size: ~ 301 Мб
Host: Yadi.sk




[00:05:04] 01. Prophecies Of Chaos To Come
[00:05:43] 02. Shattered Dreams
[00:05:06] 03. In Death Lies My Destiny
[00:06:17] 04. Black-Hearted From Within
[00:07:10] 05. Kun Kuoleman Harso Laskeutuu
[00:05:22] 06. Forgotten Chapter Of Time
[00:06:55] 07. ...Final Darkness Falls...


EAC Log File:
Spoiler: EAC Log (click to show/hide)Exact Audio Copy V0.99 prebeta 4 from 23. January 2008
Отчёт EAC об извлечении, выполненном 7. октября 2009, 2:40
Bloodrose / Into Oblivion
Дисковод: TSSTcorpCD/DVDW SH-S182D Adapter: 5 ID: 0
Режим чтения : Достоверность
Использование точного потока : Да
Отключение кэша аудио : Да
Использование указателей C2 : Нет
Коррекция смещения при чтении : 6
Способность читать области Lead-in и Lead-out : Нет
Заполнение пропущенных сэмплов тишиной : Да
Удаление блоков с тишиной в начале и конце : Нет
При вычислениях CRC использовались нулевые сэмплы : Да
Интерфейс : Установленный внешний ASPI-интерфейс
Выходной формат : Внутренние WAV-операции
Формат сэмплов : 44.100 Гц; 16 бит; стерео
Смещение при сжатии : 48
TOC извлечённого CD
Трек | Старт | Длительность | Начальный сектор | Конечный сектор
---------------------------------------------------------------------
1 | 0:00.00 | 5:04.35 | 0 | 22834
2 | 5:04.35 | 5:43.45 | 22835 | 48604
3 | 10:48.05 | 5:06.70 | 48605 | 71624
4 | 15:55.00 | 6:17.25 | 71625 | 99924
5 | 22:12.25 | 7:10.55 | 99925 | 132229
6 | 29:23.05 | 5:22.65 | 132230 | 156444
7 | 34:45.70 | 6:55.07 | 156445 | 187576
Характеристики диапазона извлечения и сообщения об ошибках
Выбранный диапазон
Имя файла C:\Documents and Settings\Admin\Рабочий стол\Bloodrose - Into Oblivion.wav
Пиковый уровень 97.6 %
Качество диапазона 100.0 %
CRC копии 93F88D54
Копирование... OK
Ошибок не произошло
Конец отчёта
                                                       
                                               
游客,本主题需向作者支付 10音乐币 才能浏览,金币充值, 免回复、免金币,直接查看内容请开通VIP支付

温馨提示

记得善用社区搜索功能,那里可能会有你想要的资源;论坛站内搜索

如果你有什么需要的资源可以去资源求档发帖,求助社区的网友,我们会在第一时间给你回复哦;资源求档

对于本社区网盘链接失效密码错误各种报错请在反馈板块反馈报错发帖,您的支持,是我们发展的最大动力;投诉建议

回复

使用道具 举报

您需要登录后才可以回帖 登录 | 立即注册 微信登录

本版积分规则

关注0

粉丝0

帖子30977

发布主题
阅读排行更多+
关闭

站长推荐上一条 /1 下一条

活动提示

[限时折扣][自购]Patricia Barber - Exclusive U.S. Release of Patricia Barber’s “Clique” – This Weekend Only 2021[DSD1024/DSF]

地址:立即购买DSD1024

我知道了
收藏帖子 返回列表 这是一个自定义按钮
音乐分享,音乐下载。
微信公众号
微信号:hires_
意见反馈:admin@maomicd.com

加入我们的官方QQ群和微信群

Powered by Discuz! X3.4 Archiver|手机版|小黑屋|捌零音乐论坛 ( 苏ICP备20015413号 )|( 苏公网安备 32030502000272号) 繁體

GMT+8, 2021-6-15 02:56