自购原抓音乐圈:只有自购、合购、原抓级高解析(hires、sacd、dsd)正版音乐资源分享!【点我打开
极速无线网卡:千兆无线网卡、服务器网卡、USB接口台式机笔记本网卡 硬盘代考无损音乐!【点我打开
广告

[摇滚] Hellhammer - Apocalyptic Raids 1990 A.D. (1990) [Compilation] [FLAC]

[复制链接]
全球搬运 发表于 2021-5-24 10:47:04 | 显示全部楼层 |阅读模式 打印 上一主题 下一主题




Band Name: Hellhammer
Album Title: Apocalyptic Raids 1990 A.D.
Total Playing Time: 00:27:16 Min.
Country: Switzerland
Year: 1990
Record Label: Hellhammer
Music Genre: Black Metal
Codec: FLAC
Rip Format: Image + Cue + Log
Booklet Scans: Yes
Archive size: ~ 200 Mb
Host: Yadi.sk




1. The Third of Storms
2. Massacra
3. Triumph of Death
4. Horus/Aggressor
5. Revelations of Doom
6. Messiah


EAC Log File:
Spoiler: EAC Log (click to show/hide)Exact Audio Copy V1.0 beta 1 from 15. November 2010
EAC extraction logfile from 15. September 2011, 9:17
Hellhammer / Apocalyptic Raids 1990 A.D.
Used drive : TSSTcorpCDDVDW SE-S084F Adapter: 3 ID: 0
Read mode       : Secure
Utilize accurate stream : Yes
Defeat audio cache   : Yes
Make use of C2 pointers : No
Read offset correction           : 6
Overread into Lead-In and Lead-Out     : No
Fill up missing offset samples with silence : Yes
Delete leading and trailing silent blocks : No
Null samples used in CRC calculations   : Yes
Used interface               : Native Win32 interface for Win NT & 2000
Used output format : Internal WAV Routines
Sample format   : 44.100 Hz; 16 Bit; Stereo

TOC of the extracted CD
  Track | Start | Length | Start sector | End sector
  ---------------------------------------------------------
    1 | 0:00.00 | 2:57.02 |    0  |  13276
    2 | 2:57.02 | 2:51.53 |  13277  |  26154
    3 | 5:48.55 | 9:32.45 |  26155  |  69099
    4 | 15:21.25 | 4:29.15 |  69100  |  89289
    5 | 19:50.40 | 2:51.60 |  89290  | 102174
    6 | 22:42.25 | 4:33.67 |  102175  | 122716

Range status and errors
Selected range
  Filename D:\Hellhammer\Hellhammer - Apocalyptic Raids 1990 A.D..wav
  Peak level 97.7 %
  Extraction speed 0.2 X
  Range quality 100.0 %
  Test CRC 7031ED01
  Copy CRC 7031ED01
  Copy OK
No errors occurred

AccurateRip summary
Track 1 accurately ripped (confidence 3) [5ABD27BB]
Track 2 accurately ripped (confidence 3) [C48F6FC1]
Track 3 accurately ripped (confidence 3) [BD59761B]
Track 4 accurately ripped (confidence 3) [E50D02DE]
Track 5 accurately ripped (confidence 3) [4BF445B7]
Track 6 accurately ripped (confidence 3) [657182FB]
All tracks accurately ripped
End of status report
                                                       
                                               
游客,本主题需向作者支付 10音乐币 才能浏览,金币充值, 免回复、免金币,直接查看内容请开通VIP支付

温馨提示

记得善用社区搜索功能,那里可能会有你想要的资源;论坛站内搜索

如果你有什么需要的资源可以去资源求档发帖,求助社区的网友,我们会在第一时间给你回复哦;资源求档

对于本社区网盘链接失效密码错误各种报错请在反馈板块反馈报错发帖,您的支持,是我们发展的最大动力;投诉建议

回复

使用道具 举报

您需要登录后才可以回帖 登录 | 立即注册 微信登录

本版积分规则

关注0

粉丝14

帖子70776

发布主题
阅读排行更多+
关闭

站长推荐上一条 /1 下一条

活动提示

[限时折扣][自购]Patricia Barber - Exclusive U.S. Release of Patricia Barber’s “Clique” – This Weekend Only 2021[DSD1024/DSF]

地址:立即购买DSD1024

我知道了
收藏帖子 返回列表 这是一个自定义按钮
音乐分享,音乐下载。
微信公众号
微信号:hires_
意见反馈:admin@maomicd.com

加入我们的官方QQ群和微信群

Powered by Discuz! X3.4 Archiver|手机版|小黑屋|捌零音乐论坛 ( 苏ICP备20015413号 )|( 苏公网安备 32030502000272号) 繁體

GMT+8, 2021-6-16 03:27