自购原抓音乐圈:只有自购、合购、原抓级高解析(hires、sacd、dsd)正版音乐资源分享!【点我打开
极速无线网卡:千兆无线网卡、服务器网卡、USB接口台式机笔记本网卡 硬盘代考无损音乐!【点我打开
广告

[摇滚] Behemoth - The Apostasy [Reissue 2007] (2007) [FLAC]

[复制链接]
韬199435 发表于 2021-5-24 10:47:04 | 显示全部楼层 |阅读模式 打印 上一主题 下一主题






Band Name: Behemoth
Album Title: The Apostasy (Reissue 2007)
Total Playing Time: 00:39:52 Min.
Year: 2007
Country: Poland
Record Label: Regain Records / CD Maximum
Music Genre: black death metal
Rip Format: FLAC (Image+Cue+Log)
Booklet Scans: Yes
Size Archive: ~ 400 MB
Host: Yadi.sk



01. Rome 64 C.E. [1:25]
02. Slaying the Prophets ov Isa [3:23]
03. Prometherion [3:04]
04. At the Left Hand ov God [4:58]
05. Kriegsphilosophie [4:24]
06. Be Without Fear [3:17]
07. Arcana Hereticae [2:58]
08. Libertheme [4:53]
09. Inner Sanctum [5:01]
10. Pazuzu [2:37]
11. Christgrinding Avenue [3:51]



! No longer available


EAC Log File:
Spoiler: EAC Log (click to show/hide)Exact Audio Copy V1.0 beta 3 from 29. August 2011
EAC extraction logfile from 2. November 2014, 10:33
Behemoth / The Apostasy
Used drive : ASUS  DRW-22B2L Adapter: 0 ID: 1
Read mode       : Secure
Utilize accurate stream : Yes
Defeat audio cache   : Yes
Make use of C2 pointers : No
Read offset correction           : 6
Overread into Lead-In and Lead-Out     : No
Fill up missing offset samples with silence : Yes
Delete leading and trailing silent blocks : No
Null samples used in CRC calculations   : Yes
Used interface               : Native Win32 interface for Win NT & 2000
Used output format : Internal WAV Routines
Sample format   : 44.100 Hz; 16 Bit; Stereo

TOC of the extracted CD
  Track | Start | Length | Start sector | End sector
  ---------------------------------------------------------
    1 | 0:00.00 | 1:25.35 |    0  |  6409
    2 | 1:25.35 | 3:23.07 |   6410  |  21641
    3 | 4:48.42 | 3:03.44 |  21642  |  35410
    4 | 7:52.11 | 4:58.26 |  35411  |  57786
    5 | 12:50.37 | 4:23.40 |  57787  |  77551
    6 | 17:14.02 | 3:17.29 |  77552  |  92355
    7 | 20:31.31 | 2:58.13 |  92356  | 105718
    8 | 23:29.44 | 4:53.18 |  105719  | 127711
    9 | 28:22.62 | 5:01.36 |  127712  | 150322
   10 | 33:24.23 | 2:36.68 |  150323  | 162090
   11 | 36:01.16 | 3:50.72 |  162091  | 179412

Range status and errors
Selected range
  Filename D:\Behemoth 2007\Behemoth - The Apostasy.wav
  Peak level 100.0 %
  Extraction speed 4.0 X
  Range quality 100.0 %
  Test CRC F003A63A
  Copy CRC F003A63A
  Copy OK
No errors occurred

AccurateRip summary
Track 1 accurately ripped (confidence 5) [26EE465B] (AR v1)
Track 2 accurately ripped (confidence 4) [4524CE12] (AR v1)
Track 3 accurately ripped (confidence 5) [B8CE70A1] (AR v1)
Track 4 accurately ripped (confidence 4) [7BC989FD] (AR v1)
Track 5 accurately ripped (confidence 4) [C3ABD9CD] (AR v1)
Track 6 accurately ripped (confidence 4) [F0446084] (AR v1)
Track 7 accurately ripped (confidence 4) [556D6CDC] (AR v1)
Track 8 accurately ripped (confidence 4) [99B8BB3E] (AR v1)
Track 9 accurately ripped (confidence 4) [D1F977CB] (AR v1)
Track 10 accurately ripped (confidence 4) [F034EB6B] (AR v1)
Track 11 accurately ripped (confidence 2) [1D976F1C] (AR v1)
All tracks accurately ripped
End of status report
==== Log checksum DCF8F4A21318A8410786D7272E36D27B799A05AB3274CC964B02113586CCFE6D ====
                                                       
                                               
游客,本主题需向作者支付 10音乐币 才能浏览,金币充值, 免回复、免金币,直接查看内容请开通VIP支付

温馨提示

记得善用社区搜索功能,那里可能会有你想要的资源;论坛站内搜索

如果你有什么需要的资源可以去资源求档发帖,求助社区的网友,我们会在第一时间给你回复哦;资源求档

对于本社区网盘链接失效密码错误各种报错请在反馈板块反馈报错发帖,您的支持,是我们发展的最大动力;投诉建议

回复

使用道具 举报

您需要登录后才可以回帖 登录 | 立即注册 微信登录

本版积分规则

关注0

粉丝0

帖子31129

发布主题
阅读排行更多+
关闭

站长推荐上一条 /1 下一条

活动提示

[限时折扣][自购]Patricia Barber - Exclusive U.S. Release of Patricia Barber’s “Clique” – This Weekend Only 2021[DSD1024/DSF]

地址:立即购买DSD1024

我知道了
收藏帖子 返回列表 这是一个自定义按钮
音乐分享,音乐下载。
微信公众号
微信号:hires_
意见反馈:admin@maomicd.com

加入我们的官方QQ群和微信群

Powered by Discuz! X3.4 Archiver|手机版|小黑屋|捌零音乐论坛 ( 苏ICP备20015413号 )|( 苏公网安备 32030502000272号) 繁體

GMT+8, 2021-6-19 14:08