自购原抓音乐圈:只有自购、合购、原抓级高解析(hires、sacd、dsd)正版音乐资源分享!【点我打开
极速无线网卡:千兆无线网卡、服务器网卡、USB接口台式机笔记本网卡 硬盘代考无损音乐!【点我打开
广告

[日韩] 戸川純《玉姫様(Remastered)》2006/FLAC/BD

[复制链接]
洛杉矶 发表于 2021-4-24 19:02:15 | 显示全部楼层 |阅读模式 打印 上一主题 下一主题
戸川绐/玉姫槿

使用的驱动:HL-DT-STDVDRAM GH20NS10适配器:4 ID:0

读取模式:保护
使用精确流:是
废除音频缓冲:是
使用C2指针:否

读取偏移校正:667
读取Lead导入和导出:否
用静音填充丢失的偏移采样:是
删除开头和结尾的静音块:否
CRC计算中使用的空采样:是
使用的接口:用于Win NT和2000的本机Win32接口
间隙处理:附加到上一个track

使用的输出格式:用户定义的编码器
所选比特率:1024 kBit / s
质量:高
添加ID3标签:否
命令行压缩器:F: Program Files \ Exact Audio Copy \ FLAC \ FLAC.EXE
其他命令行选项:-6 -V -T“ ARTIST =%a “ -T”标题=%t“ -T”专辑=%g“ -T”日期=%y“ -T” TRACKNUMBER =%n“ -T” GENRE =%m“ -T” COMMENT =%e“% j--picture =“%i”%j%s -o%d


提取的CD

     轨道的TOC | 开始| 长度 起始部门| 终端部门
    ------------------------------------------------ ---------
        1 | 0:00.00 | 1:45.57 | 0 | 7931   
        2 | 1:45.57 | 3:58.32 | 7932 | 25813   
        3 | 5:44。   14 | 3:12.15 | 25814 | 40228
        4 | 8:56.29 | 2:52.38 | 40229 | 53166   
        5 | 11:48.67 | 2:21.17 | 53167 | 63758   
        6 | 14:10.09 | 4:16.43 | 63759 | 83001   
        7 | 18:26.52 | 3:12.37 | 83002 | 97438   
        8 | 21:39.14 | 2:44.63 | 97439 | 109801   
        9 | 24:24.02 | 5:31.01 | 109802 | 134627   


音轨1

     文件名F: EACRips \戸川绐-玉姫槿-01.怒涛の恋爱.wav

     前间隙长度0:00:02.00

     峰值水平30.3%
     提取速度3.7 X
     音轨质量100.0%
     测试CRC C6FEB90C
     复制CRC C6FEB90C
     准确撕开(置信度2)[CCF2160F]
     复制确定

音轨2

     文件名F: EACRips \戸川绐-玉姫槿-02.谛念プシガンガ.wav

     峰值电平100.0%
     提取速度4.0 X
     音轨质量99.9%
     测试CRC A30511F7
     复制CRC A30511F7
     准确地翻录(信心2)[922DF418]
     复制OK

音轨3

     文件名F: EACRips \戸川绐-玉姫槿-03.昆虫军.wav

     峰值水平96.5%
     提取速度5.1 X
     音轨质量100.0%
     测试CRC 7A4EFFF4
     复制CRC 7A4EFFF4
     准确地翻录(置信度2)[69D326F0]
     复制OK

轨道4

     文件名F: EACRips \戸川绐-玉姫槿-04.忧闷の戏画.wav

     最高水平100.0%
     提取速度5.4×
     轨道质量100.0%
     测试CRC 3808249D
     复制CRC 3808249D
     精确地撕开(置信2)[7388009A]
     复制OK

曲目5

     名F: EACRips \戸川绐-玉姫槿- 05.邻の印度人.WAV

     预间隙长度0:00:01.89

     峰值水平100.0%
     提取速度5.4 X
     轨道质量100.0%
     测试CRC 04CE106D
     复制CRC 04CE106D
     准确地被抓取(置信度2)[149D43E2]
     复制OK

轨道6

     文件名F: EACRips \戸川绐-玉姫槿

     -06 .玉姫様.wav前间隙长度0:00:01.28

     峰水平97.7%
     萃取速度6.1 X
     轨道质量100.0%
     测试CRC F5820D2F
     复制CRC F5820D2F
     准确地被抓取(置信度2)[8138A48F]
     复制OK

轨道7

     文件名F: EACRips \戸川绐-玉姫--07.森の人々.wav

     峰值水平90.5%
     提取速度6.2 X
     轨道质量100.0%
     测试CRC 2177BB47
     复制CRC 2177BB47
     准确地被抓取(置信度2)[F4920E0A]
     复制OK

轨道8

     文件名F: EACRips \戸川绐-玉姫槿-08.踊れない.wav

     峰值水平100.0%
     提取速度6.5 X
     轨道质量100.0%
     测试CRC EA050242
     复制CRC EA050242
     准确撕开(置信度2)[752707D5]
     复制OK

音轨9

     文件名F: EACRips \戸川绐-玉姫槿-09.蛹化の女.wav

     前隙长度0:00:03.08

     峰高92.3%
     提取速度7.4 X
     轨道质量100.0%
     测试CRC A7CC4F72
     复制CRC A7CC4F72
     精确地撕开(置信2)442FAD6C]
     复制OK


所有曲目准确地撕开

没有出现错误

结束状态报告

====登录校验CA502983C0C5244C4F0163EFACCB9C23E5546096D5F278836501F13CFAA4BB56 ====

下载地址
[隐藏]链接:https
提取码:
游客,本主题需向作者支付 5音乐币 才能浏览,金币充值, 免回复、免金币,直接查看内容请开通VIP支付

温馨提示

记得善用社区搜索功能,那里可能会有你想要的资源;论坛站内搜索

如果你有什么需要的资源可以去资源求档发帖,求助社区的网友,我们会在第一时间给你回复哦;资源求档

对于本社区网盘链接失效密码错误各种报错请在反馈板块反馈报错发帖,您的支持,是我们发展的最大动力;投诉建议

回复

使用道具 举报

您需要登录后才可以回帖 登录 | 立即注册 微信登录

本版积分规则

关注4

粉丝13

帖子7506

发布主题
阅读排行更多+
关闭

站长推荐上一条 /1 下一条

收藏帖子 返回列表 这是一个自定义按钮
音乐分享,音乐下载。
微信公众号
微信号:hires_
意见反馈:admin@maomicd.com

加入我们的官方QQ群和微信群

Powered by Discuz! X3.4 Archiver|手机版|小黑屋|捌零音乐论坛 ( 苏ICP备20015413号 )|( 苏公网安备 32030502000272号) 繁體

GMT+8, 2021-5-6 09:48