自购原抓音乐圈:只有自购、合购、原抓级高解析(hires、sacd、dsd)正版音乐资源分享!【点我打开
极速无线网卡:千兆无线网卡、服务器网卡、USB接口台式机笔记本网卡 硬盘代考无损音乐!【点我打开
广告

[华语] 原抓高胜美-新白娘子传奇[上格首版][WAV+CUE]

[复制链接]
一见如故 发表于 2021-4-21 09:04:22 | 显示全部楼层 |阅读模式 打印 上一主题 下一主题
封面: cover.jpg disc.jpg


简介:专辑介绍:
由台湾“上格”唱片公司出版的这张原声唱片,汇集了当时旗下的众多音乐好手。大师左宏元负责了整张唱片的作曲。而词的部分则有陈自为,贡敏,黄介文,何启弘,何厚华,连水森等一班著名词人。
演唱方面,当年正当红的“上格”一姐高胜美当仁不让的演唱了主题曲《千年等一回》和插曲《心湖雨又风》,皆引起轰动。
擅长悲情的裘海正演唱了剧中著名的悲情配乐《纠缠》,丝丝入扣。而左宏元更是亲自献声《渡情》与张慧清合作,声音出演剧中老船家和小青,再现了西湖许白初遇的情景。
著名演唱组合“大小百合”当时也是上格旗下歌手,在这张唱片中的《想飞的水》即由其演唱。也是一首很不错的作品。

在这张原声唱片中,合声的运用是最大的特色。“上格”著名合声组合“FORMOSA”可谓出尽风头。担任了所有的合声工作并且演唱了大部分的插曲。《前世今生》《情与法》《天也不懂情》《悲情面具》,每一首都有不同风情。特别是庄慧茹声音柔美,为剧中白素贞担任配唱。此碟收录一首《雨伞是媒红》,为白素贞抚伞低语浅唱之经典。


曲目:
专辑名称:新白娘子传奇 电视原声带
语言:国语
歌手:上格群星
唱片公司:上格华星
出版时间:1992年
1、千年等一回【高勝美】
2、渡情【左宏元、張慧清】
3、前世今生【FORMOSA】
4、糾纏【裘海正】
5、雨傘是媒紅【莊惠如】
6、情仇愛恨【左宏元、搖滾武俠-MIKE、呂禎晃、莊惠如、尤景仰】
7、心湖雨又風【高勝美】
8、神仙歌【搖滾武俠-MIKE、呂禎晃、尤景仰、左宏元】
9、想飛的水【大小百合】
10、情與法【FORMOSA】
11、天也不懂情【FORMOSA】
12、悲情面具【FORMOSA】



游客,本主题需向作者支付 5音乐币 才能浏览,金币充值, 免回复、免金币,直接查看内容请开通VIP支付



温馨提示

记得善用社区搜索功能,那里可能会有你想要的资源;论坛站内搜索

如果你有什么需要的资源可以去资源求档发帖,求助社区的网友,我们会在第一时间给你回复哦;资源求档

对于本社区网盘链接失效密码错误各种报错请在反馈板块反馈报错发帖,您的支持,是我们发展的最大动力;投诉建议

回复

使用道具 举报

精彩评论5

 楼主| 一见如故 发表于 2021-4-21 09:09:17 | 显示全部楼层
高勝美 / 新白娘子傳奇

Used drive  : PLEXTOR DVDR   PX-850A   Adapter: 0  ID: 1

Read mode               : Secure
Utilize accurate stream : Yes
Defeat audio cache      : Yes
Make use of C2 pointers : No

Read offset correction                      : 6
Overread into Lead-In and Lead-Out          : No
Fill up missing offset samples with silence : Yes
Delete leading and trailing silent blocks   : No
Null samples used in CRC calculations       : No
Used interface                              : Native Win32 interface for Win NT & 2000

Used output format : Internal WAV Routines
Sample format      : 44.100 Hz; 16 Bit; Stereo


TOC of the extracted CD

     Track |   Start  |  Length  | Start sector | End sector
    ---------------------------------------------------------
        1  |  0:00.00 |  3:36.25 |         0    |    16224   
        2  |  3:36.25 |  3:16.00 |     16225    |    30924   
        3  |  6:52.25 |  4:13.30 |     30925    |    49929   
        4  | 11:05.55 |  3:57.65 |     49930    |    67769   
        5  | 15:03.45 |  1:58.10 |     67770    |    76629   
        6  | 17:01.55 |  5:04.30 |     76630    |    99459   
        7  | 22:06.10 |  2:05.45 |     99460    |   108879   
        8  | 24:11.55 |  2:50.45 |    108880    |   121674   
        9  | 27:02.25 |  4:35.55 |    121675    |   142354   
       10  | 31:38.05 |  2:37.65 |    142355    |   154194   
       11  | 34:15.70 |  4:45.73 |    154195    |   175642   
       12  | 39:01.68 |  4:47.57 |    175643    |   197224   


Range status and errors

Selected range

     Filename C:\高勝美 - 新白娘子傳奇\高勝美 - 新白娘子傳奇.wav

     Peak level 100.0 %
     Extraction speed 0.1 X
     Range quality 100.0 %
     Copy CRC 92317CA3
     Copy OK

No errors occurred


AccurateRip summary

Track  1  not present in database
Track  2  not present in database
Track  3  not present in database
Track  4  not present in database
Track  5  not present in database
Track  6  not present in database
Track  7  not present in database
Track  8  not present in database
Track  9  not present in database
Track 10  not present in database
Track 11  not present in database
Track 12  not present in database

None of the tracks are present in the AccurateRip database

End of status report

温馨提示

记得善用社区搜索功能,那里可能会有你想要的资源;论坛站内搜索

如果你有什么需要的资源可以去资源求档发帖,求助社区的网友,我们会在第一时间给你回复哦;资源求档

对于本社区网盘链接失效密码错误各种报错请在反馈板块反馈报错发帖,您的支持,是我们发展的最大动力;投诉建议

回复 支持 反对

使用道具 举报

啥米 发表于 2021-4-21 10:51:07 | 显示全部楼层
这个厉害,谢谢楼主分享

温馨提示

记得善用社区搜索功能,那里可能会有你想要的资源;论坛站内搜索

如果你有什么需要的资源可以去资源求档发帖,求助社区的网友,我们会在第一时间给你回复哦;资源求档

对于本社区网盘链接失效密码错误各种报错请在反馈板块反馈报错发帖,您的支持,是我们发展的最大动力;投诉建议

回复 支持 反对

使用道具 举报

hjw6239188 发表于 2021-4-22 17:17:49 | 显示全部楼层
高胜美,无损专辑,好东西,谢谢楼主分享

温馨提示

记得善用社区搜索功能,那里可能会有你想要的资源;论坛站内搜索

如果你有什么需要的资源可以去资源求档发帖,求助社区的网友,我们会在第一时间给你回复哦;资源求档

对于本社区网盘链接失效密码错误各种报错请在反馈板块反馈报错发帖,您的支持,是我们发展的最大动力;投诉建议

回复 支持 反对

使用道具 举报

zlabsoft 发表于 2021-4-24 00:20:58 来自手机 | 显示全部楼层
谢谢分享

温馨提示

记得善用社区搜索功能,那里可能会有你想要的资源;论坛站内搜索

如果你有什么需要的资源可以去资源求档发帖,求助社区的网友,我们会在第一时间给你回复哦;资源求档

对于本社区网盘链接失效密码错误各种报错请在反馈板块反馈报错发帖,您的支持,是我们发展的最大动力;投诉建议

回复

使用道具 举报

苍海无涯 发表于 前天 22:20 | 显示全部楼层
这个厉害,谢谢楼主分享

温馨提示

记得善用社区搜索功能,那里可能会有你想要的资源;论坛站内搜索

如果你有什么需要的资源可以去资源求档发帖,求助社区的网友,我们会在第一时间给你回复哦;资源求档

对于本社区网盘链接失效密码错误各种报错请在反馈板块反馈报错发帖,您的支持,是我们发展的最大动力;投诉建议

回复 支持 反对

使用道具 举报

您需要登录后才可以回帖 登录 | 立即注册 微信登录

本版积分规则

发布主题
阅读排行更多+
关闭

站长推荐上一条 /1 下一条

收藏帖子 返回列表 这是一个自定义按钮
音乐分享,音乐下载。
微信公众号
微信号:hires_
意见反馈:admin@maomicd.com

加入我们的官方QQ群和微信群

Powered by Discuz! X3.4 Archiver|手机版|小黑屋|捌零音乐论坛 ( 苏ICP备20015413号 )|( 苏公网安备 32030502000272号) 繁體

GMT+8, 2021-5-9 01:14