自购原抓音乐圈:只有自购、合购、原抓级高解析(hires、sacd、dsd)正版音乐资源分享!【点我打开
极速无线网卡:千兆无线网卡、服务器网卡、USB接口台式机笔记本网卡 硬盘代考无损音乐!【点我打开
广告

[华语] 韩宝仪 - 金牌甜歌专辑-痴情的爱内地版【wav+cue】

[复制链接]
一见如故 发表于 2021-4-21 08:44:07 | 显示全部楼层 |阅读模式 打印 上一主题 下一主题
封面:


简介:韩宝仪 / 金牌甜歌专辑-痴情的爱
光驱型号   Optiarc DVD RW AD-7530A   Adapter: 1  ID: 0

抓轨模式   : 快速

合并读写偏移校正           : 0
通读Lead-In和Lead-Out : 否
用静音填充丢失的偏移采样       : 是
删除开始与结尾的静音部分       : 否
校验和计算中使用空白采样       : 否
使用的接口              : Win NT & 2000 的本地Win32接口

输出格式    : 内部WAV例程
采样格式    : 44.100 Hz; 16 Bit; 立体声


CD内容目录(TOC)

     Track |   Start  |  Length  | Start sector | End sector
    ---------------------------------------------------------
        1  |  0:00.00 |  3:43.00 |         0    |    16724   
        2  |  3:43.00 |  3:45.00 |     16725    |    33599   
        3  |  7:28.00 |  3:34.00 |     33600    |    49649   
        4  | 11:02.00 |  3:58.00 |     49650    |    67499   
        5  | 15:00.00 |  3:52.00 |     67500    |    84899   
        6  | 18:52.00 |  3:15.00 |     84900    |    99524   
        7  | 22:07.00 |  2:57.00 |     99525    |   112799   
        8  | 25:04.00 |  3:02.00 |    112800    |   126449   
        9  | 28:06.00 |  4:04.00 |    126450    |   144749   
       10  | 32:10.00 |  4:24.00 |    144750    |   164549   
       11  | 36:34.00 |  2:52.00 |    164550    |   177449   
       12  | 39:26.00 |  2:36.00 |    177450    |   189149   
       13  | 42:02.00 |  4:15.00 |    189150    |   208274   
       14  | 46:17.00 |  3:33.00 |    208275    |   224249   



曲目:


游客,本主题需向作者支付 5音乐币 才能浏览,金币充值, 免回复、免金币,直接查看内容请开通VIP支付
(注意:sell=8为金币价格可以修改成你售卖的价格,后面数字不能修改)  [/sell]

温馨提示

记得善用社区搜索功能,那里可能会有你想要的资源;论坛站内搜索

如果你有什么需要的资源可以去资源求档发帖,求助社区的网友,我们会在第一时间给你回复哦;资源求档

对于本社区网盘链接失效密码错误各种报错请在反馈板块反馈报错发帖,您的支持,是我们发展的最大动力;投诉建议

回复

使用道具 举报

您需要登录后才可以回帖 登录 | 立即注册 微信登录

本版积分规则

发布主题
阅读排行更多+
关闭

站长推荐上一条 /1 下一条

收藏帖子 返回列表 这是一个自定义按钮
音乐分享,音乐下载。
微信公众号
微信号:hires_
意见反馈:admin@maomicd.com

加入我们的官方QQ群和微信群

Powered by Discuz! X3.4 Archiver|手机版|小黑屋|捌零音乐论坛 ( 苏ICP备20015413号 )|( 苏公网安备 32030502000272号) 繁體

GMT+8, 2021-5-9 00:53