自购原抓音乐圈:只有自购、合购、原抓级高解析(hires、sacd、dsd)正版音乐资源分享!【点我打开
极速无线网卡:千兆无线网卡、服务器网卡、USB接口台式机笔记本网卡 硬盘代考无损音乐!【点我打开
广告

[华语] 原抓1990-对你爱不完-飞碟唱片【WAV+CUE】

[复制链接]
一见如故 发表于 2021-4-21 08:00:15 | 显示全部楼层 |阅读模式 打印 上一主题 下一主题
封面:
对你爱不完1.jpg 对你爱不完2.jpg 对你爱不完3.jpg


简介:


曲目:

游客,本主题需向作者支付 10音乐币 才能浏览,金币充值, 免回复、免金币,直接查看内容请开通VIP支付

https://pan.baidu.com/s/1XlwTeoEQwqaqoHafDsRhMQ

温馨提示

记得善用社区搜索功能,那里可能会有你想要的资源;论坛站内搜索

如果你有什么需要的资源可以去资源求档发帖,求助社区的网友,我们会在第一时间给你回复哦;资源求档

对于本社区网盘链接失效密码错误各种报错请在反馈板块反馈报错发帖,您的支持,是我们发展的最大动力;投诉建议

回复

使用道具 举报

精彩评论2

 楼主| 一见如故 发表于 2021-4-21 08:01:38 | 显示全部楼层
郭富城 / 对你爱不完

使用驱动器  :SONY    CD-RW  CRX230E   Adapter: 1  ID: 1

读取模式     : 保护
使用精确流   : 是
废除音频缓冲 : 是
使用 C2 指针 : 否

组合读/写偏移校正              : 0
读取 Lead-In 和 Lead-Out       : 否
用静音填充抓取中丢失偏移的采样 : 是
去除首尾静音块                 : 否
在 CRC 计算中使用了空样本      : 否
已用接口                       : Win NT 及 2000 本地 Win32 接口

所用输出格式   : Monkey's Audio 无损编码器
已选比特率     : Fast Lossless Compression
质量           : 高
添加 ID3 标签  : 是
命令行压缩器   : C:\Program Files\Monkey's Audio\MAC.exe


被抓轨 CD 的 TOC

     音轨 |   开始   |   长度   | 起始扇区 | 结尾扇区
    --------------------------------------------------
       1  |  0:00.00 |  4:40.37 |       0  |   21036  
       2  |  4:40.37 |  5:30.40 |   21037  |   45826  
       3  | 10:11.02 |  3:15.55 |   45827  |   60506  
       4  | 13:26.57 |  3:51.60 |   60507  |   77891  
       5  | 17:18.42 |  4:04.33 |   77892  |   96224  
       6  | 21:23.00 |  4:44.02 |   96225  |  117526  
       7  | 26:07.02 |  3:58.45 |  117527  |  135421  
       8  | 30:05.47 |  3:53.45 |  135422  |  152941  
       9  | 33:59.17 |  4:15.73 |  152942  |  172139  
      10  | 38:15.15 |  4:09.05 |  172140  |  190819  


范围状态及错误

已选择范围

     文件名 D:\ken2004\郭富城 - 对你爱不完.wav

     峰值电平 100.0 %
     范围质量 99.9 %
     复制 CRC 11416E70
     复制成功

没有错误发生

状态报告结尾

温馨提示

记得善用社区搜索功能,那里可能会有你想要的资源;论坛站内搜索

如果你有什么需要的资源可以去资源求档发帖,求助社区的网友,我们会在第一时间给你回复哦;资源求档

对于本社区网盘链接失效密码错误各种报错请在反馈板块反馈报错发帖,您的支持,是我们发展的最大动力;投诉建议

回复 支持 反对

使用道具 举报

Owen 发表于 2021-5-4 22:37:47 | 显示全部楼层
没什么能描述我现在的心情,感谢感激!

温馨提示

记得善用社区搜索功能,那里可能会有你想要的资源;论坛站内搜索

如果你有什么需要的资源可以去资源求档发帖,求助社区的网友,我们会在第一时间给你回复哦;资源求档

对于本社区网盘链接失效密码错误各种报错请在反馈板块反馈报错发帖,您的支持,是我们发展的最大动力;投诉建议

回复 支持 反对

使用道具 举报

您需要登录后才可以回帖 登录 | 立即注册 微信登录

本版积分规则

发布主题
阅读排行更多+
关闭

站长推荐上一条 /1 下一条

收藏帖子 返回列表 这是一个自定义按钮
音乐分享,音乐下载。
微信公众号
微信号:hires_
意见反馈:admin@maomicd.com

加入我们的官方QQ群和微信群

Powered by Discuz! X3.4 Archiver|手机版|小黑屋|捌零音乐论坛 ( 苏ICP备20015413号 )|( 苏公网安备 32030502000272号) 繁體

GMT+8, 2021-5-18 19:43