自购原抓音乐圈:只有自购、合购、原抓级高解析(hires、sacd、dsd)正版音乐资源分享!【点我打开
极速无线网卡:千兆无线网卡、服务器网卡、USB接口台式机笔记本网卡 硬盘代考无损音乐!【点我打开
广告

[日韩音乐] Hatsune Miku - 2013年在关西(Mikupa♪)-39的春天第3综合 - [2013,Vocaloid,JPOP,Blu-ray 1080i]

[复制链接]
全球搬运 发表于 2021-4-13 15:37:58 | 显示全部楼层 |阅读模式 打印 上一主题 下一主题
Hatsune Miku Live Party 2013 in Kansai (MIKUPA♪) -39's Spring the 3rd Synthesis-
Номера по каталогу: MKPB-2002-1~3
Жанры: Vocaloid, JPop
Продолжительность: 1:37:36 + 1:33:50 + 33:41 + 35:35
Дата выпуска: 30.08.2013
Источник: мои диски (да, это диски не с няша)Описание: Концерт Hatsune Miku и её друзей прошедший 9 марта 2013 года.
На третьем диске частично присутствуют концерты в Тайване (06.10.2012) и в Саппоро (10.02.2013).Качество: Blu-ray
Контейнер: BDMV
Видео кодек: MPEG-4 AVC
Аудио кодек: LPCM, DTS-HD Master Audio
Видео: MPEG-4 AVC Video / 37409 kbps / 1080i / 29,970 fps / 16:9 / High Profile 4.1
Аудио: Japanese / LPCM Audio / 2.0 / 48 kHz / 2304 kbps / 24-bit
Аудио: Japanese / DTS-HD Master Audio / 5.1 / 48 kHz / 4896 kbps / 24-bit (DTS Core: 5.1 / 48 kHz / 1509 kbps / 24-bit)
Треклисты

Диск 1
1 - 「秘密警察 / Himitsu keisatsu」 – ぶりるP feat. Hatsune Miku
2 - 「マージナル / Marginal」 – OSTER project feat. Hatsune Miku
3 - 「二息步行 / Ni Iki Hokou」 – DECO*27 feat. Hatsune Miku
4 - 「え?あぁ、そう。 / Eh? Aa, Sou.」 – papiyon feat. Hatsune Miku
5 - 「恋色病棟 / Love Colored Ward (Koi Iro Byoutou)」 – OSTER project feat. Hatsune Miku
6 - 「カラフル×メロディ / Colorful × Melody」 – ちーむMOER feat. Hatsune Miku & Kagamine Rin
7 - 「*ハロー、プラネット。 / *Hello, Planet.」 – sasakure.UK feat. Hatsune Miku
8 - 「いろは唄 / Iroha Uta」 – 銀サク feat. Kagamine Rin
9 - 「メランコリック / Melancholic」 – Junky feat. Kagamine Rin
10 - 「ココロ / Kokoro」 – トラボルタ feat. Kagamine Rin
11 - 「ぽっぴっぽ / Po Pi Po」 – ラマーズP feat. Hatsune Miku
12 - 「白い雪のプリンセスは / Shiroi Yuki no Princess wa」 – のぼる↑ feat. Hatsune Miku
13 - 「アルビノ / albino」 – buzzG feat. Hatsune Miku
14 - 「ロミオとシンデレラ / Romeo and Cinderella」 – Doriko feat. Hatsune Miku
15 - 「ローリンガール / Rolling Girl」 – wowaka feat. Hatsune Miku
16 - 「結ンデ開イテ羅刹ト骸 / Musunde Hiraite Rasetsu to Mukuro」 – ハチ feat. Hatsune Miku
17 - 「Pane dhiria」 – 新城P feat. KAITO
18 - 「千年の独奏歌 / Chitose no dokusou uta」 – yanagiP feat. KAITO
19 - 「RIP=RELEASE」 – ryuuseiP feat. Megurine Luka
20 - 「ダブルラリアット / Double Lariat」 - アゴアニキ feat. Megurine Luka
21 - 「ルカルカ★ナイトフィーバー / Luka Luka★Night Fever」 – samfree feat. Megurine Luka

Диск 2
22 - 「私の時間 / Watachi no Jikan (My Time)」 – くちばしP feat. Hatsune Miku
23 - 「みくみくにしてあげる / Miku Miku ni Shite Ageru」 – Ika-P feat. Hatsune Miku
24 - 「ピアノ×フォルテ×スキャンダル / Piano×Forte×Scandal」 – OSTER project feat. MEIKO
25 - 「トリノコシティ / Torinoko City」 – 40㍍P feat. Hatsune Miku
26 - 「歌に形はないけれど / Uta ni Katachi wa Nai Keredo」 – doriko feat. Hatsune Miku
27 - 「Yellow」 – kz feat. Hatsune Miku
28 - 「タイムマシン / Time Machine」 – 1640mP feat. Hatsune Miku
29 - 「ARiA」 – とくP feat. Hatsune Miku
30 - 「右肩の蝶 / Migikata No Chou (Butterfly On Your Shoulder)」 – のりP feat. Kagamine Len
31 - 「Fire◎Flower」 – halyosy feat. Kagamine Len
32 - 「初めての恋が終わる時 / When the First Love Ends」 – ryo (supercell) feat. Hatsune Miku
33 - 「千本桜 / Senbonzakura」 – 黒うさP feat. Hatsune Miku
34 - 「こっち向いて Baby / Kocchi Muite Baby」 – ryo (supercell) feat. Hatsune Miku
35 - 「初音ミクの激唱 / Hatsune Miku no Gekishou」 – cosMo(暴走P) feat. Hatsune Miku
36 - 「メルト / MELT」 – supercell feat. Hatsune Miku
37 - 「Tell Your World」 – kz feat. Hatsune Miku
38 - 「letter song」 – doriko feat. Hatsune Miku
39 - 「Starduster」 – ジミーサムP feat. Hatsune Miku

Диск 3
Live in Taiwan:
01 - Introduction-session
02 - 「みくみくにしてあげる♪ / Miku Miku ni Shite Ageru♪」 – Ika-P feat. Hatsune Miku
03 - 「ロミオとシンデレラ / Romeo and Cinderella」 – Doriko feat. Hatsune Miku
04 - 「trick and treat」 - OSTER project feat. Kagamine Rin & Kagamine Len
05 - 「トリノコシティ / Torinoko City」 - 40mP feat. Hatsune Miku
06 - 「歌に形はないけれど / Uta ni Katachi wa Nai Keredo」 – doriko feat. Hatsune Miku
07 - 「Tell Your World」 – kz feat. Hatsune Miku
08 - 「Starduster」 – ジミーサムP feat. Hatsune Miku
Live in Sapporo:
01 - OPENING
02 - 「千本桜 / Senbonzakura」 – 黒うさP feat. Hatsune Miku
03 - 「ココロ / Kokoro」 – トラボルタ feat. Kagamine Rin
04 - 「Fire◎Flower」 – halyosy feat. Kagamine Len
05 - 「ピアノ×フォルテ×スキャンダル / Piano×Forte×Scandal」 – OSTER project feat. MEIKO
06 - 「千年の独奏歌 / Chitose no dokusou uta」 – yanagiP feat. KAITO
07 - 「ルカルカ★ナイトフィーバー / Luka Luka★Night Fever」 – samfree feat. Megurine Luka
08 - 「letter song」 – doriko feat. Hatsune Miku


Дополнительная информация
Картинка (верхняя) стырена с раздачи пользователя ъыь, надеюсь он не сильно обидится +_+
P.S. Раздача будет до 7 утра, потом после 21 начнётся и закончится в ~7 утра в понедельник, потом до след пятницы будет с 21-22 до 7

BDInfo

Disc 1
Disc Title: MIKUPA2013INKANSAI_BD_DISC1
Disc Size: 34 433 286 649 bytes
Protection: AACS
BD-Java: No
BDInfo: 0.5.8
Notes:
BDINFO HOME:
Cinema Squid
http://www.cinemasquid.com/blu-ray/tools/bdinfo
INCLUDES FORUMS REPORT FOR:
AVS Forum Blu-ray Audio and Video Specifications Thread
http://www.avsforum.com/avs-vb/showthread.php?t=1155731
********************
PLAYLIST: 00000.MPLS
********************

Код:

                                                                                Total   Video
Title                                                           Codec   Length  Movie Size      Disc Size       Bitrate Bitrate Main Audio Track                          Secondary Audio Track
-----                                                           ------  ------- --------------  --------------  ------- ------- ------------------                        ---------------------
00000.MPLS                                                      AVC     1:36:54 34 195 771 392  34 433 286 649  47,05   37,41   LPCM 2.0 2304Kbps (48kHz/24-bit)          DTS-HD Master 5.1 4896Kbps (48kHz/24-bit)

Код:
DISC INFO:
Disc Title:     MIKUPA2013INKANSAI_BD_DISC1
Disc Size:      34 433 286 649 bytes
Protection:     AACS
BD-Java:        No
BDInfo:         0.5.8
PLAYLIST REPORT:
Name:                   00000.MPLS
Length:                 1:36:54.842 (h:m:s.ms)
Size:                   34 195 771 392 bytes
Total Bitrate:          47,05 Mbps
VIDEO:
Codec                   Bitrate             Description
-----                   -------             -----------
MPEG-4 AVC Video        37409 kbps          1080i / 29,970 fps / 16:9 / High Profile 4.1
AUDIO:
Codec                           Language        Bitrate         Description
-----                           --------        -------         -----------
LPCM Audio                      Japanese        2304 kbps       2.0 / 48 kHz / 2304 kbps / 24-bit
DTS-HD Master Audio             Japanese        4896 kbps       5.1 / 48 kHz / 4896 kbps / 24-bit (DTS Core: 5.1 / 48 kHz / 1509 kbps / 24-bit)
SUBTITLES:
Codec                           Language        Bitrate         Description
-----                           --------        -------         -----------
Presentation Graphics           Japanese        118,055 kbps
FILES:
Name            Time In         Length          Size            Total Bitrate
----            -------         ------          ----            -------------
00000.M2TS      0:00:00.000     1:36:54.341     34 194 358 272  47 048
00004.M2TS      1:36:54.341     0:00:00.500     1 413 120       22 587
CHAPTERS:
Number          Time In         Length          Avg Video Rate  Max 1-Sec Rate  Max 1-Sec Time  Max 5-Sec Rate  Max 5-Sec Time  Max 10Sec Rate  Max 10Sec Time  Avg Frame Size  Max Frame Size  Max Frame Time
------          -------         ------          --------------  --------------  --------------  --------------  --------------  --------------  --------------  --------------  --------------  --------------
1               0:00:00.000     0:02:13.132     37 408 kbps     48 487 kbps     00:01:28.788    39 768 kbps     00:01:24.751    38 561 kbps     00:01:19.779    155 984 bytes   374 800 bytes   00:00:05.005
2               0:02:13.132     0:03:03.016     37 391 kbps     44 644 kbps     00:04:17.924    39 059 kbps     00:04:15.655    38 294 kbps     00:04:10.650    155 952 bytes   378 205 bytes   00:02:49.302
3               0:05:16.149     0:03:03.349     37 431 kbps     41 181 kbps     00:06:33.559    38 135 kbps     00:06:29.555    37 823 kbps     00:06:24.650    156 117 bytes   339 828 bytes   00:06:34.360
4               0:08:19.498     0:03:13.526     37 429 kbps     44 882 kbps     00:10:26.926    38 918 kbps     00:10:22.922    38 066 kbps     00:10:17.917    156 110 bytes   340 517 bytes   00:10:27.693
5               0:11:33.025     0:00:46.546     37 429 kbps     39 715 kbps     00:12:11.263    37 889 kbps     00:12:07.259    37 701 kbps     00:11:43.669    156 110 bytes   292 688 bytes   00:11:53.345
6               0:12:19.572     0:03:33.713     37 409 kbps     43 097 kbps     00:14:01.807    38 754 kbps     00:13:57.803    38 014 kbps     00:13:52.798    156 028 bytes   310 190 bytes   00:14:42.281
7               0:15:53.285     0:03:21.367     37 420 kbps     43 551 kbps     00:19:12.985    38 613 kbps     00:19:08.981    37 963 kbps     00:19:03.976    156 074 bytes   365 075 bytes   00:18:17.396
8               0:19:14.653     0:03:03.917     37 423 kbps     41 931 kbps     00:20:42.441    38 356 kbps     00:20:38.437    37 873 kbps     00:20:33.498    156 086 bytes   308 396 bytes   00:20:33.232
9               0:22:18.570     0:03:32.979     37 414 kbps     46 808 kbps     00:22:44.029    39 270 kbps     00:22:40.025    38 341 kbps     00:22:35.020    156 046 bytes   342 338 bytes   00:24:30.068
10              0:25:51.550     0:04:24.764     37 407 kbps     44 425 kbps     00:26:19.277    38 777 kbps     00:26:15.273    38 027 kbps     00:26:10.268    156 019 bytes   348 776 bytes   00:26:20.045
11              0:30:16.314     0:03:49.228     37 429 kbps     43 325 kbps     00:32:47.832    38 648 kbps     00:32:43.761    37 944 kbps     00:32:38.756    156 112 bytes   333 258 bytes   00:32:48.433
12              0:34:05.543     0:03:37.717     37 394 kbps     45 542 kbps     00:37:00.618    38 919 kbps     00:36:56.581    38 117 kbps     00:36:51.609    155 963 bytes   330 686 bytes   00:37:01.285
13              0:37:43.261     0:00:14.514     37 414 kbps     43 453 kbps     00:37:46.764    38 392 kbps     00:37:49.967    37 869 kbps     00:37:44.929    156 046 bytes   349 391 bytes   00:37:54.438
14              0:37:57.775     0:01:46.439     37 436 kbps     41 643 kbps     00:39:38.476    38 504 kbps     00:39:34.472    38 083 kbps     00:39:29.433    156 139 bytes   284 644 bytes   00:38:07.885
15              0:39:44.215     0:04:27.100     37 421 kbps     44 703 kbps     00:39:45.683    38 729 kbps     00:42:58.909    38 015 kbps     00:42:53.871    156 078 bytes   311 712 bytes   00:39:46.217
16              0:44:11.315     0:03:52.398     37 427 kbps     41 612 kbps     00:46:01.258    38 148 kbps     00:45:57.321    37 817 kbps     00:45:52.216    156 101 bytes   294 237 bytes   00:47:54.705
17              0:48:03.714     0:03:15.194     37 423 kbps     42 244 kbps     00:48:48.859    38 444 kbps     00:48:44.888    37 965 kbps     00:50:27.691    156 085 bytes   362 103 bytes   00:50:37.434
18              0:51:18.909     0:03:51.397     37 429 kbps     44 528 kbps     00:54:49.419    39 024 kbps     00:54:36.840    38 190 kbps     00:54:31.835    156 112 bytes   357 799 bytes   00:53:39.583
19              0:55:10.306     0:01:33.092     37 413 kbps     41 752 kbps     00:56:31.588    37 972 kbps     00:56:27.717    37 736 kbps     00:56:31.554    156 041 bytes   279 850 bytes   00:55:33.930
20              0:56:43.399     0:03:17.530     37 382 kbps     46 016 kbps     00:59:49.953    39 123 kbps     00:59:45.949    38 203 kbps     00:59:40.944    155 912 bytes   304 811 bytes   00:56:47.404
21              1:00:00.930     0:01:40.433     37 423 kbps     41 634 kbps     01:00:06.502    38 321 kbps     01:00:14.444    37 808 kbps     01:00:09.539    156 085 bytes   271 430 bytes   01:00:51.614
22              1:01:41.364     0:04:30.603     37 418 kbps     43 880 kbps     01:04:23.025    38 612 kbps     01:05:22.919    38 008 kbps     01:04:13.950    156 065 bytes   307 902 bytes   01:02:59.275
23              1:06:11.968     0:01:44.504     37 414 kbps     45 033 kbps     01:06:49.538    38 980 kbps     01:06:45.534    38 193 kbps     01:06:40.529    156 047 bytes   303 341 bytes   01:07:20.036
24              1:07:56.472     0:03:12.792     37 408 kbps     43 751 kbps     01:08:25.935    38 695 kbps     01:08:54.230    38 033 kbps     01:08:16.892    156 022 bytes   311 669 bytes   01:08:59.001
25              1:11:09.264     0:04:42.282     37 405 kbps     44 775 kbps     01:11:44.500    38 649 kbps     01:13:18.160    38 147 kbps     01:11:35.524    156 011 bytes   304 558 bytes   01:12:11.160
26              1:15:51.547     0:03:21.868     37 397 kbps     45 303 kbps     01:16:15.037    39 106 kbps     01:16:11.033    38 254 kbps     01:16:06.028    155 978 bytes   315 695 bytes   01:17:06.621
27              1:19:13.415     0:03:51.231     37 409 kbps     42 954 kbps     01:22:46.861    38 434 kbps     01:22:16.197    37 932 kbps     01:22:37.752    156 025 bytes   301 488 bytes   01:22:47.429
28              1:23:04.646     0:03:31.544     37 398 kbps     48 420 kbps     01:23:24.499    39 587 kbps     01:23:20.495    38 473 kbps     01:23:15.490    155 980 bytes   453 768 bytes   01:25:10.104
29              1:26:36.191     0:10:18.651     37 374 kbps     43 727 kbps     01:35:26.454    39 521 kbps     01:36:47.968    38 583 kbps     01:36:42.963    155 891 bytes   416 688 bytes   01:36:54.809
STREAM DIAGNOSTICS:
File            PID             Type            Codec           Language                Seconds                 Bitrate                 Bytes           Packets
----            ---             ----            -----           --------                --------------          --------------          -------------   -----
00000.M2TS      4113 (0x1011)   0x1B            AVC                                     5814,208                37 412                  27 190 039 317  147 874 479
00000.M2TS      4352 (0x1100)   0x80            LPCM            jpn (Japanese)          5814,208                2 311                   1 679 220 380   9 303 160
00000.M2TS      4353 (0x1101)   0x86            DTS-HD MA       jpn (Japanese)          5814,208                4 897                   3 558 759 556   20 245 817
00000.M2TS      4608 (0x1200)   0x90            PGS             jpn (Japanese)          5814,208                118                     85 808 949      477 342
00004.M2TS      4113 (0x1011)   0x1B            AVC                                     0,367                   24 546                  1 126 141       6 124
00004.M2TS      4352 (0x1100)   0x80            LPCM            jpn (Japanese)          0,367                   2 122                   97 364          606
00004.M2TS      4353 (0x1101)   0x80            LPCM            jpn (Japanese)          0,367                   2 122                   97 364          606

QUICK SUMMARY:
Disc Title: MIKUPA2013INKANSAI_BD_DISC1
Disc Size: 34 433 286 649 bytes
Protection: AACS
BD-Java: No
Playlist: 00000.MPLS
Size: 34 195 771 392 bytes
Length: 1:36:54.842
Total Bitrate: 47,05 Mbps
Video: MPEG-4 AVC Video / 37409 kbps / 1080i / 29,970 fps / 16:9 / High Profile 4.1
Audio: Japanese / LPCM Audio / 2.0 / 48 kHz / 2304 kbps / 24-bit
Audio: Japanese / DTS-HD Master Audio / 5.1 / 48 kHz / 4896 kbps / 24-bit (DTS Core: 5.1 / 48 kHz / 1509 kbps / 24-bit)
Subtitle: Japanese / 118,055 kbps
********************
PLAYLIST: 00002.MPLS
********************

Код:

                                                                                Total   Video
Title                                                           Codec   Length  Movie Size      Disc Size       Bitrate Bitrate Main Audio Track                          Secondary Audio Track
-----                                                           ------  ------- --------------  --------------  ------- ------- ------------------                        ---------------------
00002.MPLS                                                      AVC     0:00:42 220 956 672     34 433 286 649  41,39   37,23   LPCM 2.0 2304Kbps (48kHz/24-bit)

Код:
DISC INFO:
Disc Title:     MIKUPA2013INKANSAI_BD_DISC1
Disc Size:      34 433 286 649 bytes
Protection:     AACS
BD-Java:        No
BDInfo:         0.5.8
PLAYLIST REPORT:
Name:                   00002.MPLS
Length:                 0:00:42.709 (h:m:s.ms)
Size:                   220 956 672 bytes
Total Bitrate:          41,39 Mbps
VIDEO:
Codec                   Bitrate             Description
-----                   -------             -----------
MPEG-4 AVC Video        37230 kbps          1080i / 29,970 fps / 16:9 / High Profile 4.1
AUDIO:
Codec                           Language        Bitrate         Description
-----                           --------        -------         -----------
LPCM Audio                      Japanese        2304 kbps       2.0 / 48 kHz / 2304 kbps / 24-bit
FILES:
Name            Time In         Length          Size            Total Bitrate
----            -------         ------          ----            -------------
00006.M2TS      0:00:00.000     0:00:42.709     220 956 672     41 388
CHAPTERS:
Number          Time In         Length          Avg Video Rate  Max 1-Sec Rate  Max 1-Sec Time  Max 5-Sec Rate  Max 5-Sec Time  Max 10Sec Rate  Max 10Sec Time  Avg Frame Size  Max Frame Size  Max Frame Time
------          -------         ------          --------------  --------------  --------------  --------------  --------------  --------------  --------------  --------------  --------------  --------------
1               0:00:00.000     0:00:42.709     37 230 kbps     40 530 kbps     00:00:00.000    37 926 kbps     00:00:00.000    37 489 kbps     00:00:07.006    155 281 bytes   521 699 bytes   00:00:18.018
STREAM DIAGNOSTICS:
File            PID             Type            Codec           Language                Seconds                 Bitrate                 Bytes           Packets
----            ---             ----            -----           --------                --------------          --------------          -------------   -----
00006.M2TS      4113 (0x1011)   0x1B            AVC                                     42,576                  37 347                  198 759 934     1 081 022
00006.M2TS      4352 (0x1100)   0x80            LPCM            jpn (Japanese)          42,576                  2 318                   12 334 648      68 336

QUICK SUMMARY:
Disc Title: MIKUPA2013INKANSAI_BD_DISC1
Disc Size: 34 433 286 649 bytes
Protection: AACS
BD-Java: No
Playlist: 00002.MPLS
Size: 220 956 672 bytes
Length: 0:00:42.709
Total Bitrate: 41,39 Mbps
Video: MPEG-4 AVC Video / 37230 kbps / 1080i / 29,970 fps / 16:9 / High Profile 4.1
Audio: Japanese / LPCM Audio / 2.0 / 48 kHz / 2304 kbps / 24-bit

Disc 2
Disc Title: MIKUPA2013INKANSAI_BD_DISC2
Disc Size: 33 037 107 497 bytes
Protection: AACS
BD-Java: No
BDInfo: 0.5.8
Notes:
BDINFO HOME:
Cinema Squid
http://www.cinemasquid.com/blu-ray/tools/bdinfo
INCLUDES FORUMS REPORT FOR:
AVS Forum Blu-ray Audio and Video Specifications Thread
http://www.avsforum.com/avs-vb/showthread.php?t=1155731
********************
PLAYLIST: 00000.MPLS
********************

Код:

                                                                                Total   Video
Title                                                           Codec   Length  Movie Size      Disc Size       Bitrate Bitrate Main Audio Track                          Secondary Audio Track
-----                                                           ------  ------- --------------  --------------  ------- ------- ------------------                        ---------------------
00000.MPLS                                                      AVC     1:33:08 32 798 711 808  33 037 107 497  46,95   37,42   LPCM 2.0 2304Kbps (48kHz/24-bit)          DTS-HD Master 5.1 4797Kbps (48kHz/24-bit)

Код:
DISC INFO:
Disc Title:     MIKUPA2013INKANSAI_BD_DISC2
Disc Size:      33 037 107 497 bytes
Protection:     AACS
BD-Java:        No
BDInfo:         0.5.8
PLAYLIST REPORT:
Name:                   00000.MPLS
Length:                 1:33:08.482 (h:m:s.ms)
Size:                   32 798 711 808 bytes
Total Bitrate:          46,95 Mbps
VIDEO:
Codec                   Bitrate             Description
-----                   -------             -----------
MPEG-4 AVC Video        37416 kbps          1080i / 29,970 fps / 16:9 / High Profile 4.1
AUDIO:
Codec                           Language        Bitrate         Description
-----                           --------        -------         -----------
LPCM Audio                      Japanese        2304 kbps       2.0 / 48 kHz / 2304 kbps / 24-bit
DTS-HD Master Audio             Japanese        4797 kbps       5.1 / 48 kHz / 4797 kbps / 24-bit (DTS Core: 5.1 / 48 kHz / 1509 kbps / 24-bit)
SUBTITLES:
Codec                           Language        Bitrate         Description
-----                           --------        -------         -----------
Presentation Graphics           Japanese        119,174 kbps
FILES:
Name            Time In         Length          Size            Total Bitrate
----            -------         ------          ----            -------------
00000.M2TS      0:00:00.000     1:33:07.982     32 797 298 688  46 954
00004.M2TS      1:33:07.982     0:00:00.500     1 413 120       22 587
CHAPTERS:
Number          Time In         Length          Avg Video Rate  Max 1-Sec Rate  Max 1-Sec Time  Max 5-Sec Rate  Max 5-Sec Time  Max 10Sec Rate  Max 10Sec Time  Avg Frame Size  Max Frame Size  Max Frame Time
------          -------         ------          --------------  --------------  --------------  --------------  --------------  --------------  --------------  --------------  --------------  --------------
1               0:00:00.000     0:00:48.882     37 486 kbps     44 070 kbps     00:00:38.505    38 574 kbps     00:00:34.501    38 008 kbps     00:00:29.429    156 240 bytes   278 532 bytes   00:00:09.142
2               0:00:48.882     0:04:25.264     37 433 kbps     43 300 kbps     00:04:41.714    38 695 kbps     00:04:37.744    38 177 kbps     00:04:32.705    156 127 bytes   328 969 bytes   00:02:55.408
3               0:05:14.147     0:02:28.314     37 412 kbps     44 460 kbps     00:05:17.717    38 640 kbps     00:07:32.418    37 966 kbps     00:07:27.380    156 040 bytes   299 985 bytes   00:05:30.496
4               0:07:42.462     0:01:41.935     37 415 kbps     42 273 kbps     00:08:21.000    38 457 kbps     00:08:16.996    37 958 kbps     00:09:05.111    156 051 bytes   325 553 bytes   00:08:36.182
5               0:09:24.397     0:03:52.732     37 437 kbps     45 212 kbps     00:12:11.363    38 932 kbps     00:12:07.326    38 166 kbps     00:12:02.321    156 142 bytes   357 800 bytes   00:09:48.854
6               0:13:17.129     0:03:31.044     37 441 kbps     42 798 kbps     00:16:10.102    38 533 kbps     00:13:36.415    38 027 kbps     00:13:31.443    156 159 bytes   312 685 bytes   00:13:17.163
7               0:16:48.173     0:00:41.708     37 453 kbps     46 447 kbps     00:16:48.574    37 775 kbps     00:17:02.087    37 651 kbps     00:16:57.049    156 210 bytes   315 689 bytes   00:16:49.174
8               0:17:29.882     0:05:46.345     37 403 kbps     45 642 kbps     00:20:42.407    39 334 kbps     00:20:38.403    38 290 kbps     00:20:33.398    156 001 bytes   315 241 bytes   00:19:41.713
9               0:23:16.228     0:03:23.369     37 409 kbps     44 963 kbps     00:25:01.733    39 043 kbps     00:24:57.729    38 237 kbps     00:24:52.724    156 025 bytes   294 405 bytes   00:25:02.200
10              0:26:39.598     0:04:08.581     37 455 kbps     43 890 kbps     00:29:14.285    38 899 kbps     00:29:40.945    38 064 kbps     00:29:35.974    156 217 bytes   345 592 bytes   00:29:45.550
11              0:30:48.179     0:05:42.008     37 403 kbps     46 115 kbps     00:33:03.181    39 198 kbps     00:32:59.110    38 280 kbps     00:32:54.205    156 004 bytes   325 750 bytes   00:33:05.750
12              0:36:30.188     0:03:03.349     37 411 kbps     47 148 kbps     00:38:11.789    39 470 kbps     00:38:07.785    38 393 kbps     00:38:19.697    156 034 bytes   347 371 bytes   00:36:53.077
13              0:39:33.537     0:04:29.936     37 404 kbps     44 174 kbps     00:40:54.552    38 685 kbps     00:40:50.548    38 076 kbps     00:40:45.576    156 005 bytes   356 781 bytes   00:41:06.597
14              0:44:03.474     0:00:51.384     37 392 kbps     41 320 kbps     00:44:31.969    38 218 kbps     00:44:27.931    37 860 kbps     00:44:22.926    155 958 bytes   280 577 bytes   00:44:32.503
15              0:44:54.858     0:05:11.477     37 429 kbps     43 915 kbps     00:48:58.201    38 831 kbps     00:48:54.264    38 166 kbps     00:48:49.159    156 109 bytes   297 764 bytes   00:48:19.429
16              0:50:06.336     0:04:13.920     37 435 kbps     46 166 kbps     00:52:08.291    38 796 kbps     00:52:04.154    38 246 kbps     00:51:59.282    156 135 bytes   358 857 bytes   00:52:39.990
17              0:54:20.257     0:03:44.223     37 403 kbps     43 779 kbps     00:56:06.029    38 727 kbps     00:56:02.058    38 137 kbps     00:57:20.437    156 001 bytes   375 034 bytes   00:57:30.213
18              0:58:04.481     0:02:41.594     37 428 kbps     41 085 kbps     00:58:13.857    38 199 kbps     00:58:36.179    37 815 kbps     00:58:31.274    156 107 bytes   281 763 bytes   00:59:28.464
19              1:00:46.075     0:04:47.186     37 435 kbps     43 648 kbps     01:04:48.985    38 662 kbps     01:04:44.981    38 047 kbps     01:04:40.009    156 135 bytes   307 527 bytes   01:05:22.685
20              1:05:33.262     0:03:23.202     37 410 kbps     44 028 kbps     01:08:35.811    38 776 kbps     01:08:31.807    38 067 kbps     01:08:26.836    156 029 bytes   338 120 bytes   01:06:31.320
21              1:08:56.465     0:01:23.750     37 425 kbps     41 766 kbps     01:09:14.016    38 443 kbps     01:09:16.919    37 883 kbps     01:09:11.914    156 093 bytes   323 426 bytes   01:10:12.708
22              1:10:20.216     0:04:19.592     37 416 kbps     43 877 kbps     01:13:29.004    38 557 kbps     01:12:33.215    38 077 kbps     01:14:07.943    156 057 bytes   291 969 bytes   01:12:25.107
23              1:14:39.808     0:06:08.368     37 398 kbps     44 632 kbps     01:19:32.434    38 959 kbps     01:19:28.430    38 108 kbps     01:19:23.425    155 981 bytes   333 788 bytes   01:19:33.101
24              1:20:48.176     0:01:18.077     37 405 kbps     42 400 kbps     01:21:20.775    38 526 kbps     01:21:16.738    37 997 kbps     01:21:11.733    156 009 bytes   288 349 bytes   01:21:36.224
25              1:22:06.254     0:05:21.354     37 401 kbps     43 296 kbps     01:24:29.030    38 592 kbps     01:24:25.026    38 092 kbps     01:24:19.988    155 992 bytes   314 263 bytes   01:24:29.597
26              1:27:27.609     0:04:07.880     37 426 kbps     44 284 kbps     01:30:45.306    38 807 kbps     01:31:29.984    38 147 kbps     01:30:36.297    156 099 bytes   343 549 bytes   01:31:34.689
27              1:31:35.490     0:01:32.992     37 279 kbps     47 860 kbps     01:33:05.112    39 485 kbps     01:33:01.142    38 440 kbps     01:32:56.037    155 542 bytes   416 688 bytes   01:33:08.449
STREAM DIAGNOSTICS:
File            PID             Type            Codec           Language                Seconds                 Bitrate                 Bytes           Packets
----            ---             ----            -----           --------                --------------          --------------          -------------   -----
00000.M2TS      4113 (0x1011)   0x1B            AVC                                     5587,849                37 419                  26 136 532 585  142 144 741
00000.M2TS      4352 (0x1100)   0x80            LPCM            jpn (Japanese)          5587,849                2 311                   1 613 983 348   8 941 736
00000.M2TS      4353 (0x1101)   0x86            DTS-HD MA       jpn (Japanese)          5587,849                4 797                   3 350 766 800   19 081 514
00000.M2TS      4608 (0x1200)   0x90            PGS             jpn (Japanese)          5587,849                119                     83 249 950      464 007
00004.M2TS      4113 (0x1011)   0x1B            AVC                                     0,367                   24 546                  1 126 141       6 124
00004.M2TS      4352 (0x1100)   0x80            LPCM            jpn (Japanese)          0,367                   2 122                   97 364          606
00004.M2TS      4353 (0x1101)   0x80            LPCM            jpn (Japanese)          0,367                   2 122                   97 364          606

QUICK SUMMARY:
Disc Title: MIKUPA2013INKANSAI_BD_DISC2
Disc Size: 33 037 107 497 bytes
Protection: AACS
BD-Java: No
Playlist: 00000.MPLS
Size: 32 798 711 808 bytes
Length: 1:33:08.482
Total Bitrate: 46,95 Mbps
Video: MPEG-4 AVC Video / 37416 kbps / 1080i / 29,970 fps / 16:9 / High Profile 4.1
Audio: Japanese / LPCM Audio / 2.0 / 48 kHz / 2304 kbps / 24-bit
Audio: Japanese / DTS-HD Master Audio / 5.1 / 48 kHz / 4797 kbps / 24-bit (DTS Core: 5.1 / 48 kHz / 1509 kbps / 24-bit)
Subtitle: Japanese / 119,174 kbps
********************
PLAYLIST: 00002.MPLS
********************

Код:

                                                                                Total   Video
Title                                                           Codec   Length  Movie Size      Disc Size       Bitrate Bitrate Main Audio Track                          Secondary Audio Track
-----                                                           ------  ------- --------------  --------------  ------- ------- ------------------                        ---------------------
00002.MPLS                                                      AVC     0:00:42 220 956 672     33 037 107 497  41,39   37,23   LPCM 2.0 2304Kbps (48kHz/24-bit)

Код:
DISC INFO:
Disc Title:     MIKUPA2013INKANSAI_BD_DISC2
Disc Size:      33 037 107 497 bytes
Protection:     AACS
BD-Java:        No
BDInfo:         0.5.8
PLAYLIST REPORT:
Name:                   00002.MPLS
Length:                 0:00:42.709 (h:m:s.ms)
Size:                   220 956 672 bytes
Total Bitrate:          41,39 Mbps
VIDEO:
Codec                   Bitrate             Description
-----                   -------             -----------
MPEG-4 AVC Video        37230 kbps          1080i / 29,970 fps / 16:9 / High Profile 4.1
AUDIO:
Codec                           Language        Bitrate         Description
-----                           --------        -------         -----------
LPCM Audio                      Japanese        2304 kbps       2.0 / 48 kHz / 2304 kbps / 24-bit
FILES:
Name            Time In         Length          Size            Total Bitrate
----            -------         ------          ----            -------------
00007.M2TS      0:00:00.000     0:00:42.709     220 956 672     41 388
CHAPTERS:
Number          Time In         Length          Avg Video Rate  Max 1-Sec Rate  Max 1-Sec Time  Max 5-Sec Rate  Max 5-Sec Time  Max 10Sec Rate  Max 10Sec Time  Avg Frame Size  Max Frame Size  Max Frame Time
------          -------         ------          --------------  --------------  --------------  --------------  --------------  --------------  --------------  --------------  --------------  --------------
1               0:00:00.000     0:00:42.709     37 230 kbps     40 530 kbps     00:00:00.000    37 926 kbps     00:00:00.000    37 489 kbps     00:00:07.006    155 281 bytes   521 699 bytes   00:00:18.018
STREAM DIAGNOSTICS:
File            PID             Type            Codec           Language                Seconds                 Bitrate                 Bytes           Packets
----            ---             ----            -----           --------                --------------          --------------          -------------   -----
00007.M2TS      4113 (0x1011)   0x1B            AVC                                     42,576                  37 347                  198 759 934     1 081 022
00007.M2TS      4352 (0x1100)   0x80            LPCM            jpn (Japanese)          42,576                  2 318                   12 334 648      68 336

QUICK SUMMARY:
Disc Title: MIKUPA2013INKANSAI_BD_DISC2
Disc Size: 33 037 107 497 bytes
Protection: AACS
BD-Java: No
Playlist: 00002.MPLS
Size: 220 956 672 bytes
Length: 0:00:42.709
Total Bitrate: 41,39 Mbps
Video: MPEG-4 AVC Video / 37230 kbps / 1080i / 29,970 fps / 16:9 / High Profile 4.1
Audio: Japanese / LPCM Audio / 2.0 / 48 kHz / 2304 kbps / 24-bit

Disc 3
Disc Title: MIKUPA2013INKANSAI_BD_DISC3
Disc Size: 24 791 592 585 bytes
Protection: AACS
BD-Java: No
BDInfo: 0.5.8
Notes:
BDINFO HOME:
Cinema Squid
http://www.cinemasquid.com/blu-ray/tools/bdinfo
INCLUDES FORUMS REPORT FOR:
AVS Forum Blu-ray Audio and Video Specifications Thread
http://www.avsforum.com/avs-vb/showthread.php?t=1155731
********************
PLAYLIST: 00010.MPLS
********************

Код:

                                                                                Total   Video
Title                                                           Codec   Length  Movie Size      Disc Size       Bitrate Bitrate Main Audio Track                          Secondary Audio Track
-----                                                           ------  ------- --------------  --------------  ------- ------- ------------------                        ---------------------
00010.MPLS                                                      AVC     1:09:15 24 025 245 696  24 791 592 585  46,25   36,65   LPCM 2.0 2304Kbps (48kHz/24-bit)          DTS-HD Master 5.1 5016Kbps (48kHz/24-bit)

Код:
DISC INFO:
Disc Title:     MIKUPA2013INKANSAI_BD_DISC3
Disc Size:      24 791 592 585 bytes
Protection:     AACS
BD-Java:        No
BDInfo:         0.5.8
PLAYLIST REPORT:
Name:                   00010.MPLS
Length:                 1:09:15.718 (h:m:s.ms)
Size:                   24 025 245 696 bytes
Total Bitrate:          46,25 Mbps
VIDEO:
Codec                   Bitrate             Description
-----                   -------             -----------
MPEG-4 AVC Video        36647 kbps          1080i / 29,970 fps / 16:9 / High Profile 4.1
AUDIO:
Codec                           Language        Bitrate         Description
-----                           --------        -------         -----------
LPCM Audio                      Japanese        2304 kbps       2.0 / 48 kHz / 2304 kbps / 24-bit
DTS-HD Master Audio             Japanese        5016 kbps       5.1 / 48 kHz / 5016 kbps / 24-bit (DTS Core: 5.1 / 48 kHz / 1509 kbps / 24-bit)
FILES:
Name            Time In         Length          Size            Total Bitrate
----            -------         ------          ----            -------------
00000.M2TS      0:00:00.000     0:33:40.718     11 493 242 880  45 502
00001.M2TS      0:33:40.718     0:35:34.499     12 530 589 696  46 964
00004.M2TS      1:09:15.217     0:00:00.500     1 413 120       22 587
CHAPTERS:
Number          Time In         Length          Avg Video Rate  Max 1-Sec Rate  Max 1-Sec Time  Max 5-Sec Rate  Max 5-Sec Time  Max 10Sec Rate  Max 10Sec Time  Avg Frame Size  Max Frame Size  Max Frame Time
------          -------         ------          --------------  --------------  --------------  --------------  --------------  --------------  --------------  --------------  --------------  --------------
1               0:00:00.000     0:02:14.801     28 089 kbps     40 884 kbps     00:00:32.799    38 015 kbps     00:01:54.547    37 833 kbps     00:00:32.432    117 127 bytes   271 618 bytes   00:02:13.933
2               0:02:14.801     0:02:11.297     37 595 kbps     42 573 kbps     00:04:18.024    38 917 kbps     00:04:13.987    38 276 kbps     00:04:08.982    156 801 bytes   280 123 bytes   00:04:05.078
3               0:04:26.099     0:00:49.883     36 674 kbps     41 698 kbps     00:05:11.077    38 751 kbps     00:05:07.040    37 851 kbps     00:04:34.073    152 960 bytes   298 921 bytes   00:05:11.411
4               0:05:15.982     0:03:50.563     35 698 kbps     43 775 kbps     00:06:54.514    38 983 kbps     00:08:55.368    38 341 kbps     00:08:50.363    148 889 bytes   308 003 bytes   00:08:59.872
5               0:09:06.546     0:04:00.907     35 520 kbps     42 498 kbps     00:12:53.773    38 573 kbps     00:12:49.735    38 180 kbps     00:11:30.356    148 146 bytes   270 646 bytes   00:10:04.236
6               0:13:07.453     0:03:28.374     36 434 kbps     44 561 kbps     00:14:55.928    39 274 kbps     00:14:51.924    38 466 kbps     00:14:46.919    151 959 bytes   323 745 bytes   00:15:15.381
7               0:16:35.828     0:00:42.709     36 116 kbps     39 092 kbps     00:16:42.167    37 980 kbps     00:16:59.985    37 813 kbps     00:17:01.820    150 634 bytes   251 921 bytes   00:17:15.501
8               0:17:18.537     0:05:51.350     37 134 kbps     47 459 kbps     00:23:02.714    39 784 kbps     00:22:58.744    38 385 kbps     00:18:30.709    154 882 bytes   343 191 bytes   00:20:47.012
9               0:23:09.888     0:04:21.261     36 711 kbps     42 121 kbps     00:27:22.674    38 838 kbps     00:27:18.670    38 216 kbps     00:23:50.462    153 116 bytes   299 885 bytes   00:24:03.875
10              0:27:31.149     0:05:01.801     36 898 kbps     45 890 kbps     00:30:50.048    39 585 kbps     00:30:46.077    38 774 kbps     00:30:41.039    153 895 bytes   329 503 bytes   00:30:50.615
11              0:32:32.951     0:01:07.767     35 045 kbps     43 049 kbps     00:33:31.376    38 578 kbps     00:33:27.305    38 202 kbps     00:33:22.367    146 165 bytes   275 511 bytes   00:32:49.267
12              0:33:40.718     0:01:41.434     37 301 kbps     40 459 kbps     00:34:01.272    37 896 kbps     00:33:57.268    37 619 kbps     00:33:52.263    155 577 bytes   292 403 bytes   00:34:25.763
13              0:35:22.153     0:04:05.078     37 344 kbps     44 262 kbps     00:35:26.324    38 534 kbps     00:37:49.500    37 936 kbps     00:37:44.528    155 756 bytes   382 898 bytes   00:35:27.291
14              0:39:27.231     0:00:44.711     37 294 kbps     47 991 kbps     00:40:08.305    39 407 kbps     00:40:04.301    38 396 kbps     00:39:59.330    155 547 bytes   377 320 bytes   00:40:08.906
15              0:40:11.942     0:03:42.722     37 314 kbps     49 382 kbps     00:40:33.330    39 837 kbps     00:40:29.326    38 436 kbps     00:40:24.355    155 631 bytes   404 827 bytes   00:40:34.031
16              0:43:54.665     0:04:24.263     37 318 kbps     45 511 kbps     00:48:17.394    39 116 kbps     00:48:13.390    38 209 kbps     00:48:08.385    155 646 bytes   364 101 bytes   00:48:18.028
17              0:48:18.929     0:01:39.599     37 293 kbps     46 372 kbps     00:49:04.675    39 123 kbps     00:49:00.637    38 133 kbps     00:48:55.699    155 542 bytes   385 971 bytes   00:49:37.908
18              0:49:58.528     0:03:52.732     37 310 kbps     51 119 kbps     00:53:48.592    40 186 kbps     00:53:44.588    38 789 kbps     00:53:39.583    155 615 bytes   383 694 bytes   00:53:49.292
19              0:53:51.261     0:04:39.946     37 310 kbps     49 367 kbps     00:58:29.472    39 995 kbps     00:58:25.501    38 743 kbps     00:58:20.530    155 613 bytes   508 252 bytes   00:58:30.240
20              0:58:31.207     0:03:26.539     37 327 kbps     44 471 kbps     00:58:46.756    38 657 kbps     00:58:42.785    38 058 kbps     00:58:37.780    155 685 bytes   373 143 bytes   01:01:55.978
21              1:01:57.747     0:05:24.324     37 325 kbps     46 328 kbps     01:05:32.428    39 170 kbps     01:05:28.391    38 192 kbps     01:05:23.386    155 677 bytes   333 416 bytes   01:05:33.095
22              1:07:22.071     0:01:53.646     37 291 kbps     40 635 kbps     01:08:15.157    38 990 kbps     01:09:07.109    38 193 kbps     01:09:02.104    155 582 bytes   416 688 bytes   01:09:15.684
STREAM DIAGNOSTICS:
File            PID             Type            Codec           Language                Seconds                 Bitrate                 Bytes           Packets
----            ---             ----            -----           --------                --------------          --------------          -------------   -----
00000.M2TS      4113 (0x1011)   0x1B            AVC                                     2020,585                35 941                  9 077 816 587   49 371 316
00000.M2TS      4352 (0x1100)   0x80            LPCM            jpn (Japanese)          2020,585                2 311                   583 575 272     3 233 104
00000.M2TS      4353 (0x1101)   0x86            DTS-HD MA       jpn (Japanese)          2020,585                5 007                   1 264 731 380   7 188 492
00001.M2TS      4113 (0x1011)   0x1B            AVC                                     2134,366                37 324                  9 957 829 898   54 156 358
00001.M2TS      4352 (0x1100)   0x80            LPCM            jpn (Japanese)          2134,366                2 311                   616 434 936     3 415 152
00001.M2TS      4353 (0x1101)   0x86            DTS-HD MA       jpn (Japanese)          2134,366                5 026                   1 340 967 816   7 620 441
00004.M2TS      4113 (0x1011)   0x1B            AVC                                     0,367                   24 546                  1 126 141       6 124
00004.M2TS      4352 (0x1100)   0x80            LPCM            jpn (Japanese)          0,367                   2 122                   97 364          606
00004.M2TS      4353 (0x1101)   0x80            LPCM            jpn (Japanese)          0,367                   2 122                   97 364          606

QUICK SUMMARY:
Disc Title: MIKUPA2013INKANSAI_BD_DISC3
Disc Size: 24 791 592 585 bytes
Protection: AACS
BD-Java: No
Playlist: 00010.MPLS
Size: 24 025 245 696 bytes
Length: 1:09:15.718
Total Bitrate: 46,25 Mbps
Video: MPEG-4 AVC Video / 36647 kbps / 1080i / 29,970 fps / 16:9 / High Profile 4.1
Audio: Japanese / LPCM Audio / 2.0 / 48 kHz / 2304 kbps / 24-bit
Audio: Japanese / DTS-HD Master Audio / 5.1 / 48 kHz / 5016 kbps / 24-bit (DTS Core: 5.1 / 48 kHz / 1509 kbps / 24-bit)
********************
PLAYLIST: 00001.MPLS
********************

Код:

                                                                                Total   Video
Title                                                           Codec   Length  Movie Size      Disc Size       Bitrate Bitrate Main Audio Track                          Secondary Audio Track
-----                                                           ------  ------- --------------  --------------  ------- ------- ------------------                        ---------------------
00001.MPLS                                                      AVC     0:35:34 12 532 002 816  24 791 592 585  46,96   37,32   LPCM 2.0 2304Kbps (48kHz/24-bit)          DTS-HD Master 5.1 5025Kbps (48kHz/24-bit)

Код:
DISC INFO:
Disc Title:     MIKUPA2013INKANSAI_BD_DISC3
Disc Size:      24 791 592 585 bytes
Protection:     AACS
BD-Java:        No
BDInfo:         0.5.8
PLAYLIST REPORT:
Name:                   00001.MPLS
Length:                 0:35:34.999 (h:m:s.ms)
Size:                   12 532 002 816 bytes
Total Bitrate:          46,96 Mbps
VIDEO:
Codec                   Bitrate             Description
-----                   -------             -----------
MPEG-4 AVC Video        37317 kbps          1080i / 29,970 fps / 16:9 / High Profile 4.1
AUDIO:
Codec                           Language        Bitrate         Description
-----                           --------        -------         -----------
LPCM Audio                      Japanese        2304 kbps       2.0 / 48 kHz / 2304 kbps / 24-bit
DTS-HD Master Audio             Japanese        5025 kbps       5.1 / 48 kHz / 5025 kbps / 24-bit (DTS Core: 5.1 / 48 kHz / 1509 kbps / 24-bit)
FILES:
Name            Time In         Length          Size            Total Bitrate
----            -------         ------          ----            -------------
00001.M2TS      0:00:00.000     0:35:34.499     12 530 589 696  46 964
00004.M2TS      0:35:34.499     0:00:00.500     1 413 120       22 587
CHAPTERS:
Number          Time In         Length          Avg Video Rate  Max 1-Sec Rate  Max 1-Sec Time  Max 5-Sec Rate  Max 5-Sec Time  Max 10Sec Rate  Max 10Sec Time  Avg Frame Size  Max Frame Size  Max Frame Time
------          -------         ------          --------------  --------------  --------------  --------------  --------------  --------------  --------------  --------------  --------------  --------------
1               0:00:00.000     0:01:41.434     37 306 kbps     40 459 kbps     00:00:20.553    37 896 kbps     00:00:16.549    37 619 kbps     00:00:11.544    155 546 bytes   292 403 bytes   00:00:45.045
2               0:01:41.434     0:04:05.078     37 344 kbps     44 262 kbps     00:01:45.605    38 534 kbps     00:04:08.781    37 936 kbps     00:04:03.810    155 756 bytes   382 898 bytes   00:01:46.573
3               0:05:46.512     0:00:44.711     37 294 kbps     47 991 kbps     00:06:27.587    39 407 kbps     00:06:23.583    38 396 kbps     00:06:18.611    155 547 bytes   377 320 bytes   00:06:28.187
4               0:06:31.224     0:03:42.722     37 314 kbps     49 382 kbps     00:06:52.612    39 837 kbps     00:06:48.608    38 436 kbps     00:06:43.636    155 631 bytes   404 827 bytes   00:06:53.312
5               0:10:13.946     0:04:24.263     37 318 kbps     45 511 kbps     00:14:36.675    39 116 kbps     00:14:32.671    38 209 kbps     00:14:27.666    155 646 bytes   364 101 bytes   00:14:37.309
6               0:14:38.210     0:01:39.599     37 293 kbps     46 372 kbps     00:15:23.956    39 123 kbps     00:15:19.919    38 133 kbps     00:15:14.980    155 542 bytes   385 971 bytes   00:15:57.189
7               0:16:17.810     0:03:52.732     37 310 kbps     51 119 kbps     00:20:07.873    40 186 kbps     00:20:03.869    38 789 kbps     00:19:58.864    155 615 bytes   383 694 bytes   00:20:08.574
8               0:20:10.542     0:04:39.946     37 310 kbps     49 367 kbps     00:24:48.753    39 995 kbps     00:24:44.783    38 743 kbps     00:24:39.811    155 613 bytes   508 252 bytes   00:24:49.521
9               0:24:50.488     0:03:26.539     37 327 kbps     44 471 kbps     00:25:06.037    38 657 kbps     00:25:02.067    38 058 kbps     00:24:57.062    155 685 bytes   373 143 bytes   00:28:15.260
10              0:28:17.028     0:05:24.324     37 325 kbps     46 328 kbps     00:31:51.709    39 170 kbps     00:31:47.672    38 192 kbps     00:31:42.667    155 677 bytes   333 416 bytes   00:31:52.377
11              0:33:41.352     0:01:53.646     37 291 kbps     40 635 kbps     00:34:34.439    38 990 kbps     00:35:26.390    38 193 kbps     00:35:21.385    155 582 bytes   416 688 bytes   00:35:34.966
STREAM DIAGNOSTICS:
File            PID             Type            Codec           Language                Seconds                 Bitrate                 Bytes           Packets
----            ---             ----            -----           --------                --------------          --------------          -------------   -----
00001.M2TS      4113 (0x1011)   0x1B            AVC                                     2134,366                37 324                  9 957 829 898   54 156 358
00001.M2TS      4352 (0x1100)   0x80            LPCM            jpn (Japanese)          2134,366                2 311                   616 434 936     3 415 152
00001.M2TS      4353 (0x1101)   0x86            DTS-HD MA       jpn (Japanese)          2134,366                5 026                   1 340 967 816   7 620 441
00004.M2TS      4113 (0x1011)   0x1B            AVC                                     0,367                   24 546                  1 126 141       6 124
00004.M2TS      4352 (0x1100)   0x80            LPCM            jpn (Japanese)          0,367                   2 122                   97 364          606
00004.M2TS      4353 (0x1101)   0x80            LPCM            jpn (Japanese)          0,367                   2 122                   97 364          606

QUICK SUMMARY:
Disc Title: MIKUPA2013INKANSAI_BD_DISC3
Disc Size: 24 791 592 585 bytes
Protection: AACS
BD-Java: No
Playlist: 00001.MPLS
Size: 12 532 002 816 bytes
Length: 0:35:34.999
Total Bitrate: 46,96 Mbps
Video: MPEG-4 AVC Video / 37317 kbps / 1080i / 29,970 fps / 16:9 / High Profile 4.1
Audio: Japanese / LPCM Audio / 2.0 / 48 kHz / 2304 kbps / 24-bit
Audio: Japanese / DTS-HD Master Audio / 5.1 / 48 kHz / 5025 kbps / 24-bit (DTS Core: 5.1 / 48 kHz / 1509 kbps / 24-bit)
********************
PLAYLIST: 00000.MPLS
********************

Код:

                                                                                Total   Video
Title                                                           Codec   Length  Movie Size      Disc Size       Bitrate Bitrate Main Audio Track                          Secondary Audio Track
-----                                                           ------  ------- --------------  --------------  ------- ------- ------------------                        ---------------------
00000.MPLS                                                      AVC     0:33:41 11 494 656 000  24 791 592 585  45,50   35,93   LPCM 2.0 2304Kbps (48kHz/24-bit)          DTS-HD Master 5.1 5006Kbps (48kHz/24-bit)

Код:
DISC INFO:
Disc Title:     MIKUPA2013INKANSAI_BD_DISC3
Disc Size:      24 791 592 585 bytes
Protection:     AACS
BD-Java:        No
BDInfo:         0.5.8
PLAYLIST REPORT:
Name:                   00000.MPLS
Length:                 0:33:41.219 (h:m:s.ms)
Size:                   11 494 656 000 bytes
Total Bitrate:          45,50 Mbps
VIDEO:
Codec                   Bitrate             Description
-----                   -------             -----------
MPEG-4 AVC Video        35935 kbps          1080i / 29,970 fps / 16:9 / High Profile 4.1
AUDIO:
Codec                           Language        Bitrate         Description
-----                           --------        -------         -----------
LPCM Audio                      Japanese        2304 kbps       2.0 / 48 kHz / 2304 kbps / 24-bit
DTS-HD Master Audio             Japanese        5006 kbps       5.1 / 48 kHz / 5006 kbps / 24-bit (DTS Core: 5.1 / 48 kHz / 1509 kbps / 24-bit)
FILES:
Name            Time In         Length          Size            Total Bitrate
----            -------         ------          ----            -------------
00000.M2TS      0:00:00.000     0:33:40.718     11 493 242 880  45 502
00004.M2TS      0:33:40.718     0:00:00.500     1 413 120       22 587
CHAPTERS:
Number          Time In         Length          Avg Video Rate  Max 1-Sec Rate  Max 1-Sec Time  Max 5-Sec Rate  Max 5-Sec Time  Max 10Sec Rate  Max 10Sec Time  Avg Frame Size  Max Frame Size  Max Frame Time
------          -------         ------          --------------  --------------  --------------  --------------  --------------  --------------  --------------  --------------  --------------  --------------
1               0:00:00.000     0:02:14.801     28 089 kbps     40 884 kbps     00:00:32.799    38 015 kbps     00:01:54.547    37 833 kbps     00:00:32.432    117 127 bytes   271 618 bytes   00:02:13.933
2               0:02:14.801     0:02:11.297     37 595 kbps     42 573 kbps     00:04:18.024    38 917 kbps     00:04:13.987    38 276 kbps     00:04:08.982    156 801 bytes   280 123 bytes   00:04:05.078
3               0:04:26.099     0:00:49.883     36 674 kbps     41 698 kbps     00:05:11.077    38 751 kbps     00:05:07.040    37 851 kbps     00:04:34.073    152 960 bytes   298 921 bytes   00:05:11.411
4               0:05:15.982     0:03:50.563     35 698 kbps     43 775 kbps     00:06:54.514    38 983 kbps     00:08:55.368    38 341 kbps     00:08:50.363    148 889 bytes   308 003 bytes   00:08:59.872
5               0:09:06.546     0:04:00.907     35 520 kbps     42 498 kbps     00:12:53.773    38 573 kbps     00:12:49.735    38 180 kbps     00:11:30.356    148 146 bytes   270 646 bytes   00:10:04.236
6               0:13:07.453     0:03:28.374     36 434 kbps     44 561 kbps     00:14:55.928    39 274 kbps     00:14:51.924    38 466 kbps     00:14:46.919    151 959 bytes   323 745 bytes   00:15:15.381
7               0:16:35.828     0:00:42.709     36 116 kbps     39 092 kbps     00:16:42.167    37 980 kbps     00:16:59.985    37 813 kbps     00:17:01.820    150 634 bytes   251 921 bytes   00:17:15.501
8               0:17:18.537     0:05:51.350     37 134 kbps     47 459 kbps     00:23:02.714    39 784 kbps     00:22:58.744    38 385 kbps     00:18:30.709    154 882 bytes   343 191 bytes   00:20:47.012
9               0:23:09.888     0:04:21.261     36 711 kbps     42 121 kbps     00:27:22.674    38 838 kbps     00:27:18.670    38 216 kbps     00:23:50.462    153 116 bytes   299 885 bytes   00:24:03.875
10              0:27:31.149     0:05:01.801     36 898 kbps     45 890 kbps     00:30:50.048    39 585 kbps     00:30:46.077    38 774 kbps     00:30:41.039    153 895 bytes   329 503 bytes   00:30:50.615
11              0:32:32.951     0:01:08.268     34 912 kbps     43 049 kbps     00:33:31.376    38 578 kbps     00:33:27.305    38 202 kbps     00:33:22.367    145 685 bytes   416 688 bytes   00:33:41.185
STREAM DIAGNOSTICS:
File            PID             Type            Codec           Language                Seconds                 Bitrate                 Bytes           Packets
----            ---             ----            -----           --------                --------------          --------------          -------------   -----
00000.M2TS      4113 (0x1011)   0x1B            AVC                                     2020,585                35 941                  9 077 816 587   49 371 316
00000.M2TS      4352 (0x1100)   0x80            LPCM            jpn (Japanese)          2020,585                2 311                   583 575 272     3 233 104
00000.M2TS      4353 (0x1101)   0x86            DTS-HD MA       jpn (Japanese)          2020,585                5 007                   1 264 731 380   7 188 492
00004.M2TS      4113 (0x1011)   0x1B            AVC                                     0,367                   24 546                  1 126 141       6 124
00004.M2TS      4352 (0x1100)   0x80            LPCM            jpn (Japanese)          0,367                   2 122                   97 364          606
00004.M2TS      4353 (0x1101)   0x80            LPCM            jpn (Japanese)          0,367                   2 122                   97 364          606

QUICK SUMMARY:
Disc Title: MIKUPA2013INKANSAI_BD_DISC3
Disc Size: 24 791 592 585 bytes
Protection: AACS
BD-Java: No
Playlist: 00000.MPLS
Size: 11 494 656 000 bytes
Length: 0:33:41.219
Total Bitrate: 45,50 Mbps
Video: MPEG-4 AVC Video / 35935 kbps / 1080i / 29,970 fps / 16:9 / High Profile 4.1
Audio: Japanese / LPCM Audio / 2.0 / 48 kHz / 2304 kbps / 24-bit
Audio: Japanese / DTS-HD Master Audio / 5.1 / 48 kHz / 5006 kbps / 24-bit (DTS Core: 5.1 / 48 kHz / 1509 kbps / 24-bit)
********************
PLAYLIST: 00002.MPLS
********************

Код:

                                                                                Total   Video
Title                                                           Codec   Length  Movie Size      Disc Size       Bitrate Bitrate Main Audio Track                          Secondary Audio Track
-----                                                           ------  ------- --------------  --------------  ------- ------- ------------------                        ---------------------
00002.MPLS                                                      AVC     0:00:42 220 956 672     24 791 592 585  41,39   37,23   LPCM 2.0 2304Kbps (48kHz/24-bit)

Код:
DISC INFO:
Disc Title:     MIKUPA2013INKANSAI_BD_DISC3
Disc Size:      24 791 592 585 bytes
Protection:     AACS
BD-Java:        No
BDInfo:         0.5.8
PLAYLIST REPORT:
Name:                   00002.MPLS
Length:                 0:00:42.709 (h:m:s.ms)
Size:                   220 956 672 bytes
Total Bitrate:          41,39 Mbps
VIDEO:
Codec                   Bitrate             Description
-----                   -------             -----------
MPEG-4 AVC Video        37230 kbps          1080i / 29,970 fps / 16:9 / High Profile 4.1
AUDIO:
Codec                           Language        Bitrate         Description
-----                           --------        -------         -----------
LPCM Audio                      Japanese        2304 kbps       2.0 / 48 kHz / 2304 kbps / 24-bit
SUBTITLES:
Codec                           Language        Bitrate         Description
-----                           --------        -------         -----------
Presentation Graphics           Japanese        0,368 kbps
FILES:
Name            Time In         Length          Size            Total Bitrate
----            -------         ------          ----            -------------
00005.M2TS      0:00:00.000     0:00:42.709     220 956 672     41 388
CHAPTERS:
Number          Time In         Length          Avg Video Rate  Max 1-Sec Rate  Max 1-Sec Time  Max 5-Sec Rate  Max 5-Sec Time  Max 10Sec Rate  Max 10Sec Time  Avg Frame Size  Max Frame Size  Max Frame Time
------          -------         ------          --------------  --------------  --------------  --------------  --------------  --------------  --------------  --------------  --------------  --------------
1               0:00:00.000     0:00:42.709     37 230 kbps     40 530 kbps     00:00:00.000    37 926 kbps     00:00:00.000    37 489 kbps     00:00:07.006    155 281 bytes   521 699 bytes   00:00:18.018
STREAM DIAGNOSTICS:
File            PID             Type            Codec           Language                Seconds                 Bitrate                 Bytes           Packets
----            ---             ----            -----           --------                --------------          --------------          -------------   -----
00005.M2TS      4113 (0x1011)   0x1B            AVC                                     42,576                  37 347                  198 759 934     1 081 022
00005.M2TS      4352 (0x1100)   0x80            LPCM            jpn (Japanese)          42,576                  2 318                   12 334 648      68 336
00005.M2TS      4608 (0x1200)   0x90            PGS             jpn (Japanese)          42,576                  0                       1 962           18

QUICK SUMMARY:
Disc Title: MIKUPA2013INKANSAI_BD_DISC3
Disc Size: 24 791 592 585 bytes
Protection: AACS
BD-Java: No
Playlist: 00002.MPLS
Size: 220 956 672 bytes
Length: 0:00:42.709
Total Bitrate: 41,39 Mbps
Video: MPEG-4 AVC Video / 37230 kbps / 1080i / 29,970 fps / 16:9 / High Profile 4.1
Audio: Japanese / LPCM Audio / 2.0 / 48 kHz / 2304 kbps / 24-bit
Subtitle: Japanese / 0,368 kbps


Скриншоты









                                                                                       
                       
                       
                       
                       
                       
                                磁力下载:(论坛代下载服务)
                                                               
                                       
游客,本主题需向作者支付 7音乐币 才能浏览,金币充值, 免回复、免金币,直接查看内容请开通VIP支付

                                               
  • 85.93 GB
  • 温馨提示

    记得善用社区搜索功能,那里可能会有你想要的资源;论坛站内搜索

    如果你有什么需要的资源可以去资源求档发帖,求助社区的网友,我们会在第一时间给你回复哦;资源求档

    对于本社区网盘链接失效密码错误各种报错请在反馈板块反馈报错发帖,您的支持,是我们发展的最大动力;投诉建议

    回复

    使用道具 举报

    您需要登录后才可以回帖 登录 | 立即注册 微信登录

    本版积分规则

    关注0

    粉丝12

    帖子69802

    发布主题
    阅读排行更多+
    关闭

    站长推荐上一条 /1 下一条

    收藏帖子 返回列表 这是一个自定义按钮
    音乐分享,音乐下载。
    微信公众号
    微信号:hires_
    意见反馈:admin@maomicd.com

    加入我们的官方QQ群和微信群

    Powered by Discuz! X3.4 Archiver|手机版|小黑屋|捌零音乐论坛 ( 苏ICP备20015413号 )|( 苏公网安备 32030502000272号) 繁體

    GMT+8, 2021-5-18 19:51