自购原抓音乐圈:只有自购、合购、原抓级高解析(hires、sacd、dsd)正版音乐资源分享!【点我打开
极速无线网卡:千兆无线网卡、服务器网卡、USB接口台式机笔记本网卡 硬盘代考无损音乐!【点我打开
广告

[日韩音乐] BTS世界巡回赛“爱自己” - 在Wembley Stadium的音乐会[2019,K-POP,HDTV,1080i]

[复制链接]
kayda 发表于 2021-4-13 15:37:56 | 显示全部楼层 |阅读模式 打印 上一主题 下一主题
BTS World Tour 'Love Yourself: Speak Yourself' - Сoncert at Wembley stadium
Жанр: K-Pop
Продолжительность: 02:43:00
Год выпуска: 2019
Описание: Полная запись прошедшего 1 июня 2019 концерта на стадионе "Уэмбли"; FEED
Автор рипа/записи: ilya2129
Качество: HDTV
Разрешение видео/развертка: 1080i
Контейнер: TS
Видео кодек: H.264
Аудио кодек: MPEG Audio
Видео: H264, 1920x1080, 28500kbps, 25fps
Аудио: MPEG Audio, 384kbps, 48000kHz, 2ch
Треклист
1. Dionysus [00:03:37-00:07:40]
2. Not Today [00:07:42-00:11:33]
3. Interlude: Wings [00:16:34-00:21:22]
4. Trivia 起: Just Dance [00:24:58-00:29:11]
5. Euphoria [00:29:15-00:33:45]
6. Best of me [00:33:50-00:37:50]
7. Intro: Serendipity [00:42:03-00:46:37]
8. Trivia 承: Love [00:46:55-00:50:50]
9. Boy With Luv [00:51:32-00:55:22]
10. Dope [00:57:55-01:00:28]
11. Silver Spoon [01:00:29-01:02:25]
12. Fire [01:02:26 – 01:04:44]
13. IDOL [01:05:00-01:10:00]
14. Intro: Singularity [01:14:04 -01:17:44]
15. Fake Love [01:18:08 – 01:22:05]
16. Trivia 轉: Seesaw [01:25:05 – 01:29:39]
17. Epiphany [01:30:05-01:35:35]
18. The Truth Untold [01:35:37-01:39:39]
19. Outro: Tear [01:39:44-01:44:24]
20. Mic Drop [01:44:49-01:49:11]
21. Anpanman [01:59:52-02:03:48]
22. So What [02:03:54-02:08:33]
23. Make It Right [02:09:32-02:13:16]
24. Mikrokosmos [02:29:33-02:33:29]

Отчёт MediaInfo / BDInfo

Общее
Идентификатор                            : 1 (0x1)
Полное имя                               : G:\Записи\BTS @ Wembley -  1 June 2019.ts
Формат                                   : MPEG-TS
Размер файла                             : 34,6 Гбайт
Продолжительность                        : 2 ч. 43 м.
Режим общего битрейта                    : Переменный
Общий поток                              : 30,4 Мбит/сек
Видео
Идентификатор                            : 308 (0x134)
Идентификатор меню                       : 1 (0x1)
Формат                                   : AVC
Формат/Информация                        : Advanced Video Codec
Профиль формата                          : High@L4.1
Настройки формата                        : CABAC / 4 Ref Frames
Параметр CABAC формата                   : Да
Параметр RefFrames формата               : 4 кадра
Идентификатор кодека                     : 27
Продолжительность                        : 2 ч. 43 м.
Битрейт                                  : 28,5 Мбит/сек
Ширина                                   : 1920 пикселей
Высота                                   : 1080 пикселей
Соотношение сторон                       : 16:9
Частота кадров                           : 29,970 (30000/1001) кадров/сек
Стандарт вещания                         : Component
Цветовое пространство                    : YUV
Субдискретизация насыщенности            : 4:2:0
Битовая глубина                          : 8 бит
Тип развёртки                            : MBAFF
Метод сохранения типа развёртки          : Чередующиеся поля
Порядок развёртки                        : Верхнее поле первое
Бит/(Пиксели*Кадры)                      : 0.459
Размер потока                            : 32,5 Гбайт (94%)
Цветовой диапазон                        : Limited
Основные цвета                           : BT.709
Характеристики трансфера                 : BT.709
Коэффициенты матрицы                     : BT.709
Аудио
Идентификатор                            : 256 (0x100)
Идентификатор меню                       : 1 (0x1)
Формат                                   : MPEG Audio
Версия формата                           : Version 1
Профиль формата                          : Layer 2
Идентификатор кодека                     : 3
Продолжительность                        : 2 ч. 43 м.
Вид битрейта                             : Постоянный
Битрейт                                  : 384 Кбит/сек
Каналы                                   : 2 канала
Частота                                  : 48,0 КГц
Частота кадров                           : 41,667 кадра/сек (1152 SPF)
Метод сжатия                             : С потерями
Размер потока                            : 448 Мбайт (1%)
Язык                                     : English


Скриншоты






                                                                                       
                       
                       
                       
                       
                       
                                磁力下载:(论坛代下载服务)
                                                               
                                       
游客,本主题需向作者支付 7音乐币 才能浏览,金币充值, 免回复、免金币,直接查看内容请开通VIP支付

                                               
  • 34.64 GB
  • 温馨提示

    记得善用社区搜索功能,那里可能会有你想要的资源;论坛站内搜索

    如果你有什么需要的资源可以去资源求档发帖,求助社区的网友,我们会在第一时间给你回复哦;资源求档

    对于本社区网盘链接失效密码错误各种报错请在反馈板块反馈报错发帖,您的支持,是我们发展的最大动力;投诉建议

    回复

    使用道具 举报

    您需要登录后才可以回帖 登录 | 立即注册 微信登录

    本版积分规则

    关注0

    粉丝0

    帖子30073

    发布主题
    阅读排行更多+
    关闭

    站长推荐上一条 /1 下一条

    收藏帖子 返回列表 这是一个自定义按钮
    音乐分享,音乐下载。
    微信公众号
    微信号:hires_
    意见反馈:admin@maomicd.com

    加入我们的官方QQ群和微信群

    Powered by Discuz! X3.4 Archiver|手机版|小黑屋|捌零音乐论坛 ( 苏ICP备20015413号 )|( 苏公网安备 32030502000272号) 繁體

    GMT+8, 2021-5-9 06:57