自购原抓音乐圈:只有自购、合购、原抓级高解析(hires、sacd、dsd)正版音乐资源分享!【点我打开
极速无线网卡:千兆无线网卡、服务器网卡、USB接口台式机笔记本网卡 硬盘代考无损音乐!【点我打开
广告

[日韩音乐] [MV](g)I-DLE - 音乐剪辑(更新)[2018-2020,KPOP,HDTV,HD 1080p]

[复制链接]
全球搬运 发表于 2021-4-13 15:37:51 | 显示全部楼层 |阅读模式 打印 上一主题 下一主题
(G)I-DLE — музыкальные клипы

Жанр: KPop | Релизы: 2018, 2019, 2020
Обновлено 22 августа
О группе
(G)I-DLE ((여자)아이들) - женская группа из шести человек компании Cube Entertainment. Они дебютировали 2 мая 2018 с мини-альбомом I Am.
Лидер группы Соён рассказала о том, что она придумала название "Idle" (아이들) во время создания песни "Idle Song".
Затем оно было отправлено на рассмотрение компанией, где было доработано. Однако, название получило смешанную критику в Южной Корее
и на международном уровне, так как "아이들" означает "дети", а "idle" в английском может значить того, кто уклоняется от работы.
Группу переименовали в (G)I-DLE, где "(G)" Girl, "I" символизировала индивидуальность, "‐" делила название на две части,
а "DLE" как множественное число "I" на корейском, обозначало шесть личностей, составляющих группу.
В логотипе мы видим первую I и 들(DLE), уложенный на бок.


Больше информации: https://kpop.fandom.com/wiki/(G)I-DLE
https://kpop.fandom.com/ru/wiki/(G)I-DLE

(G)I-DLE - DUMDi DUMDi [Bugs! 1080p] | Новинка!
Продолжительность: 00:05:12 | Релиз: 2020.07.29
Качество: HD 1080p | Контейнер: MP4
Видео: AVC, 1920x1080 (16:9), 29.2 Мбит/с, 23.976 кадра/с
Аудио: AAC, 317 Кбит/с, 48.0 КГц, 2 канала





Отчёт MediaInfo
Общее
Полное имя : G:\K-Pop\Bugs!\(G)I-DLE\(G)I-DLE - DUMDi DUMDi [Bugs! 1080p].mp4
Формат : MPEG-4
Профиль формата : Base Media / Version 2
Идентификатор кодека : mp42 (mp42/mp41)
Размер файла : 1,08 Гбайт
Продолжительность : 5 м. 12 с.
Режим общего битрейта : Переменный
Общий поток : 29,5 Мбит/сек
Дата кодирования : UTC 2020-08-02 12:03:11
Дата пометки : UTC 2020-08-02 12:07:25
©TIM : 00:00:00:00
©TSC : 24000
©TSZ : 1001
Видео
Идентификатор : 1
Формат : AVC
Формат/Информация : Advanced Video Codec
Профиль формата : Main@L4.1
Параметр CABAC формата : Да
Параметр RefFrames формата : 4 кадра
Идентификатор кодека : avc1
Идентификатор кодека/Информация : Advanced Video Coding
Продолжительность : 5 м. 12 с.
Битрейт : 29,2 Мбит/сек
Ширина : 1920 пикселей
Высота : 1080 пикселей
Соотношение сторон : 16:9
Режим частоты кадров : Постоянный
Частота кадров : 23,976 (24000/1001) кадра/сек
Цветовое пространство : YUV
Субдискретизация насыщенности : 4:2:0
Битовая глубина : 8 бит
Тип развёртки : Прогрессивная
Бит/(Пиксели*Кадры) : 0.587
Размер потока : 1,06 Гбайт (99%)
Язык : English
Дата кодирования : UTC 2020-08-02 12:03:11
Дата пометки : UTC 2020-08-02 12:03:11
Цветовой диапазон : Limited
Основные цвета : BT.709
Характеристики трансфера : BT.709
Коэффициенты матрицы : BT.709
Аудио
Идентификатор : 2
Формат : AAC
Формат/Информация : Advanced Audio Codec
Профиль формата : LC
Идентификатор кодека : 40
Продолжительность : 5 м. 12 с.
Продолжительность оригинала : 5 м. 12 с.
Вид битрейта : Переменный
Битрейт : 317 Кбит/сек
Максимальный битрейт : 423 Кбит/сек
Каналы : 2 канала
Расположение каналов : Front: L R
Частота : 48,0 КГц
Частота кадров : 46,875 кадров/сек (1024 SPF)
Метод сжатия : С потерями
Размер потока : 11,8 Мбайт (1%)
Размер потока оригинала : 11,8 Мбайт (1%)
Язык : English
Дата кодирования : UTC 2020-08-02 12:03:11
Дата пометки : UTC 2020-08-02 12:03:11


(G)I-DLE - HANN (Alone) [Bugs! 1080p]
Продолжительность: 00:03:44 | Релиз: 2018.08.13
Качество: HD 1080p | Контейнер: MP4
Видео: AVC, 1920x1080 (16:9), 29.4 Мбит/с, 23.976 кадра/с
Аудио: AAC, 317 Кбит/с, 48.0 КГц, 2 канала




Отчёт MediaInfo
Общее
Полное имя : G:\K-Pop\Bugs!\(G)I-DLE\(G)I-DLE - HANN (Alone) [Bugs! 1080p].mp4
Формат : MPEG-4
Профиль формата : Base Media
Идентификатор кодека : isom (isom/iso2/avc1/mp41)
Размер файла : 794 Мбайт
Продолжительность : 3 м. 44 с.
Общий поток : 29,7 Мбит/сек
Программа кодирования : Lavf56.32.100
Видео
Идентификатор : 1
Формат : AVC
Формат/Информация : Advanced Video Codec
Профиль формата : Main@L4.1
Параметр CABAC формата : Да
Параметр RefFrames формата : 4 кадра
Параметр GOP формата : M=4, N=23
Идентификатор кодека : avc1
Идентификатор кодека/Информация : Advanced Video Coding
Продолжительность : 3 м. 44 с.
Битрейт : 29,4 Мбит/сек
Ширина : 1920 пикселей
Высота : 1080 пикселей
Соотношение сторон : 16:9
Режим частоты кадров : Переменный
Частота кадров : 23,976 (24000/1001) кадра/сек
Минимальная частота кадров : 12,057 кадров/сек
Максимальная частота кадров : 16000,000 кадров/сек
Стандарт вещания : NTSC
Цветовое пространство : YUV
Субдискретизация насыщенности : 4:2:0
Битовая глубина : 8 бит
Тип развёртки : Прогрессивная
Бит/(Пиксели*Кадры) : 0.592
Размер потока : 786 Мбайт (99%)
Язык : English
Цветовой диапазон : Limited
Основные цвета : BT.709
Характеристики трансфера : BT.709
Коэффициенты матрицы : BT.709
Аудио
Идентификатор : 2
Формат : AAC
Формат/Информация : Advanced Audio Codec
Профиль формата : LC
Идентификатор кодека : 40
Продолжительность : 3 м. 44 с.
Вид битрейта : Постоянный
Битрейт : 317 Кбит/сек
Каналы : 2 канала
Расположение каналов : Front: L R
Частота : 48,0 КГц
Частота кадров : 46,875 кадров/сек (1024 SPF)
Метод сжатия : С потерями
Размер потока : 8,48 Мбайт (1%)
Язык : English
Default : Да
AlternateGroup/String : 1


(G)I-DLE - Help Me [Bugs! 1080p]
Продолжительность: 00:03:57 | Релиз: 2019.04.10
Качество: HD 1080p | Контейнер: MP4
Видео: AVC, 1920x1080 (16:9), 24.9 Мбит/с, 29.97 кадра/с
Аудио: AAC, 318 Кбит/с, 44.1 КГц, 2 канала




Отчёт MediaInfo
Общее
Полное имя : G:\K-Pop\Bugs!\(G)I-DLE\(G)I-DLE - Help Me [Bugs! 1080p].mp4
Формат : MPEG-4
Профиль формата : Base Media / Version 2
Идентификатор кодека : mp42 (mp42/mp41)
Размер файла : 716 Мбайт
Продолжительность : 3 м. 57 с.
Режим общего битрейта : Переменный
Общий поток : 25,3 Мбит/сек
Дата кодирования : UTC 2019-04-11 02:24:37
Дата пометки : UTC 2019-04-11 02:24:47
©TIM : 00;00;00;00
©TSC : 30000
©TSZ : 1001
Видео
Идентификатор : 1
Формат : AVC
Формат/Информация : Advanced Video Codec
Профиль формата : Main@L4.1
Параметр CABAC формата : Да
Параметр RefFrames формата : 4 кадра
Идентификатор кодека : avc1
Идентификатор кодека/Информация : Advanced Video Coding
Продолжительность : 3 м. 57 с.
Битрейт : 24,9 Мбит/сек
Ширина : 1920 пикселей
Высота : 1080 пикселей
Соотношение сторон : 16:9
Режим частоты кадров : Постоянный
Частота кадров : 29,970 (30000/1001) кадров/сек
Цветовое пространство : YUV
Субдискретизация насыщенности : 4:2:0
Битовая глубина : 8 бит
Тип развёртки : Прогрессивная
Бит/(Пиксели*Кадры) : 0.400
Размер потока : 704 Мбайт (98%)
Язык : English
Дата кодирования : UTC 2019-04-11 02:24:37
Дата пометки : UTC 2019-04-11 02:24:37
Цветовой диапазон : Limited
Основные цвета : BT.709
Характеристики трансфера : BT.709
Коэффициенты матрицы : BT.709
Аудио
Идентификатор : 2
Формат : AAC
Формат/Информация : Advanced Audio Codec
Профиль формата : LC
Идентификатор кодека : 40
Продолжительность : 3 м. 57 с.
Продолжительность оригинала : 3 м. 57 с.
Вид битрейта : Переменный
Битрейт : 318 Кбит/сек
Максимальный битрейт : 389 Кбит/сек
Каналы : 2 канала
Расположение каналов : Front: L R
Частота : 44,1 КГц
Частота кадров : 43,066 кадра/сек (1024 SPF)
Метод сжатия : С потерями
Размер потока : 8,99 Мбайт (1%)
Размер потока оригинала : 8,99 Мбайт (1%)
Язык : English
Дата кодирования : UTC 2019-04-11 02:24:37
Дата пометки : UTC 2019-04-11 02:24:37


(G)I-DLE - i'M The Trend [Bugs! 1080p]
Продолжительность: 00:03:26 | Релиз: 2020.07.07
Качество: HD 1080p | Контейнер: MP4
Видео: AVC, 1920x1080 (16:9), 20.1 Мбит/с, 29.97 кадра/с
Аудио: AAC, 128 Кбит/с, 48.0 КГц, 2 канала




Отчёт MediaInfo
Общее
Полное имя : G:\K-Pop\Bugs!\(G)I-DLE\(G)I-DLE - i'M The Trend [Bugs! 1080p].mp4
Формат : MPEG-4
Профиль формата : Base Media / Version 2
Идентификатор кодека : mp42 (isom/mp41/mp42)
Размер файла : 498 Мбайт
Продолжительность : 3 м. 26 с.
Режим общего битрейта : Переменный
Общий поток : 20,2 Мбит/сек
Название фильма : 뮤비최종디아이용
Movie_More : This video is about 뮤비최종디아이용
Исполнитель : Kimsoohan
Ключевые слова : 29,Energetic Opener,VHS Opener,Timeline 1 (Re / olve),03 - view-master,hd-burns,07 - transitions,16mm film grain,video frames,hd-flashes,액션캠,mv_source_cam,ci / ᆷ코더,액션캠2,오즈모,videohive-a2gdq5ml-film-transitions,hd-flash,lens_site,02 - 16mm,classic light hits 2k,frames,04 - kodak-portra,vintage aspec
Дата кодирования : UTC 2020-07-07 07:28:58
Дата пометки : UTC 2020-07-07 07:47:24
thmb : яШяа
Видео
Идентификатор : 2
Формат : AVC
Формат/Информация : Advanced Video Codec
Профиль формата : High@L4
Параметр CABAC формата : Да
Параметр RefFrames формата : 2 кадра
Параметр GOP формата : M=1, N=30
Идентификатор кодека : avc1
Идентификатор кодека/Информация : Advanced Video Coding
Продолжительность : 3 м. 26 с.
Вид битрейта : Переменный
Битрейт : 20,1 Мбит/сек
Максимальный битрейт : 768 Кбит/сек
Ширина : 1920 пикселей
Высота : 1080 пикселей
Соотношение сторон : 16:9
Режим частоты кадров : Постоянный
Частота кадров : 29,970 (30000/1001) кадров/сек
Цветовое пространство : YUV
Субдискретизация насыщенности : 4:2:0
Битовая глубина : 8 бит
Тип развёртки : Прогрессивная
Бит/(Пиксели*Кадры) : 0.323
Размер потока : 494 Мбайт (99%)
Заголовок : Core Media Video
Дата кодирования : UTC 2020-07-07 07:28:58
Дата пометки : UTC 2020-07-07 07:47:24
Цветовой диапазон : Limited
Основные цвета : BT.709
Характеристики трансфера : BT.709
Коэффициенты матрицы : BT.709
Аудио
Идентификатор : 1
Формат : AAC
Формат/Информация : Advanced Audio Codec
Профиль формата : LC
Идентификатор кодека : 40
Продолжительность : 3 м. 26 с.
Продолжительность оригинала : 3 м. 26 с.
Вид битрейта : Постоянный
Битрейт : 128 Кбит/сек
Каналы : 2 канала
Расположение каналов : Front: L R
Частота : 48,0 КГц
Частота кадров : 46,875 кадров/сек (1024 SPF)
Метод сжатия : С потерями
Размер потока : 3,17 Мбайт (1%)
Размер потока оригинала : 3,17 Мбайт (1%)
Заголовок : Core Media Audio
Язык : Korean
Дата кодирования : UTC 2020-07-07 07:28:58
Дата пометки : UTC 2020-07-07 07:47:24


(G)I-DLE - LATATA (Japanese ver.) [HDTV 1080p]
Продолжительность: 00:03:25 | Релиз: 2019.07.11
Качество: HDTVrip 1080p | Контейнер: TS
Видео: AVC, 1920x1080 (16:9), 6.9 Мбит/с, 29.97 кадра/с
Аудио: AAC, 320 Кбит/с, 48.0 КГц, stereo




MediaInfo
Общее
Идентификатор : 16727 (0x4157)
Полное имя : G:\K-Pop\Bugs!\(G)I-DLE\(G)I-DLE - LATATA (Japanese ver.) [HDTV 1080p].ts
Формат : MPEG-TS
Размер файла : 177 Мбайт
Продолжительность : 3 м. 25 с.
Режим общего битрейта : Переменный
Общий поток : 7236 Кбит/сек
Видео
Идентификатор : 33 (0x21)
Идентификатор меню : 16727 (0x4157)
Формат : AVC
Формат/Информация : Advanced Video Codec
Профиль формата : High@L4
Параметр CABAC формата : Да
Параметр RefFrames формата : 4 кадра
Идентификатор кодека : 27
Продолжительность : 3 м. 25 с.
Максимальный битрейт : 6721 Кбит/сек
Ширина : 1920 пикселей
Высота : 1080 пикселей
Соотношение сторон : 16:9
Режим частоты кадров : Переменный
Цветовое пространство : YUV
Субдискретизация насыщенности : 4:2:0
Битовая глубина : 8 бит
Тип развёртки : Прогрессивная
Библиотека кодирования : x264 core 157
Настройки программы : cabac=1 / ref=4 / deblock=1:0:0 / analyse=0x3:0x113 / me=hex / subme=8 / psy=1 / psy_rd=1.00:0.00 / mixed_ref=1 / me_range=16 / chroma_me=1 / trellis=2 / 8x8dct=1 / cqm=0 / deadzone=21,11 / fast_pskip=1 / chroma_qp_offset=-2 / threads=24 / lookahead_threads=4 / sliced_threads=0 / nr=0 / decimate=1 / interlaced=0 / bluray_compat=0 / constrained_intra=0 / bframes=3 / b_pyramid=2 / b_adapt=1 / b_bias=0 / direct=3 / weightb=1 / open_gop=0 / weightp=2 / keyint=72 / keyint_min=37 / scenecut=0 / intra_refresh=0 / rc_lookahead=50 / rc=crf / mbtree=1 / crf=20.0 / qcomp=0.60 / qpmin=0 / qpmax=69 / qpstep=4 / vbv_maxrate=8800 / vbv_bufsize=12000 / crf_max=0.0 / nal_hrd=none / filler=0 / ip_ratio=1.40 / aq=1:1.00
Аудио
Идентификатор : 34 (0x22)
Идентификатор меню : 16727 (0x4157)
Формат : AAC
Формат/Информация : Advanced Audio Codec
Версия формата : Version 4
Профиль формата : LC
Режим смешивания : ADTS
Идентификатор кодека : 15
Продолжительность : 3 м. 25 с.
Вид битрейта : Переменный
Максимальный битрейт : 320 Кбит/сек
Каналы : 2 канала
Расположение каналов : Front: L R
Частота : 48,0 КГц
Частота кадров : 46,875 кадров/сек (1024 SPF)
Метод сжатия : С потерями
Задержка видео : -83 мс.


(G)I-DLE - LATATA [Bugs! 1080p]
Продолжительность: 00:03:41 | Релиз: 2018.04.30
Качество: HD 1080p | Контейнер: MP4
Видео: AVC, 1920x1080 (16:9), 31.2 Мбит/с, 23.976 кадра/с
Аудио: AAC, 317 Кбит/с, 48.0 КГц, 2 канала




Отчёт MediaInfo
Общее
Полное имя : G:\K-Pop\Bugs!\(G)I-DLE\(G)I-DLE - LATATA [Bugs! 1080p].mp4
Формат : MPEG-4
Профиль формата : Base Media / Version 2
Идентификатор кодека : mp42 (mp42/mp41)
Размер файла : 834 Мбайт
Продолжительность : 3 м. 41 с.
Режим общего битрейта : Переменный
Общий поток : 31,5 Мбит/сек
Дата кодирования : UTC 2018-05-01 23:28:51
Дата пометки : UTC 2018-05-01 23:29:08
©TIM : 00:00:00:00
©TSC : 24000
©TSZ : 1001
Видео
Идентификатор : 1
Формат : AVC
Формат/Информация : Advanced Video Codec
Профиль формата : Main@L4.2
Параметр CABAC формата : Да
Параметр RefFrames формата : 4 кадра
Идентификатор кодека : avc1
Идентификатор кодека/Информация : Advanced Video Coding
Продолжительность : 3 м. 41 с.
Битрейт : 31,2 Мбит/сек
Ширина : 1920 пикселей
Высота : 1080 пикселей
Соотношение сторон : 16:9
Режим частоты кадров : Постоянный
Частота кадров : 23,976 (24000/1001) кадра/сек
Стандарт вещания : NTSC
Цветовое пространство : YUV
Субдискретизация насыщенности : 4:2:0
Битовая глубина : 8 бит
Тип развёртки : Прогрессивная
Бит/(Пиксели*Кадры) : 0.628
Размер потока : 825 Мбайт (99%)
Язык : English
Дата кодирования : UTC 2018-05-01 23:28:51
Дата пометки : UTC 2018-05-01 23:28:51
Цветовой диапазон : Limited
Основные цвета : BT.709
Характеристики трансфера : BT.709
Коэффициенты матрицы : BT.709
Аудио
Идентификатор : 2
Формат : AAC
Формат/Информация : Advanced Audio Codec
Профиль формата : LC
Идентификатор кодека : 40
Продолжительность : 3 м. 41 с.
Продолжительность оригинала : 3 м. 41 с.
Вид битрейта : Переменный
Битрейт : 317 Кбит/сек
Максимальный битрейт : 465 Кбит/сек
Каналы : 2 канала
Расположение каналов : Front: L R
Частота : 48,0 КГц
Частота кадров : 46,875 кадров/сек (1024 SPF)
Метод сжатия : С потерями
Размер потока : 8,39 Мбайт (1%)
Размер потока оригинала : 8,39 Мбайт (1%)
Язык : English
Дата кодирования : UTC 2018-05-01 23:28:51
Дата пометки : UTC 2018-05-01 23:28:51


(G)I-DLE - LION [HD 1080p]
Продолжительность: 00:03:37 | Релиз: 2019.11.01
Качество: HD 1080p | Контейнер: MP4
Видео: AVC, 1920x1080 (16:9), 42.5 Мбит/с, 23.976 кадра/с
Аудио: AAC, 253 Кбит/с, 48.0 КГц, 2 канала




Отчёт MediaInfo
Общее
Полное имя : G:\K-Pop\Bugs!\(G)I-DLE\(G)I-DLE - LION [HD 1080p].mp4
Формат : MPEG-4
Профиль формата : Base Media
Идентификатор кодека : isom (isom/iso2/avc1/mp41)
Размер файла : 1,08 Гбайт
Продолжительность : 3 м. 37 с.
Режим общего битрейта : Переменный
Общий поток : 42,7 Мбит/сек
Программа кодирования : Lavf55.12.100
Видео
Идентификатор : 2
Формат : AVC
Формат/Информация : Advanced Video Codec
Профиль формата : Main@L5
Параметр CABAC формата : Да
Параметр RefFrames формата : 5 кадров
Параметр GOP формата : M=1, N=25
Идентификатор кодека : avc1
Идентификатор кодека/Информация : Advanced Video Coding
Продолжительность : 3 м. 37 с.
Битрейт : 42,5 Мбит/сек
Ширина : 1920 пикселей
Высота : 1080 пикселей
Соотношение сторон : 16:9
Режим частоты кадров : Переменный
Частота кадров : 23,976 кадра/сек
Минимальная частота кадров : 23,786 кадра/сек
Максимальная частота кадров : 24,415 кадра/сек
Цветовое пространство : YUV
Субдискретизация насыщенности : 4:2:0
Битовая глубина : 8 бит
Тип развёртки : Прогрессивная
Бит/(Пиксели*Кадры) : 0.854
Размер потока : 1,08 Гбайт (99%)
Аудио
Идентификатор : 1
Формат : AAC
Формат/Информация : Advanced Audio Codec
Профиль формата : LC
Идентификатор кодека : 40
Продолжительность : 3 м. 37 с.
Вид битрейта : Переменный
Битрейт : 253 Кбит/сек
Максимальный битрейт : 256 Кбит/сек
Каналы : 2 канала
Расположение каналов : Front: L R
Частота : 48,0 КГц
Частота кадров : 46,875 кадров/сек (1024 SPF)
Метод сжатия : С потерями
Размер потока : 6,58 Мбайт (1%)
Язык : Korean
Default : Да
AlternateGroup/String : 1


(G)I-DLE - Oh my god (Special Choreography Video) [Naver 1080p]
Продолжительность: 00:03:27 | Релиз: 2020.04.20
Качество: HD 1080p | Контейнер: MP4
Видео: AVC, 1920x1080 (16:9), 4150 Кбит/с, 23.976 кадра/с
Аудио: AAC, 192 Кбит/с, 48.0 КГц, 2 канала




Отчёт MediaInfo
Общее
Полное имя : G:\K-Pop\Bugs!\(G)I-DLE\(G)I-DLE - Oh my god (Special Choreography Video) [Naver 1080p].mp4
Формат : MPEG-4
Профиль формата : Base Media
Идентификатор кодека : isom (isom/iso2/avc1/mp41)
Размер файла : 108 Мбайт
Продолжительность : 3 м. 27 с.
Общий поток : 4345 Кбит/сек
Программа кодирования : Lavf58.12.100
exvr : EX1.6.0(C1.0.9)
Видео
Идентификатор : 1
Формат : AVC
Формат/Информация : Advanced Video Codec
Профиль формата : High@L4
Параметр CABAC формата : Да
Параметр RefFrames формата : 3 кадра
Идентификатор кодека : avc1
Идентификатор кодека/Информация : Advanced Video Coding
Продолжительность : 3 м. 27 с.
Битрейт : 4150 Кбит/сек
Ширина : 1920 пикселей
Высота : 1080 пикселей
Соотношение сторон : 16:9
Режим частоты кадров : Постоянный
Частота кадров : 23,976 (23976/1000) кадра/сек
Цветовое пространство : YUV
Субдискретизация насыщенности : 4:2:0
Битовая глубина : 8 бит
Тип развёртки : Прогрессивная
Бит/(Пиксели*Кадры) : 0.083
Размер потока : 103 Мбайт (95%)
Цветовой диапазон : Limited
Основные цвета : BT.709
Характеристики трансфера : BT.709
Коэффициенты матрицы : BT.709
Аудио
Идентификатор : 2
Формат : AAC
Формат/Информация : Advanced Audio Codec
Профиль формата : LC
Идентификатор кодека : 40
Продолжительность : 3 м. 27 с.
Вид битрейта : Постоянный
Битрейт : 192 Кбит/сек
Каналы : 2 канала
Расположение каналов : Front: L R
Частота : 48,0 КГц
Частота кадров : 46,875 кадров/сек (1024 SPF)
Метод сжатия : С потерями
Размер потока : 4,75 Мбайт (4%)
Default : Да
AlternateGroup/String : 1


(G)I-DLE – Oh my god [Bugs! 1080p]
Продолжительность: 00:03:20 | Релиз: 2020.03.31
Качество: HD 1080p | Контейнер: MP4
Видео: AVC, 1920x1080 (16:9), 24.9 Мбит/с, 23.976 кадра/с
Аудио: AAC, 317 Кбит/с, 48.0 КГц, 2 канала




Отчёт MediaInfo
Общее
Полное имя : G:\K-Pop\Bugs!\(G)I-DLE\(G)I-DLE – Oh my god [Bugs! 1080p].mp4
Формат : MPEG-4
Профиль формата : Base Media / Version 2
Идентификатор кодека : mp42 (mp42/mp41)
Размер файла : 605 Мбайт
Продолжительность : 3 м. 20 с.
Режим общего битрейта : Переменный
Общий поток : 25,3 Мбит/сек
Дата кодирования : UTC 2020-04-03 04:12:34
Дата пометки : UTC 2020-04-03 04:14:34
©TIM : 00:00:00:00
©TSC : 24000
©TSZ : 1001
Видео
Идентификатор : 1
Формат : AVC
Формат/Информация : Advanced Video Codec
Профиль формата : Main@L4.1
Параметр CABAC формата : Да
Параметр RefFrames формата : 2 кадра
Параметр GOP формата : M=2, N=47
Идентификатор кодека : avc1
Идентификатор кодека/Информация : Advanced Video Coding
Продолжительность : 3 м. 20 с.
Вид битрейта : Переменный
Битрейт : 24,9 Мбит/сек
Максимальный битрейт : 768 Кбит/сек
Ширина : 1920 пикселей
Высота : 1080 пикселей
Соотношение сторон : 16:9
Режим частоты кадров : Постоянный
Частота кадров : 23,976 (24000/1001) кадра/сек
Цветовое пространство : YUV
Субдискретизация насыщенности : 4:2:0
Битовая глубина : 8 бит
Тип развёртки : Прогрессивная
Бит/(Пиксели*Кадры) : 0.501
Размер потока : 595 Мбайт (98%)
Язык : English
Дата кодирования : UTC 2020-04-03 04:12:34
Дата пометки : UTC 2020-04-03 04:12:34
Цветовой диапазон : Limited
Основные цвета : BT.709
Характеристики трансфера : BT.709
Коэффициенты матрицы : BT.709
Аудио
Идентификатор : 2
Формат : AAC
Формат/Информация : Advanced Audio Codec
Профиль формата : LC
Идентификатор кодека : 40
Продолжительность : 3 м. 20 с.
Продолжительность оригинала : 3 м. 20 с.
Вид битрейта : Переменный
Битрейт : 317 Кбит/сек
Максимальный битрейт : 463 Кбит/сек
Каналы : 2 канала
Расположение каналов : Front: L R
Частота : 48,0 КГц
Частота кадров : 46,875 кадров/сек (1024 SPF)
Метод сжатия : С потерями
Размер потока : 7,57 Мбайт (1%)
Размер потока оригинала : 7,58 Мбайт (1%)
Язык : English
Дата кодирования : UTC 2020-04-03 04:12:35
Дата пометки : UTC 2020-04-03 04:12:35


(G)I-DLE - Say No (Nightmare Ver.) (Halloween Ver. Choreography Video) [Naver 1080p]
Продолжительность: 00:03:45 | Релиз: 2019.10.29
Качество: HD 1080p | Контейнер: MP4
Видео: AVC, 1920x1080 (16:9), 3643 Кбит/с, 23.976 кадра/с
Аудио: AAC, 192 Кбит/с, 48.0 КГц, 2 канала




Отчёт MediaInfo
Общее
Полное имя : G:\K-Pop\Bugs!\(G)I-DLE\(G)I-DLE - Say No (Nightmare Ver.) (Halloween Ver. Choreography Video) [Naver 1080p].mp4
Формат : MPEG-4
Профиль формата : Base Media
Идентификатор кодека : isom (isom/iso2/avc1/mp41)
Размер файла : 103 Мбайт
Продолжительность : 3 м. 45 с.
Общий поток : 3838 Кбит/сек
Программа кодирования : Lavf58.12.100
exvr : EX1.6.0(C1.0.9)
Видео
Идентификатор : 1
Формат : AVC
Формат/Информация : Advanced Video Codec
Профиль формата : High@L4
Параметр CABAC формата : Да
Параметр RefFrames формата : 3 кадра
Идентификатор кодека : avc1
Идентификатор кодека/Информация : Advanced Video Coding
Продолжительность : 3 м. 45 с.
Битрейт : 3643 Кбит/сек
Ширина : 1920 пикселей
Высота : 1080 пикселей
Соотношение сторон : 16:9
Режим частоты кадров : Постоянный
Частота кадров : 23,976 (23976/1000) кадра/сек
Цветовое пространство : YUV
Субдискретизация насыщенности : 4:2:0
Битовая глубина : 8 бит
Тип развёртки : Прогрессивная
Бит/(Пиксели*Кадры) : 0.073
Размер потока : 98,1 Мбайт (95%)
Цветовой диапазон : Limited
Основные цвета : BT.709
Характеристики трансфера : BT.709
Коэффициенты матрицы : BT.709
Аудио
Идентификатор : 2
Формат : AAC
Формат/Информация : Advanced Audio Codec
Профиль формата : LC
Идентификатор кодека : 40
Продолжительность : 3 м. 45 с.
Вид битрейта : Постоянный
Битрейт : 192 Кбит/сек
Каналы : 2 канала
Расположение каналов : Front: L R
Частота : 48,0 КГц
Частота кадров : 46,875 кадров/сек (1024 SPF)
Метод сжатия : С потерями
Размер потока : 5,17 Мбайт (5%)
Default : Да
AlternateGroup/String : 1


(G)I-DLE - Senorita [Bugs! 1080p]
Продолжительность: 00:03:43 | Релиз: 2019.02.25
Качество: HD 1080p | Контейнер: MP4
Видео: AVC, 1920x1080 (16:9), 31,2 Мбит/с, 23.976 кадра/с
Аудио: AAC, 317 Кбит/с, 48.0 КГц, 2 канала




Отчёт MediaInfo
Общее
Полное имя : G:\K-Pop\Bugs!\(G)I-DLE\(G)I-DLE - Senorita [Bugs! 1080p].mp4
Формат : MPEG-4
Профиль формата : Base Media / Version 2
Идентификатор кодека : mp42 (mp42/isom)
Размер файла : 837 Мбайт
Продолжительность : 3 м. 43 с.
Режим общего битрейта : Переменный
Общий поток : 31,5 Мбит/сек
Видео
Идентификатор : 1
Формат : AVC
Формат/Информация : Advanced Video Codec
Профиль формата : High@L4
Параметр CABAC формата : Да
Параметр RefFrames формата : 4 кадра
Идентификатор кодека : avc1
Идентификатор кодека/Информация : Advanced Video Coding
Продолжительность : 3 м. 43 с.
Продолжительность оригинала : 3 м. 42 с.
Битрейт : 31,2 Мбит/сек
Ширина : 1920 пикселей
Высота : 1080 пикселей
Соотношение сторон : 16:9
Режим частоты кадров : Переменный
Частота кадров : 23,976 кадра/сек
Минимальная частота кадров : 23,810 кадра/сек
Максимальная частота кадров : 24,390 кадра/сек
Цветовое пространство : YUV
Субдискретизация насыщенности : 4:2:0
Битовая глубина : 8 бит
Тип развёртки : Прогрессивная
Бит/(Пиксели*Кадры) : 0.627
Размер потока : 829 Мбайт (99%)
Размер потока оригинала : 829 Мбайт (99%)
Библиотека кодирования : x264 core 148 r2748 97eaef2
Настройки программы : cabac=1 / ref=3 / deblock=1:0:0 / analyse=0x3:0x113 / me=hex / subme=7 / psy=1 / psy_rd=1.00:0.00 / mixed_ref=1 / me_range=16 / chroma_me=1 / trellis=1 / 8x8dct=1 / cqm=0 / deadzone=21,11 / fast_pskip=1 / chroma_qp_offset=-2 / threads=6 / lookahead_threads=1 / sliced_threads=0 / nr=0 / decimate=1 / interlaced=0 / bluray_compat=0 / constrained_intra=0 / bframes=3 / b_pyramid=2 / b_adapt=1 / b_bias=0 / direct=1 / weightb=1 / open_gop=0 / weightp=2 / keyint=250 / keyint_min=23 / scenecut=40 / intra_refresh=0 / rc_lookahead=40 / rc=crf / mbtree=1 / crf=12.0 / qcomp=0.60 / qpmin=0 / qpmax=69 / qpstep=4 / ip_ratio=1.40 / aq=1:1.00
Язык : English
mdhd_Duration : 223015
Аудио
Идентификатор : 2
Формат : AAC
Формат/Информация : Advanced Audio Codec
Профиль формата : LC
Идентификатор кодека : 40
Продолжительность : 3 м. 42 с.
Вид битрейта : Переменный
Битрейт : 317 Кбит/сек
Каналы : 2 канала
Расположение каналов : Front: L R
Частота : 48,0 КГц
Частота кадров : 46,875 кадров/сек (1024 SPF)
Метод сжатия : С потерями
Размер потока : 8,44 Мбайт (1%)
Язык : English


(G)I-DLE - Uh-Oh [Bugs! 1080p]
Продолжительность: 00:03:30 | Релиз: 2019.06.25
Качество: HD 1080p | Контейнер: MP4
Видео: AVC, 1920x1080 (16:9), 25.8 Мбит/с, 29.97 кадра/с
Аудио: AAC, 317 Кбит/с, 48.0 КГц, 2 канала




Отчёт MediaInfo
Общее
Полное имя : G:\K-Pop\Bugs!\(G)I-DLE\(G)I-DLE - Uh-Oh [Bugs! 1080p].mp4
Формат : MPEG-4
Профиль формата : Base Media / Version 2
Идентификатор кодека : mp42 (mp42/isom)
Размер файла : 656 Мбайт
Продолжительность : 3 м. 30 с.
Режим общего битрейта : Переменный
Общий поток : 26,1 Мбит/сек
Видео
Идентификатор : 1
Формат : AVC
Формат/Информация : Advanced Video Codec
Профиль формата : High@L4
Параметр CABAC формата : Да
Параметр RefFrames формата : 4 кадра
Идентификатор кодека : avc1
Идентификатор кодека/Информация : Advanced Video Coding
Продолжительность : 3 м. 30 с.
Битрейт : 25,8 Мбит/сек
Ширина : 1920 пикселей
Высота : 1080 пикселей
Соотношение сторон : 16:9
Режим частоты кадров : Переменный
Частота кадров : 29,970 кадров/сек
Минимальная частота кадров : 29,393 кадров/сек
Максимальная частота кадров : 30,303 кадров/сек
Цветовое пространство : YUV
Субдискретизация насыщенности : 4:2:0
Битовая глубина : 8 бит
Тип развёртки : Прогрессивная
Бит/(Пиксели*Кадры) : 0.415
Размер потока : 647 Мбайт (99%)
Библиотека кодирования : x264 core 157 r2970 5493be8
Настройки программы : cabac=1 / ref=3 / deblock=1:0:0 / analyse=0x3:0x113 / me=hex / subme=7 / psy=1 / psy_rd=1.00:0.00 / mixed_ref=1 / me_range=16 / chroma_me=1 / trellis=1 / 8x8dct=1 / cqm=0 / deadzone=21,11 / fast_pskip=1 / chroma_qp_offset=-2 / threads=12 / lookahead_threads=2 / sliced_threads=0 / nr=0 / decimate=1 / interlaced=0 / bluray_compat=0 / constrained_intra=0 / bframes=3 / b_pyramid=2 / b_adapt=1 / b_bias=0 / direct=1 / weightb=1 / open_gop=0 / weightp=2 / keyint=250 / keyint_min=25 / scenecut=40 / intra_refresh=0 / rc_lookahead=40 / rc=crf / mbtree=1 / crf=12.0 / qcomp=0.60 / qpmin=0 / qpmax=69 / qpstep=4 / ip_ratio=1.40 / aq=1:1.00
Язык : English
Аудио
Идентификатор : 2
Формат : AAC
Формат/Информация : Advanced Audio Codec
Профиль формата : LC
Идентификатор кодека : 40
Продолжительность : 3 м. 30 с.
Вид битрейта : Переменный
Битрейт : 317 Кбит/сек
Каналы : 2 канала
Расположение каналов : Front: L R
Частота : 48,0 КГц
Частота кадров : 46,875 кадров/сек (1024 SPF)
Метод сжатия : С потерями
Размер потока : 7,97 Мбайт (1%)
Язык : English

                                                                                       
                       
                       
                       
                       
                       
                                磁力下载:(论坛代下载服务)
                                                               
                                       
游客,本主题需向作者支付 7音乐币 才能浏览,金币充值, 免回复、免金币,直接查看内容请开通VIP支付

                                               
  • 7.36 GB
  • 温馨提示

    记得善用社区搜索功能,那里可能会有你想要的资源;论坛站内搜索

    如果你有什么需要的资源可以去资源求档发帖,求助社区的网友,我们会在第一时间给你回复哦;资源求档

    对于本社区网盘链接失效密码错误各种报错请在反馈板块反馈报错发帖,您的支持,是我们发展的最大动力;投诉建议

    回复

    使用道具 举报

    您需要登录后才可以回帖 登录 | 立即注册 微信登录

    本版积分规则

    关注0

    粉丝12

    帖子69803

    发布主题
    阅读排行更多+
    关闭

    站长推荐上一条 /1 下一条

    收藏帖子 返回列表 这是一个自定义按钮
    音乐分享,音乐下载。
    微信公众号
    微信号:hires_
    意见反馈:admin@maomicd.com

    加入我们的官方QQ群和微信群

    Powered by Discuz! X3.4 Archiver|手机版|小黑屋|捌零音乐论坛 ( 苏ICP备20015413号 )|( 苏公网安备 32030502000272号) 繁體

    GMT+8, 2021-5-9 06:41