自购原抓音乐圈:只有自购、合购、原抓级高解析(hires、sacd、dsd)正版音乐资源分享!【点我打开
极速无线网卡:千兆无线网卡、服务器网卡、USB接口台式机笔记本网卡 硬盘代考无损音乐!【点我打开
广告

[日韩音乐] Hatsune Miku - Miku No Hi Daikanshasai 2日完整盒子[2012,Vocaloid,JPOP,Blu-ray 1080i]

[复制链接]
kayda 发表于 2021-4-13 15:37:47 | 显示全部楼层 |阅读模式 打印 上一主题 下一主题
Hatsune Miku - Miku no Hi Daikanshasai 2Days Complete Box
Жанры: Vocaloid, JPop
Номер по каталогу: HSB-0222
Продолжительность: 02:14:20 + 01:59:36 + 01:33:08
Год выпуска: 2012 (концерты - 08-09.03.2012, диски - 29.08.2012)
Описание: Концерты вокалоида Hatsune Miku и её друзей за 8 и 9 марта 2012 года, а также доп. материалы.Качество: Blu-ray
Контейнер: BDMV
Формат: m2ts
Видео кодек: MPEG-4 AVC
Аудио кодек: LPCM, DTS-HD Master Audio
Видео: MPEG-4 AVC Video / 34825 kbps / 1080i / 29,970 fps / 16:9 / High Profile 4.1
Аудио: Japanese / LPCM Audio / 2.0 / 48 kHz / 2304 kbps / 24-bit
Аудио 2: Japanese / DTS-HD Master Audio / 5.1 / 48 kHz / 5298 kbps / 24-bit (DTS Core: 5.1 / 48 kHz / 1509 kbps / 24-bit)
Аудио 3: Japanese / LPCM Audio / 2.0 / 48 kHz / 1536 kbps / 16-bit (3 диск с доп. материалами)
Треклисты

Диск 1 (08.03.2012)
01 - 「Intro」 (1:06)
02 - 「星のカケラ / Hoshi no Kakera (Orgel)」 – 平沢栄司 feat. Hatsune Miku (0:34)
03 - 「星のカケラ / Hoshi no Kakera (Star Fragment)」 – 平沢栄司 feat. Hatsune Miku (0:53)
04 - 「初めての恋が終わる時 / When the First Love Ends」 – supercell feat. Hatsune Miku (5:11)
05 - 「二息步行 / Ni Iki Hokou」 – DECO*27 feat. Hatsune Miku (3:05)
06 - 「アルビノ / albino」 – buzzG feat. Hatsune Miku (3:22)
07 - 「え?あぁ、そう。 / Eh? Aa, Sou.」 – papiyon feat. Hatsune Miku (4:29)
08 - 「マージナル / Marginal」 – OSTER project feat. Hatsune Miku (2:59)
09 - 「恋色病棟 / Love Colored Ward (Koi Iro Byoutou)」 – OSTER project feat. Hatsune Miku (3:20)
10 - 「ローリンガール / Rolling Girl」 – wowaka feat. Hatsune Miku (3:20)
11 - 「私の時間 / Watachi no Jikan (My Time)」 – くちばしP feat. Hatsune Miku (4:25)
12 - 「ぽっぴっぽ / Po Pi Po」 – ラマーズP feat. Hatsune Miku (1:38)
13 - 「*ハロー、プラネット。 / *Hello, Planet.」 – sasakure.UK feat. Hatsune Miku (3:38)
14 - 「結ンデ開イテ羅刹ト骸 / Musunde Hiraite Rasetsu to Mukuro」 – ハチ feat. Hatsune Miku (4:29)
15 - 「初音ミクの激唱 / Hatsune Miku no Gekishou」 – cosMo(暴走P) feat. Hatsune Miku (3:56)
16 - 「RIP=RELEASE」 – ryuuseiP feat. Megurine Luka (3:54)
17 - 「ダブルラリアット / Double Lariat」 - アゴアニキ feat. Megurine Luka (3:35)
18 - 「ルカルカ★ナイトフィーバー / Luka Luka★Night Fever」 – samfree feat. Megurine Luka (3:34)
19 - 「メランコリック / Melancholic」 – Junky feat. Kagamine Rin (3:46)
20 - 「ココロ / Kokoro」 – トラボルタ feat. Kagamine Rin (3:39)
21 - 「いろは唄 / Iroha Uta」 – 銀サク feat. Kagamine Rin (4:29)
22 - 「悪ノ娘 / Aku no Musume」 – mothy_悪ノP feat. Kagamine Rin (3:56)
23 - 「悪ノ召使 / Aku no Meshitsukai」 – mothy_悪ノP feat. Kagamine Len & Kagamine Rin (2:49)
24 - 「Fire◎Flower」 – halyosy feat. Kagamine Len (4:36)
25 - 「Pane dhiria」 – 新城P feat. KAITO (3:06)
26 - 「白い雪のプリンセスは / Shiroi Yuki no Princess wa」 – のぼる↑ feat. Hatsune Miku (4:16)
27 - 「こっち向いて Baby / Kocchi Muite Baby」 – ryo (supercell) feat. Hatsune Miku (3:46)
28 - 「Yellow」 – livetune feat. Hatsune Miku (3:21)
29 - 「タイムマシン / Time Machine」 – 1640mP feat. Hatsune Miku (4:09)
30 - 「ARiA」 – とくP feat. Hatsune Miku (5:02)
31 - 「みくみくにしてあげる / Miku Miku ni Shite Ageru」 – Ika-P feat. Hatsune Miku (3:50)
~ENCORE~
32 - 「カラフル×メロディ / Colorful × Melody」 – ちーむMOER feat. Hatsune Miku & Kagamine Rin (4:05)
33 - 「歌に形はないけれど / Uta ni Katachi wa Nai Keredo」 – doriko feat. Hatsune Miku (5:34)
34 - 「メルト / MELT」 – supercell feat. Hatsune Miku (4:56)
35 - 「Starduster」 – ジミーサムP feat. Hatsune Miku (6:30)
Список песен © ъыь

Диск 2 (09.03.2012)
01 - 「Overture」 (2:00)
02 - 「Tell Your World」 – kz feat. Hatsune Miku (4:53)
03 - 「ゆめゆめ / Yume Yume」 – DECO*27 feat. Hatsune Miku (3:38)
04 - 「ワールドイズマイン / World is Mine」 – ryo feat. Hatsune Miku (3:02)
05 - 「えれくとりっく・えんじぇぅ / Electric Angel」 – ヤスオP feat. Hatsune Miku (3:28)
06 - 「恋スルVOC@LOID / Koisuru VOC@LOID (VOC@LOID in Love)」 – OSTER project feat. Hatsune Miku (3:27)
07 - 「クローバー♣クラブ / Clover♣Club」 – ゆうゆP feat. Hatsune Miku (3:07)
08 - 「ぽっぴっぽー / PoPiPo」 – ラマーズP feat. Hatsune Miku (3:04)
09 - 「ロミオとシンデレラ / Romeo and Cinderella」 – Doriko feat. Hatsune Miku (4:14)
10 - 「ファインダー / Finder (DSLR remix-re:edit)」 – Livetune (kz remix) feat. Hatsune Miku (3:45)
11 - 「裏表ラバーズ / Ura-Omote Lovers (Two-Faced Lovers)」 – 現実逃避P feat. Hatsune Miku (3:22)
12 - 「Band Members Introduction」 - Hatsune Miku (1:49)
13 - 「StargazeR」 –骨盤P feat. Hatsune Miku (3:30)
14 - 「Moon」 – Iroha(sasaki) / 胃痛P feat. Hatsune Miku (3:40)
15 - 「初音ミクの消失 - DEAD END- / Hatsune Miku no shōshitsu (Disappearance of Hatsune Miku)」 – cosMo feat. Hatsune Miku (2:30)
16 - 「Change Me」 – shu-tP feat. MEIKO (3:34)
17 - 「右肩の蝶 / Migikata No Chou (Butterfly On Your Shoulder)」 – Nori-P feat. Kagamine Rin & Kagamine Len (3:05)
18 - 「Just Be Friends」 – Dixie Flatline feat. Megurine Luka (3:14)
19 - 「magnet」 – 流星P feat. Hatsune Miku & Megurine Luka (3:39)
20 - 「ワールズエンド・ダンスホール / World's End Dancehall」 – 現実逃避P feat. Hatsune Miku & Megurine Luka (3:43)
21 - 「炉心融解 / Roshin Yuukai (Meltdown)」 – Sasaki(Iroha) feat. Kagamine Rin (4:09)
22 - 「孤独の果て / Kodoku no hate (The End of Solitude)」 – 光収容 feat. Kagamine Rin (3:37)
23 - 「Promise」 – samfree feat. Hatsune Miku & Kagamine Rin (2:59)
24 - 「タイムリミット / Time Limit」 – 畳P(North-T) feat. Hatsune Miku (3:15)
25 - 「パズル / Puzzle」 – クワガタP feat. Hatsune Miku (4:04)
26 - 「1/6」 – ぼーかりおどP feat. Hatsune Miku (4:24)
27 - 「SPiCa」 – とくP feat. Hatsune Miku (5:23)
~ENCORE~
28 - 「愛言葉 / Ai Kotoba (Love Words)」 – DECO*27 feat. Hatsune Miku (3:21)
29 - 「メルト / MELT」 – supercell feat. Hatsune Miku (4:38)
30 - 「ハジメテノオト / Hajimete no Oto (First Tone)」 – Malo feat. Hatsune Miku (5:19)
~DOUBLE ENCORE~
31 - 「Project Diva desu」 – うたたP feat. Hatsune Miku (3:01)
32 - 「ワールドイズマイン / World is Mine」 – supercell feat. Hatsune Miku (3:18)
Список песен © ъыь


BDInfo

Диск 1
Disc Title: DAIKANSHASAI_0308_BD
Disc Size: 47 636 027 186 bytes
Protection: AACS
BD-Java: No
BDInfo: 0.5.8
Notes:
BDINFO HOME:
Cinema Squid
http://www.cinemasquid.com/blu-ray/tools/bdinfo
INCLUDES FORUMS REPORT FOR:
AVS Forum Blu-ray Audio and Video Specifications Thread
http://www.avsforum.com/avs-vb/showthread.php?t=1155731
********************
PLAYLIST: 00000.MPLS
********************

Код:

                                                                                Total   Video
Title                                                           Codec   Length  Movie Size      Disc Size       Bitrate Bitrate Main Audio Track                          Secondary Audio Track
-----                                                           ------  ------- --------------  --------------  ------- ------- ------------------                        ---------------------
00000.MPLS                                                      AVC     2:13:53 40 062 511 104  47 636 027 186  39,90   30,00   LPCM 2.0 2304Kbps (48kHz/24-bit)          DTS-HD Master 5.1 5298Kbps (48kHz/24-bit)

Код:
DISC INFO:
Disc Title:     DAIKANSHASAI_0308_BD
Disc Size:      47 636 027 186 bytes
Protection:     AACS
BD-Java:        No
BDInfo:         0.5.8
PLAYLIST REPORT:
Name:                   00000.MPLS
Length:                 2:13:53.024 (h:m:s.ms)
Size:                   40 062 511 104 bytes
Total Bitrate:          39,90 Mbps
Angle 1 Length:         0:15:23.422 (h:m:s.ms) / 2:13:53.024 (h:m:s.ms)
Angle 1 Size:           4 641 957 888 bytes / 40 062 738 432 bytes
Angle 1 Total Bitrate:  40,22 Mbps / 39,90 Mbps
All Angles Length:      2:29:16.447 (h:m:s.ms)
All Angles Size:        44 704 468 992 bytes
All Angles Bitrate:     39,93 Mbps
VIDEO:
Codec                   Bitrate             Description
-----                   -------             -----------
MPEG-4 AVC Video        30000 kbps          1080i / 29,970 fps / 16:9 / High Profile 4.1
MPEG-4 AVC Video (1)    3449 (30000) kbps   1080i / 29,970 fps / 16:9 / High Profile 4.1
AUDIO:
Codec                           Language        Bitrate         Description
-----                           --------        -------         -----------
LPCM Audio                      Japanese        2304 kbps       2.0 / 48 kHz / 2304 kbps / 24-bit
DTS-HD Master Audio             Japanese        5298 kbps       5.1 / 48 kHz / 5298 kbps / 24-bit (DTS Core: 5.1 / 48 kHz / 1509 kbps / 24-bit)
SUBTITLES:
Codec                           Language        Bitrate         Description
-----                           --------        -------         -----------
Presentation Graphics           Japanese        108,738 kbps
Presentation Graphics           Japanese        158,993 kbps
FILES:
Name            Time In         Length          Size            Total Bitrate
----            -------         ------          ----            -------------
00000.M2TS      0:00:00.000     0:21:36.962     6 451 685 376   39 796
00001.M2TS      0:21:36.962     0:03:22.335     1 014 306 816   40 104
00009.M2TS (1)  0:21:36.962     0:03:22.335     1 014 429 696   40 109
00002.M2TS      0:24:59.297     0:17:29.148     5 258 686 464   40 099
00003.M2TS      0:42:28.445     0:03:56.502     1 183 537 152   40 035
00010.M2TS (1)  0:42:28.445     0:03:56.502     1 183 531 008   40 034
00004.M2TS      0:46:24.948     0:07:17.236     2 184 148 992   39 963
00005.M2TS      0:53:42.185     0:03:42.222     1 119 977 472   40 319
00011.M2TS (1)  0:53:42.185     0:03:42.222     1 120 118 784   40 324
00006.M2TS      0:57:24.407     0:26:17.008     7 869 696 000   39 922
00007.M2TS      1:23:41.416     0:04:22.362     1 323 909 120   40 369
00012.M2TS (1)  1:23:41.416     0:04:22.362     1 323 878 400   40 368
00008.M2TS      1:28:03.778     0:45:49.246     13 656 563 712  39 739
CHAPTERS:
Number          Time In         Length          Avg Video Rate  Max 1-Sec Rate  Max 1-Sec Time  Max 5-Sec Rate  Max 5-Sec Time  Max 10Sec Rate  Max 10Sec Time  Avg Frame Size  Max Frame Size  Max Frame Time
------          -------         ------          --------------  --------------  --------------  --------------  --------------  --------------  --------------  --------------  --------------  --------------
1               0:00:00.000     0:01:05.064     30 026 kbps     38 796 kbps     00:00:08.441    31 757 kbps     00:00:04.437    30 338 kbps     00:00:29.863    125 169 bytes   309 086 bytes   00:00:00.967
2               0:01:05.064     0:00:34.768     29 998 kbps     33 297 kbps     00:01:26.853    30 896 kbps     00:01:22.849    30 376 kbps     00:01:17.844    125 119 bytes   236 824 bytes   00:01:27.387
3               0:01:39.833     0:00:53.353     30 000 kbps     38 036 kbps     00:02:07.760    31 652 kbps     00:02:03.756    30 791 kbps     00:01:58.751    125 123 bytes   288 942 bytes   00:02:08.495
4               0:02:33.186     0:05:10.076     29 999 kbps     34 700 kbps     00:07:21.441    30 961 kbps     00:07:17.370    30 525 kbps     00:06:25.752    125 122 bytes   264 835 bytes   00:05:32.598
5               0:07:43.262     0:03:05.051     30 002 kbps     36 846 kbps     00:08:25.271    31 488 kbps     00:08:21.267    30 714 kbps     00:08:16.262    125 132 bytes   255 521 bytes   00:08:41.220
6               0:10:48.314     0:03:22.101     30 000 kbps     41 737 kbps     00:10:49.648    31 765 kbps     00:11:16.509    30 955 kbps     00:11:11.504    125 126 bytes   402 549 bytes   00:11:34.827
7               0:14:10.416     0:03:48.194     30 000 kbps     34 465 kbps     00:14:57.696    30 977 kbps     00:14:53.592    30 556 kbps     00:14:48.520    125 125 bytes   243 216 bytes   00:16:31.256
8               0:17:58.610     0:00:40.573     30 001 kbps     31 851 kbps     00:18:14.793    30 394 kbps     00:18:10.856    30 210 kbps     00:18:05.684    125 130 bytes   245 415 bytes   00:18:03.782
9               0:18:39.184     0:02:57.777     30 001 kbps     38 114 kbps     00:19:05.410    31 456 kbps     00:19:01.406    30 709 kbps     00:19:17.389    125 128 bytes   391 969 bytes   00:19:27.332
10              0:21:36.962     0:03:21.534     29 999 kbps     41 979 kbps     00:22:38.290    32 337 kbps     00:22:34.286    31 167 kbps     00:22:29.281    125 122 bytes   332 393 bytes   00:22:39.024
11              0:24:58.496     0:03:20.433     30 000 kbps     40 506 kbps     00:28:11.990    32 091 kbps     00:28:07.952    31 051 kbps     00:28:02.914    125 124 bytes   309 085 bytes   00:28:14.526
12              0:28:18.930     0:04:24.864     30 000 kbps     38 509 kbps     00:31:55.413    31 940 kbps     00:31:37.996    31 033 kbps     00:31:32.991    125 126 bytes   297 760 bytes   00:30:27.225
13              0:32:43.795     0:01:38.097     30 001 kbps     35 563 kbps     00:34:20.491    30 886 kbps     00:34:16.521    30 482 kbps     00:34:11.482    125 130 bytes   273 886 bytes   00:34:21.259
14              0:34:21.893     0:03:38.151     30 000 kbps     37 121 kbps     00:34:27.665    31 706 kbps     00:34:23.661    30 610 kbps     00:35:20.718    125 124 bytes   404 504 bytes   00:35:41.973
15              0:38:00.044     0:04:28.401     29 999 kbps     33 638 kbps     00:41:03.928    30 727 kbps     00:41:45.603    30 389 kbps     00:40:54.885    125 121 bytes   286 250 bytes   00:40:58.522
16              0:42:28.445     0:03:56.502     30 001 kbps     38 178 kbps     00:44:03.941    31 674 kbps     00:45:16.080    30 866 kbps     00:45:11.075    125 130 bytes   309 100 bytes   00:42:29.413
17              0:46:24.948     0:03:54.233     30 000 kbps     39 477 kbps     00:47:06.356    31 917 kbps     00:47:02.352    30 917 kbps     00:46:57.347    125 126 bytes   293 807 bytes   00:47:27.044
18              0:50:19.182     0:03:23.970     30 001 kbps     34 987 kbps     00:52:16.299    31 251 kbps     00:51:26.550    30 543 kbps     00:52:07.290    125 130 bytes   290 964 bytes   00:50:47.778
19              0:53:43.153     0:03:38.217     30 000 kbps     44 026 kbps     00:57:00.617    32 652 kbps     00:56:56.613    30 947 kbps     00:56:51.608    125 124 bytes   331 919 bytes   00:57:01.351
20              0:57:21.371     0:03:53.499     29 999 kbps     39 654 kbps     00:58:35.411    31 974 kbps     00:58:31.407    31 010 kbps     00:58:26.402    125 123 bytes   297 943 bytes   01:01:03.192
21              1:01:14.871     0:03:38.084     30 000 kbps     39 708 kbps     01:03:56.432    32 057 kbps     01:02:33.282    31 065 kbps     01:03:47.423    125 127 bytes   283 507 bytes   01:03:57.099
22              1:04:52.955     0:04:29.869     29 999 kbps     38 334 kbps     01:07:22.938    31 503 kbps     01:07:18.934    30 793 kbps     01:07:13.929    125 119 bytes   309 085 bytes   01:09:12.114
23              1:09:22.825     0:00:36.469     30 022 kbps     34 897 kbps     01:09:30.299    31 006 kbps     01:09:26.262    30 204 kbps     01:09:35.004    125 215 bytes   309 085 bytes   01:09:23.792
24              1:09:59.295     0:03:16.529     30 000 kbps     35 216 kbps     01:10:11.874    31 024 kbps     01:10:07.836    30 557 kbps     01:10:02.898    125 125 bytes   293 176 bytes   01:10:38.434
25              1:13:15.824     0:02:48.501     29 998 kbps     40 469 kbps     01:13:23.165    32 079 kbps     01:13:19.161    30 878 kbps     01:13:38.280    125 118 bytes   340 848 bytes   01:13:23.932
26              1:16:04.326     0:04:36.209     30 001 kbps     41 215 kbps     01:18:17.292    32 022 kbps     01:18:13.288    31 051 kbps     01:18:08.283    125 127 bytes   366 088 bytes   01:18:18.093
27              1:20:40.535     0:03:00.880     29 998 kbps     41 177 kbps     01:23:04.145    32 333 kbps     01:23:00.141    31 115 kbps     01:22:55.136    125 117 bytes   341 553 bytes   01:20:59.321
28              1:23:41.416     0:04:22.028     30 002 kbps     41 060 kbps     01:24:20.889    31 887 kbps     01:24:16.885    31 089 kbps     01:24:22.791    125 132 bytes   330 281 bytes   01:26:28.483
29              1:28:03.444     0:03:45.825     30 000 kbps     36 685 kbps     01:29:52.987    31 801 kbps     01:29:48.983    30 917 kbps     01:29:43.978    125 124 bytes   314 304 bytes   01:29:53.755
30              1:31:49.270     0:03:21.801     30 000 kbps     36 549 kbps     01:34:27.862    31 345 kbps     01:34:23.858    30 636 kbps     01:34:18.819    125 123 bytes   370 959 bytes   01:31:58.546
31              1:35:11.072     0:04:08.114     30 000 kbps     38 789 kbps     01:38:40.014    31 607 kbps     01:38:36.010    30 832 kbps     01:38:31.005    125 126 bytes   271 275 bytes   01:37:31.111
32              1:39:19.186     0:05:02.301     30 000 kbps     39 563 kbps     01:40:23.450    31 897 kbps     01:40:19.446    30 963 kbps     01:40:14.441    125 126 bytes   283 954 bytes   01:40:23.016
33              1:44:21.488     0:02:33.853     30 001 kbps     36 754 kbps     01:46:52.539    31 257 kbps     01:46:48.602    30 667 kbps     01:46:43.563    125 129 bytes   269 907 bytes   01:46:53.106
34              1:46:55.342     0:00:58.992     29 996 kbps     32 632 kbps     01:47:45.192    30 404 kbps     01:47:45.192    30 167 kbps     01:47:42.556    125 106 bytes   294 352 bytes   01:47:26.006
35              1:47:54.334     0:00:15.915     30 016 kbps     31 388 kbps     01:48:06.580    30 303 kbps     01:47:55.101    30 166 kbps     01:47:56.770    125 192 bytes   225 883 bytes   01:48:05.712
36              1:48:10.250     0:03:16.362     29 998 kbps     36 336 kbps     01:51:12.699    31 088 kbps     01:51:08.695    30 676 kbps     01:51:03.623    125 117 bytes   353 807 bytes   01:51:13.233
37              1:51:26.613     0:00:50.116     29 996 kbps     34 040 kbps     01:51:49.469    30 910 kbps     01:51:45.398    30 372 kbps     01:51:40.460    125 109 bytes   234 803 bytes   01:52:05.552
38              1:52:16.729     0:05:34.500     30 002 kbps     36 795 kbps     01:52:50.497    31 461 kbps     01:52:46.392    30 725 kbps     01:52:41.488    125 132 bytes   263 999 bytes   01:52:57.904
39              1:57:51.230     0:04:56.496     30 000 kbps     35 218 kbps     01:57:58.704    31 383 kbps     01:57:54.667    30 451 kbps     02:00:03.162    125 126 bytes   296 836 bytes   01:58:09.382
40              2:02:47.727     0:04:57.497     30 000 kbps     38 381 kbps     02:05:37.463    32 058 kbps     02:05:33.459    31 029 kbps     02:05:28.454    125 123 bytes   278 094 bytes   02:05:38.197
41              2:07:45.224     0:01:29.355     30 005 kbps     32 296 kbps     02:09:00.799    30 576 kbps     02:08:50.756    30 259 kbps     02:08:45.684    125 146 bytes   244 323 bytes   02:09:12.578
42              2:09:14.580     0:04:21.861     29 993 kbps     33 809 kbps     02:09:51.116    31 595 kbps     02:13:28.500    30 853 kbps     02:13:23.462    125 095 bytes   329 031 bytes   02:11:27.379
43              2:13:36.441     0:00:16.583     30 000 kbps     34 065 kbps     02:13:41.847    31 550 kbps     02:13:37.876    30 027 kbps     02:13:36.441    125 375 bytes   309 093 bytes   02:13:52.991
STREAM DIAGNOSTICS:
File            PID             Type            Codec           Language                Seconds                 Bitrate                 Bytes           Packets
----            ---             ----            -----           --------                --------------          --------------          -------------   -----
00000.M2TS      4113 (0x1011)   0x1B            AVC                                     1296,829                30 003                  4 863 629 509   26 455 569
00000.M2TS      4352 (0x1100)   0x80            LPCM            jpn (Japanese)          1296,829                2 311                   374 563 492     2 075 144
00000.M2TS      4353 (0x1101)   0x86            DTS-HD MA       jpn (Japanese)          1296,829                5 259                   852 514 548     4 835 626
00000.M2TS      4608 (0x1200)   0x90            PGS             jpn (Japanese)          1296,829                107                     17 366 519      97 999
00000.M2TS      4609 (0x1201)   0x90            PGS             jpn (Japanese)          1296,829                105                     17 066 649      94 707
00001.M2TS      4113 (0x1011)   0x1B            AVC                                     202,202                 30 020                  758 761 245     4 127 349
00001.M2TS      4352 (0x1100)   0x80            LPCM            jpn (Japanese)          202,202                 2 312                   58 435 792      323 744
00001.M2TS      4353 (0x1101)   0x86            DTS-HD MA       jpn (Japanese)          202,202                 5 510                   139 261 552     788 378
00001.M2TS      4608 (0x1200)   0x90            PGS             jpn (Japanese)          202,202                 121                     3 070 410       17 278
00001.M2TS      4609 (0x1201)   0x90            PGS             jpn (Japanese)          202,202                 116                     2 927 237       16 191
00009.M2TS (1)  4113 (0x1011)   0x1B            AVC                                     202,202                 30 020                  758 761 245     4 127 898
00009.M2TS (1)  4352 (0x1100)   0x80            LPCM            jpn (Japanese)          202,202                 2 312                   58 435 792      323 744
00009.M2TS (1)  4353 (0x1101)   0x86            DTS-HD MA       jpn (Japanese)          202,202                 5 510                   139 261 552     788 378
00009.M2TS (1)  4608 (0x1200)   0x90            PGS             jpn (Japanese)          202,202                 121                     3 070 410       17 278
00009.M2TS (1)  4609 (0x1201)   0x90            PGS             jpn (Japanese)          202,202                 116                     2 927 237       16 191
00002.M2TS      4113 (0x1011)   0x1B            AVC                                     1049,015                30 004                  3 934 322 169   21 400 659
00002.M2TS      4352 (0x1100)   0x80            LPCM            jpn (Japanese)          1049,015                2 311                   302 994 520     1 678 640
00002.M2TS      4353 (0x1101)   0x86            DTS-HD MA       jpn (Japanese)          1049,015                5 506                   722 016 112     4 087 334
00002.M2TS      4608 (0x1200)   0x90            PGS             jpn (Japanese)          1049,015                126                     16 458 511      93 037
00002.M2TS      4609 (0x1201)   0x90            PGS             jpn (Japanese)          1049,015                130                     17 014 847      94 164
00003.M2TS      4113 (0x1011)   0x1B            AVC                                     236,369                 30 017                  886 889 792     4 824 292
00003.M2TS      4352 (0x1100)   0x80            LPCM            jpn (Japanese)          236,369                 2 312                   68 302 644      378 408
00003.M2TS      4353 (0x1101)   0x86            DTS-HD MA       jpn (Japanese)          236,369                 5 357                   158 285 112     897 153
00003.M2TS      4608 (0x1200)   0x90            PGS             jpn (Japanese)          236,369                 120                     3 548 637       19 845
00003.M2TS      4609 (0x1201)   0x90            PGS             jpn (Japanese)          236,369                 203                     5 995 951       33 091
00010.M2TS (1)  4113 (0x1011)   0x1B            AVC                                     236,369                 30 017                  886 889 792     4 824 231
00010.M2TS (1)  4352 (0x1100)   0x80            LPCM            jpn (Japanese)          236,369                 2 312                   68 302 644      378 408
00010.M2TS (1)  4353 (0x1101)   0x86            DTS-HD MA       jpn (Japanese)          236,369                 5 357                   158 285 112     897 153
00010.M2TS (1)  4608 (0x1200)   0x90            PGS             jpn (Japanese)          236,369                 120                     3 548 637       19 845
00010.M2TS (1)  4609 (0x1201)   0x90            PGS             jpn (Japanese)          236,369                 203                     5 995 951       33 091
00004.M2TS      4113 (0x1011)   0x1B            AVC                                     437,137                 30 007                  1 639 645 003   8 918 845
00004.M2TS      4352 (0x1100)   0x80            LPCM            jpn (Japanese)          437,137                 2 311                   126 274 912     699 584
00004.M2TS      4353 (0x1101)   0x86            DTS-HD MA       jpn (Japanese)          437,137                 5 266                   287 722 440     1 631 944
00004.M2TS      4608 (0x1200)   0x90            PGS             jpn (Japanese)          437,137                 121                     6 608 387       37 175
00004.M2TS      4609 (0x1201)   0x90            PGS             jpn (Japanese)          437,137                 244                     13 343 035      73 554
00005.M2TS      4113 (0x1011)   0x1B            AVC                                     222,089                 30 018                  833 336 063     4 533 036
00005.M2TS      4352 (0x1100)   0x80            LPCM            jpn (Japanese)          222,089                 2 312                   64 178 580      355 560
00005.M2TS      4353 (0x1101)   0x86            DTS-HD MA       jpn (Japanese)          222,089                 5 575                   154 768 196     875 822
00005.M2TS      4608 (0x1200)   0x90            PGS             jpn (Japanese)          222,089                 107                     2 968 577       16 699
00005.M2TS      4609 (0x1201)   0x90            PGS             jpn (Japanese)          222,089                 268                     7 433 850       40 977
00011.M2TS (1)  4113 (0x1011)   0x1B            AVC                                     222,089                 30 018                  833 336 063     4 533 791
00011.M2TS (1)  4352 (0x1100)   0x80            LPCM            jpn (Japanese)          222,089                 2 312                   64 178 580      355 560
00011.M2TS (1)  4353 (0x1101)   0x86            DTS-HD MA       jpn (Japanese)          222,089                 5 575                   154 768 196     875 822
00011.M2TS (1)  4608 (0x1200)   0x90            PGS             jpn (Japanese)          222,089                 107                     2 968 577       16 699
00011.M2TS (1)  4609 (0x1201)   0x90            PGS             jpn (Japanese)          222,089                 268                     7 433 850       40 977
00006.M2TS      4113 (0x1011)   0x1B            AVC                                     1576,875                30 003                  5 913 808 115   32 168 179
00006.M2TS      4352 (0x1100)   0x80            LPCM            jpn (Japanese)          1576,875                2 311                   455 440 488     2 523 216
00006.M2TS      4353 (0x1101)   0x86            DTS-HD MA       jpn (Japanese)          1576,875                5 312                   1 046 963 488   5 935 988
00006.M2TS      4608 (0x1200)   0x90            PGS             jpn (Japanese)          1576,875                126                     24 773 802      139 193
00006.M2TS      4609 (0x1201)   0x90            PGS             jpn (Japanese)          1576,875                155                     30 559 077      168 596
00007.M2TS      4113 (0x1011)   0x1B            AVC                                     262,229                 30 015                  983 862 080     5 351 787
00007.M2TS      4352 (0x1100)   0x80            LPCM            jpn (Japanese)          262,229                 2 312                   75 771 012      419 784
00007.M2TS      4353 (0x1101)   0x86            DTS-HD MA       jpn (Japanese)          262,229                 5 640                   184 856 176     1 045 684
00007.M2TS      4608 (0x1200)   0x90            PGS             jpn (Japanese)          262,229                 116                     3 794 261       21 532
00007.M2TS      4609 (0x1201)   0x90            PGS             jpn (Japanese)          262,229                 241                     7 903 815       43 540
00012.M2TS (1)  4113 (0x1011)   0x1B            AVC                                     262,229                 30 015                  983 862 080     5 351 697
00012.M2TS (1)  4352 (0x1100)   0x80            LPCM            jpn (Japanese)          262,229                 2 312                   75 771 012      419 784
00012.M2TS (1)  4353 (0x1101)   0x86            DTS-HD MA       jpn (Japanese)          262,229                 5 640                   184 856 176     1 045 684
00012.M2TS (1)  4608 (0x1200)   0x90            PGS             jpn (Japanese)          262,229                 116                     3 794 261       21 532
00012.M2TS (1)  4609 (0x1201)   0x90            PGS             jpn (Japanese)          262,229                 241                     7 903 815       43 540
00008.M2TS      4113 (0x1011)   0x1B            AVC                                     2749,113                30 002                  10 309 718 370  56 079 751
00008.M2TS      4352 (0x1100)   0x80            LPCM            jpn (Japanese)          2749,113                2 311                   793 981 956     4 398 792
00008.M2TS      4353 (0x1101)   0x86            DTS-HD MA       jpn (Japanese)          2749,113                5 161                   1 773 647 880   10 067 683
00008.M2TS      4608 (0x1200)   0x90            PGS             jpn (Japanese)          2749,113                89                      30 598 118      173 104
00008.M2TS      4609 (0x1201)   0x90            PGS             jpn (Japanese)          2749,113                167                     57 405 384      316 489

QUICK SUMMARY:
Disc Title: DAIKANSHASAI_0308_BD
Disc Size: 47 636 027 186 bytes
Protection: AACS
BD-Java: No
Playlist: 00000.MPLS
Size: 40 062 511 104 bytes
Length: 2:13:53.024
Total Bitrate: 39,90 Mbps
Video: MPEG-4 AVC Video / 30000 kbps / 1080i / 29,970 fps / 16:9 / High Profile 4.1
Video: MPEG-4 AVC Video (1) / 3449 (30000) kbps / 1080i / 29,970 fps / 16:9 / High Profile 4.1
Audio: Japanese / LPCM Audio / 2.0 / 48 kHz / 2304 kbps / 24-bit
Audio: Japanese / DTS-HD Master Audio / 5.1 / 48 kHz / 5298 kbps / 24-bit (DTS Core: 5.1 / 48 kHz / 1509 kbps / 24-bit)
Subtitle: Japanese / 108,738 kbps
Subtitle: Japanese / 158,993 kbps
********************
PLAYLIST: 00001.MPLS
********************

Код:

                                                                                Total   Video
Title                                                           Codec   Length  Movie Size      Disc Size       Bitrate Bitrate Main Audio Track                          Secondary Audio Track
-----                                                           ------  ------- --------------  --------------  ------- ------- ------------------                        ---------------------
00001.MPLS                                                      AVC     0:00:27 133 816 320     47 636 027 186  38,89   34,83   LPCM 2.0 2304Kbps (48kHz/24-bit)

Код:
DISC INFO:
Disc Title:     DAIKANSHASAI_0308_BD
Disc Size:      47 636 027 186 bytes
Protection:     AACS
BD-Java:        No
BDInfo:         0.5.8
PLAYLIST REPORT:
Name:                   00001.MPLS
Length:                 0:00:27.527 (h:m:s.ms)
Size:                   133 816 320 bytes
Total Bitrate:          38,89 Mbps
VIDEO:
Codec                   Bitrate             Description
-----                   -------             -----------
MPEG-4 AVC Video        34825 kbps          1080i / 29,970 fps / 16:9 / High Profile 4.1
AUDIO:
Codec                           Language        Bitrate         Description
-----                           --------        -------         -----------
LPCM Audio                      Japanese        2304 kbps       2.0 / 48 kHz / 2304 kbps / 24-bit
FILES:
Name            Time In         Length          Size            Total Bitrate
----            -------         ------          ----            -------------
00013.M2TS      0:00:00.000     0:00:27.527     133 816 320     38 889
CHAPTERS:
Number          Time In         Length          Avg Video Rate  Max 1-Sec Rate  Max 1-Sec Time  Max 5-Sec Rate  Max 5-Sec Time  Max 10Sec Rate  Max 10Sec Time  Avg Frame Size  Max Frame Size  Max Frame Time
------          -------         ------          --------------  --------------  --------------  --------------  --------------  --------------  --------------  --------------  --------------  --------------
1               0:00:00.000     0:00:27.527     34 825 kbps     37 356 kbps     00:00:15.081    35 401 kbps     00:00:01.067    35 045 kbps     00:00:11.111    145 251 bytes   372 541 bytes   00:00:16.015
STREAM DIAGNOSTICS:
File            PID             Type            Codec           Language                Seconds                 Bitrate                 Bytes           Packets
----            ---             ----            -----           --------                --------------          --------------          -------------   -----
00013.M2TS      4113 (0x1011)   0x1B            AVC                                     27,394                  34 995                  119 832 049     651 978
00013.M2TS      4352 (0x1100)   0x80            LPCM            jpn (Japanese)          27,394                  2 321                   7 949 220       44 040

QUICK SUMMARY:
Disc Title: DAIKANSHASAI_0308_BD
Disc Size: 47 636 027 186 bytes
Protection: AACS
BD-Java: No
Playlist: 00001.MPLS
Size: 133 816 320 bytes
Length: 0:00:27.527
Total Bitrate: 38,89 Mbps
Video: MPEG-4 AVC Video / 34825 kbps / 1080i / 29,970 fps / 16:9 / High Profile 4.1
Audio: Japanese / LPCM Audio / 2.0 / 48 kHz / 2304 kbps / 24-bit

Диск 2
Disc Title: DAIKANSHASAI_0309_BD
Disc Size: 47 040 672 095 bytes
Protection: AACS
BD-Java: No
BDInfo: 0.5.8
Notes:
BDINFO HOME:
Cinema Squid
http://www.cinemasquid.com/blu-ray/tools/bdinfo
INCLUDES FORUMS REPORT FOR:
AVS Forum Blu-ray Audio and Video Specifications Thread
http://www.avsforum.com/avs-vb/showthread.php?t=1155731
********************
PLAYLIST: 00000.MPLS
********************

Код:

                                                                                Total   Video
Title                                                           Codec   Length  Movie Size      Disc Size       Bitrate Bitrate Main Audio Track                          Secondary Audio Track
-----                                                           ------  ------- --------------  --------------  ------- ------- ------------------                        ---------------------
00000.MPLS                                                      AVC     1:59:09 35 767 160 832  47 040 672 095  40,02   30,00   LPCM 2.0 2304Kbps (48kHz/24-bit)          DTS-HD Master 5.1 5215Kbps (48kHz/24-bit)

Код:
DISC INFO:
Disc Title:     DAIKANSHASAI_0309_BD
Disc Size:      47 040 672 095 bytes
Protection:     AACS
BD-Java:        No
BDInfo:         0.5.8
PLAYLIST REPORT:
Name:                   00000.MPLS
Length:                 1:59:09.141 (h:m:s.ms)
Size:                   35 767 160 832 bytes
Total Bitrate:          40,02 Mbps
Angle 1 Length:         0:12:14.500 (h:m:s.ms) / 1:59:09.141 (h:m:s.ms)
Angle 1 Size:           3 692 150 784 bytes / 35 767 197 696 bytes
Angle 1 Total Bitrate:  40,21 Mbps / 40,02 Mbps
All Angles Length:      2:11:23.642 (h:m:s.ms)
All Angles Size:        39 459 311 616 bytes
All Angles Bitrate:     40,04 Mbps
VIDEO:
Codec                   Bitrate             Description
-----                   -------             -----------
MPEG-4 AVC Video        30000 kbps          1080i / 29,970 fps / 16:9 / High Profile 4.1
MPEG-4 AVC Video (1)    3082 (30000) kbps   1080i / 29,970 fps / 16:9 / High Profile 4.1
AUDIO:
Codec                           Language        Bitrate         Description
-----                           --------        -------         -----------
LPCM Audio                      Japanese        2304 kbps       2.0 / 48 kHz / 2304 kbps / 24-bit
DTS-HD Master Audio             Japanese        5215 kbps       5.1 / 48 kHz / 5215 kbps / 24-bit (DTS Core: 5.1 / 48 kHz / 1509 kbps / 24-bit)
SUBTITLES:
Codec                           Language        Bitrate         Description
-----                           --------        -------         -----------
Presentation Graphics           Japanese        113,664 kbps
Presentation Graphics           Japanese        356,152 kbps
FILES:
Name            Time In         Length          Size            Total Bitrate
----            -------         ------          ----            -------------
00000.M2TS      0:00:00.000     0:02:42.662     794 370 048     39 068
00001.M2TS      0:02:42.662     0:08:33.779     2 580 621 312   40 183
00005.M2TS (1)  0:02:42.662     0:08:33.779     2 580 645 888   40 183
00002.M2TS      0:11:16.442     0:32:44.696     9 869 690 880   40 188
00003.M2TS      0:44:01.138     0:03:40.720     1 111 492 608   40 286
00006.M2TS (1)  0:44:01.138     0:03:40.720     1 111 504 896   40 286
00004.M2TS      0:47:41.858     1:11:27.282     21 410 985 984  39 953
CHAPTERS:
Number          Time In         Length          Avg Video Rate  Max 1-Sec Rate  Max 1-Sec Time  Max 5-Sec Rate  Max 5-Sec Time  Max 10Sec Rate  Max 10Sec Time  Avg Frame Size  Max Frame Size  Max Frame Time
------          -------         ------          --------------  --------------  --------------  --------------  --------------  --------------  --------------  --------------  --------------  --------------
1               0:00:00.000     0:02:42.662     30 011 kbps     35 086 kbps     00:01:37.530    31 141 kbps     00:01:33.493    30 726 kbps     00:00:01.434    125 143 bytes   319 963 bytes   00:00:32.032
2               0:02:42.662     0:04:53.292     30 001 kbps     37 626 kbps     00:04:05.044    31 390 kbps     00:03:54.867    30 700 kbps     00:05:15.181    125 128 bytes   390 546 bytes   00:03:59.739
3               0:07:35.955     0:03:40.053     30 000 kbps     39 074 kbps     00:07:57.443    31 742 kbps     00:07:53.439    30 918 kbps     00:07:48.434    125 125 bytes   379 729 bytes   00:10:46.145
4               0:11:16.008     0:02:59.512     30 000 kbps     37 749 kbps     00:13:17.363    31 250 kbps     00:12:37.590    30 707 kbps     00:13:08.320    125 125 bytes   311 380 bytes   00:12:11.497
5               0:14:15.521     0:03:10.823     30 000 kbps     35 609 kbps     00:14:50.422    31 171 kbps     00:14:46.452    30 577 kbps     00:14:41.447    125 127 bytes   280 176 bytes   00:16:22.581
6               0:17:26.345     0:00:17.550     29 980 kbps     32 707 kbps     00:17:38.791    30 618 kbps     00:17:34.987    30 304 kbps     00:17:30.215    125 042 bytes   282 434 bytes   00:17:39.691
7               0:17:43.896     0:03:26.539     29 998 kbps     40 780 kbps     00:18:47.559    32 267 kbps     00:18:43.555    31 082 kbps     00:18:38.550    125 116 bytes   305 865 bytes   00:18:48.193
8               0:21:10.435     0:03:06.519     30 001 kbps     36 652 kbps     00:21:49.941    31 152 kbps     00:21:46.071    30 540 kbps     00:21:40.966    125 130 bytes   302 327 bytes   00:23:20.732
9               0:24:16.955     0:03:03.516     30 003 kbps     37 614 kbps     00:25:44.409    31 410 kbps     00:25:40.405    30 761 kbps     00:24:50.388    125 136 bytes   295 706 bytes   00:25:00.131
10              0:27:20.472     0:00:58.224     29 999 kbps     32 227 kbps     00:27:48.933    30 428 kbps     00:27:45.964    30 328 kbps     00:27:39.824    125 120 bytes   298 008 bytes   00:27:52.504
11              0:28:18.696     0:03:15.528     29 998 kbps     38 800 kbps     00:30:29.060    31 714 kbps     00:30:25.056    30 905 kbps     00:30:20.018    125 118 bytes   307 605 bytes   00:28:44.322
12              0:31:34.225     0:03:45.225     30 001 kbps     35 167 kbps     00:33:11.923    31 072 kbps     00:31:54.045    30 762 kbps     00:32:55.940    125 130 bytes   285 890 bytes   00:32:36.187
13              0:35:19.450     0:03:22.101     30 000 kbps     36 029 kbps     00:36:46.604    31 308 kbps     00:37:56.974    30 719 kbps     00:36:05.129    125 124 bytes   293 167 bytes   00:36:31.188
14              0:38:41.552     0:01:49.209     30 004 kbps     38 290 kbps     00:39:02.073    31 810 kbps     00:38:58.035    30 873 kbps     00:38:53.064    125 143 bytes   405 749 bytes   00:39:02.873
15              0:40:30.761     0:03:30.376     29 998 kbps     35 353 kbps     00:40:50.447    31 145 kbps     00:40:46.443    30 547 kbps     00:40:41.438    125 117 bytes   277 706 bytes   00:43:44.388
16              0:44:01.138     0:03:40.720     29 999 kbps     35 715 kbps     00:44:46.850    31 134 kbps     00:46:16.840    30 647 kbps     00:46:11.835    125 123 bytes   266 198 bytes   00:45:26.223
17              0:47:41.858     0:02:29.816     30 000 kbps     35 946 kbps     00:48:29.973    31 366 kbps     00:48:25.902    30 644 kbps     00:48:20.964    125 125 bytes   328 681 bytes   00:49:50.887
18              0:50:11.675     0:03:32.545     29 999 kbps     36 222 kbps     00:52:28.211    31 221 kbps     00:53:31.107    30 610 kbps     00:53:26.136    125 121 bytes   290 696 bytes   00:53:35.879
19              0:53:44.220     0:03:04.684     30 002 kbps     34 449 kbps     00:54:18.421    31 098 kbps     00:56:34.157    30 576 kbps     00:53:49.793    125 135 bytes   271 661 bytes   00:55:24.354
20              0:56:48.905     0:03:16.029     30 001 kbps     35 621 kbps     00:58:36.813    30 994 kbps     00:58:32.809    30 535 kbps     00:58:27.804    125 131 bytes   271 789 bytes   00:59:50.019
21              1:00:04.934     0:03:36.382     29 998 kbps     34 068 kbps     01:01:09.832    30 847 kbps     01:02:52.135    30 376 kbps     01:03:21.697    125 119 bytes   277 561 bytes   01:00:14.944
22              1:03:41.317     0:03:36.716     29 999 kbps     38 578 kbps     01:05:00.930    31 711 kbps     01:04:56.926    30 747 kbps     01:04:51.921    125 122 bytes   280 174 bytes   01:03:47.857
23              1:07:18.033     0:04:11.918     30 002 kbps     36 284 kbps     01:07:27.410    31 256 kbps     01:07:23.406    30 719 kbps     01:07:18.367    125 133 bytes   284 568 bytes   01:09:19.889
24              1:11:29.952     0:03:39.552     30 001 kbps     34 538 kbps     01:12:45.394    30 966 kbps     01:12:41.390    30 395 kbps     01:12:36.418    125 129 bytes   279 935 bytes   01:12:10.159
25              1:15:09.504     0:02:56.342     29 998 kbps     34 668 kbps     01:16:58.914    30 840 kbps     01:17:37.052    30 486 kbps     01:16:47.903    125 117 bytes   273 300 bytes   01:16:06.728
26              1:18:05.847     0:03:15.395     29 996 kbps     40 385 kbps     01:18:06.948    31 587 kbps     01:18:38.680    30 805 kbps     01:19:57.792    125 107 bytes   368 431 bytes   01:18:07.749
27              1:21:21.243     0:00:31.097     30 039 kbps     35 261 kbps     01:21:47.736    30 694 kbps     01:21:43.798    30 371 kbps     01:21:38.760    125 286 bytes   354 583 bytes   01:21:48.703
28              1:21:52.340     0:03:33.112     29 998 kbps     36 783 kbps     01:25:09.103    31 153 kbps     01:25:05.099    30 633 kbps     01:25:00.094    125 118 bytes   272 179 bytes   01:24:11.880
29              1:25:25.453     0:04:24.931     30 001 kbps     37 145 kbps     01:28:09.617    31 500 kbps     01:27:53.635    30 826 kbps     01:28:00.608    125 129 bytes   278 226 bytes   01:27:58.306
30              1:29:50.384     0:04:25.264     29 998 kbps     35 290 kbps     01:30:39.400    30 827 kbps     01:30:30.391    30 411 kbps     01:30:30.391    125 117 bytes   272 816 bytes   01:34:09.944
31              1:34:15.649     0:01:01.594     30 011 kbps     32 272 kbps     01:34:42.510    30 514 kbps     01:34:42.343    30 190 kbps     01:34:39.874    125 171 bytes   224 373 bytes   01:34:51.185
32              1:35:17.244     0:03:15.662     29 999 kbps     36 235 kbps     01:35:59.753    31 145 kbps     01:38:13.954    30 606 kbps     01:36:51.005    125 121 bytes   346 709 bytes   01:36:12.433
33              1:38:32.906     0:04:37.877     30 001 kbps     37 433 kbps     01:41:52.139    31 608 kbps     01:41:48.135    30 718 kbps     01:41:43.130    125 128 bytes   345 573 bytes   01:41:52.973
34              1:43:10.784     0:00:22.088     30 003 kbps     33 327 kbps     01:43:18.225    30 666 kbps     01:43:14.254    30 137 kbps     01:43:21.695    125 138 bytes   241 401 bytes   01:43:18.792
35              1:43:32.873     0:03:44.557     29 999 kbps     35 840 kbps     01:46:20.207    31 251 kbps     01:46:16.203    30 628 kbps     01:46:11.231    125 122 bytes   279 256 bytes   01:46:52.205
36              1:47:17.430     0:01:17.076     30 004 kbps     39 007 kbps     01:48:09.783    31 695 kbps     01:48:05.779    30 908 kbps     01:48:00.774    125 143 bytes   349 888 bytes   01:48:10.483
37              1:48:34.507     0:02:58.344     30 001 kbps     39 672 kbps     01:49:02.569    31 282 kbps     01:48:58.565    30 932 kbps     01:48:53.560    125 130 bytes   362 669 bytes   01:48:51.524
38              1:51:32.852     0:03:34.581     30 000 kbps     38 018 kbps     01:51:40.894    31 623 kbps     01:51:36.890    30 804 kbps     01:51:59.679    125 124 bytes   292 325 bytes   01:52:02.382
39              1:55:07.433     0:04:01.708     29 992 kbps     32 422 kbps     01:56:32.852    30 637 kbps     01:58:32.071    30 302 kbps     01:57:40.953    125 108 bytes   309 464 bytes   01:58:49.755
STREAM DIAGNOSTICS:
File            PID             Type            Codec           Language                Seconds                 Bitrate                 Bytes           Packets
----            ---             ----            -----           --------                --------------          --------------          -------------   -----
00000.M2TS      4113 (0x1011)   0x1B            AVC                                     162,529                 30 025                  609 986 985     3 318 016
00000.M2TS      4352 (0x1100)   0x80            LPCM            jpn (Japanese)          162,529                 2 312                   46 977 652      260 264
00000.M2TS      4353 (0x1101)   0x86            DTS-HD MA       jpn (Japanese)          162,529                 4 343                   88 223 796      504 737
00000.M2TS      4608 (0x1200)   0x90            PGS             jpn (Japanese)          162,529                 0                       6 762           44
00000.M2TS      4609 (0x1201)   0x90            PGS             jpn (Japanese)          162,529                 436                     8 862 032       48 809
00001.M2TS      4113 (0x1011)   0x1B            AVC                                     513,646                 30 008                  1 926 682 978   10 480 238
00001.M2TS      4352 (0x1100)   0x80            LPCM            jpn (Japanese)          513,646                 2 311                   148 379 664     822 048
00001.M2TS      4353 (0x1101)   0x86            DTS-HD MA       jpn (Japanese)          513,646                 5 326                   341 942 740     1 938 528
00001.M2TS      4608 (0x1200)   0x90            PGS             jpn (Japanese)          513,646                 145                     9 298 655       52 103
00001.M2TS      4609 (0x1201)   0x90            PGS             jpn (Japanese)          513,646                 346                     22 205 544      122 583
00005.M2TS (1)  4113 (0x1011)   0x1B            AVC                                     513,646                 30 008                  1 926 682 978   10 480 133
00005.M2TS (1)  4352 (0x1100)   0x80            LPCM            jpn (Japanese)          513,646                 2 311                   148 379 664     822 048
00005.M2TS (1)  4353 (0x1101)   0x86            DTS-HD MA       jpn (Japanese)          513,646                 5 326                   341 942 740     1 938 528
00005.M2TS (1)  4608 (0x1200)   0x90            PGS             jpn (Japanese)          513,646                 145                     9 298 655       52 103
00005.M2TS (1)  4609 (0x1201)   0x90            PGS             jpn (Japanese)          513,646                 346                     22 205 544      122 583
00002.M2TS      4113 (0x1011)   0x1B            AVC                                     1964,563                30 002                  7 367 641 693   40 076 070
00002.M2TS      4352 (0x1100)   0x80            LPCM            jpn (Japanese)          1964,563                2 311                   567 405 360     3 143 520
00002.M2TS      4353 (0x1101)   0x86            DTS-HD MA       jpn (Japanese)          1964,563                5 347                   1 313 034 760   7 442 220
00002.M2TS      4608 (0x1200)   0x90            PGS             jpn (Japanese)          1964,563                120                     29 488 264      165 843
00002.M2TS      4609 (0x1201)   0x90            PGS             jpn (Japanese)          1964,563                377                     92 660 666      511 150
00003.M2TS      4113 (0x1011)   0x1B            AVC                                     220,587                 30 018                  827 705 414     4 502 264
00003.M2TS      4352 (0x1100)   0x80            LPCM            jpn (Japanese)          220,587                 2 312                   63 745 380      353 160
00003.M2TS      4353 (0x1101)   0x86            DTS-HD MA       jpn (Japanese)          220,587                 5 360                   147 796 096     837 604
00003.M2TS      4608 (0x1200)   0x90            PGS             jpn (Japanese)          220,587                 132                     3 630 475       20 283
00003.M2TS      4609 (0x1201)   0x90            PGS             jpn (Japanese)          220,587                 427                     11 782 329      64 889
00006.M2TS (1)  4113 (0x1011)   0x1B            AVC                                     220,587                 30 018                  827 705 414     4 502 290
00006.M2TS (1)  4352 (0x1100)   0x80            LPCM            jpn (Japanese)          220,587                 2 312                   63 745 380      353 160
00006.M2TS (1)  4353 (0x1101)   0x86            DTS-HD MA       jpn (Japanese)          220,587                 5 360                   147 796 096     837 604
00006.M2TS (1)  4608 (0x1200)   0x90            PGS             jpn (Japanese)          220,587                 132                     3 630 475       20 283
00006.M2TS (1)  4609 (0x1201)   0x90            PGS             jpn (Japanese)          220,587                 427                     11 782 329      64 889
00004.M2TS      4113 (0x1011)   0x1B            AVC                                     4287,150                30 001                  16 077 379 854  87 452 495
00004.M2TS      4352 (0x1100)   0x80            LPCM            jpn (Japanese)          4287,150                2 310                   1 238 167 908   6 859 656
00004.M2TS      4353 (0x1101)   0x86            DTS-HD MA       jpn (Japanese)          4287,150                5 168                   2 769 267 768   15 719 183
00004.M2TS      4608 (0x1200)   0x90            PGS             jpn (Japanese)          4287,150                110                     59 151 018      332 259
00004.M2TS      4609 (0x1201)   0x90            PGS             jpn (Japanese)          4287,150                341                     182 761 852     1 008 318

QUICK SUMMARY:
Disc Title: DAIKANSHASAI_0309_BD
Disc Size: 47 040 672 095 bytes
Protection: AACS
BD-Java: No
Playlist: 00000.MPLS
Size: 35 767 160 832 bytes
Length: 1:59:09.141
Total Bitrate: 40,02 Mbps
Video: MPEG-4 AVC Video / 30000 kbps / 1080i / 29,970 fps / 16:9 / High Profile 4.1
Video: MPEG-4 AVC Video (1) / 3082 (30000) kbps / 1080i / 29,970 fps / 16:9 / High Profile 4.1
Audio: Japanese / LPCM Audio / 2.0 / 48 kHz / 2304 kbps / 24-bit
Audio: Japanese / DTS-HD Master Audio / 5.1 / 48 kHz / 5215 kbps / 24-bit (DTS Core: 5.1 / 48 kHz / 1509 kbps / 24-bit)
Subtitle: Japanese / 113,664 kbps
Subtitle: Japanese / 356,152 kbps
********************
PLAYLIST: 00001.MPLS
********************

Код:

                                                                                Total   Video
Title                                                           Codec   Length  Movie Size      Disc Size       Bitrate Bitrate Main Audio Track                          Secondary Audio Track
-----                                                           ------  ------- --------------  --------------  ------- ------- ------------------                        ---------------------
00001.MPLS                                                      AVC     0:00:27 133 816 320     47 040 672 095  38,89   34,83   LPCM 2.0 2304Kbps (48kHz/24-bit)

Код:
DISC INFO:
Disc Title:     DAIKANSHASAI_0309_BD
Disc Size:      47 040 672 095 bytes
Protection:     AACS
BD-Java:        No
BDInfo:         0.5.8
PLAYLIST REPORT:
Name:                   00001.MPLS
Length:                 0:00:27.527 (h:m:s.ms)
Size:                   133 816 320 bytes
Total Bitrate:          38,89 Mbps
VIDEO:
Codec                   Bitrate             Description
-----                   -------             -----------
MPEG-4 AVC Video        34825 kbps          1080i / 29,970 fps / 16:9 / High Profile 4.1
AUDIO:
Codec                           Language        Bitrate         Description
-----                           --------        -------         -----------
LPCM Audio                      Japanese        2304 kbps       2.0 / 48 kHz / 2304 kbps / 24-bit
FILES:
Name            Time In         Length          Size            Total Bitrate
----            -------         ------          ----            -------------
00007.M2TS      0:00:00.000     0:00:27.527     133 816 320     38 889
CHAPTERS:
Number          Time In         Length          Avg Video Rate  Max 1-Sec Rate  Max 1-Sec Time  Max 5-Sec Rate  Max 5-Sec Time  Max 10Sec Rate  Max 10Sec Time  Avg Frame Size  Max Frame Size  Max Frame Time
------          -------         ------          --------------  --------------  --------------  --------------  --------------  --------------  --------------  --------------  --------------  --------------
1               0:00:00.000     0:00:27.527     34 825 kbps     37 356 kbps     00:00:15.081    35 401 kbps     00:00:01.067    35 045 kbps     00:00:11.111    145 251 bytes   372 541 bytes   00:00:16.015
STREAM DIAGNOSTICS:
File            PID             Type            Codec           Language                Seconds                 Bitrate                 Bytes           Packets
----            ---             ----            -----           --------                --------------          --------------          -------------   -----
00007.M2TS      4113 (0x1011)   0x1B            AVC                                     27,394                  34 995                  119 832 049     651 978
00007.M2TS      4352 (0x1100)   0x80            LPCM            jpn (Japanese)          27,394                  2 321                   7 949 220       44 040

QUICK SUMMARY:
Disc Title: DAIKANSHASAI_0309_BD
Disc Size: 47 040 672 095 bytes
Protection: AACS
BD-Java: No
Playlist: 00001.MPLS
Size: 133 816 320 bytes
Length: 0:00:27.527
Total Bitrate: 38,89 Mbps
Video: MPEG-4 AVC Video / 34825 kbps / 1080i / 29,970 fps / 16:9 / High Profile 4.1
Audio: Japanese / LPCM Audio / 2.0 / 48 kHz / 2304 kbps / 24-bit

Диск 3
Disc Title: DAIKANSHASAI_SP_BD
Disc Size: 23 899 150 315 bytes
Protection: AACS
BD-Java: No
BDInfo: 0.5.8
Notes:
BDINFO HOME:
Cinema Squid
http://www.cinemasquid.com/blu-ray/tools/bdinfo
INCLUDES FORUMS REPORT FOR:
AVS Forum Blu-ray Audio and Video Specifications Thread
http://www.avsforum.com/avs-vb/showthread.php?t=1155731
********************
PLAYLIST: 00000.MPLS
********************

Код:

                                                                                Total   Video
Title                                                           Codec   Length  Movie Size      Disc Size       Bitrate Bitrate Main Audio Track                          Secondary Audio Track
-----                                                           ------  ------- --------------  --------------  ------- ------- ------------------                        ---------------------
00000.MPLS                                                      AVC     1:09:37 18 425 548 800  23 899 150 315  35,29   31,98   LPCM 2.0 1536Kbps (48kHz/16-bit)

Код:
DISC INFO:
Disc Title:     DAIKANSHASAI_SP_BD
Disc Size:      23 899 150 315 bytes
Protection:     AACS
BD-Java:        No
BDInfo:         0.5.8
PLAYLIST REPORT:
Name:                   00000.MPLS
Length:                 1:09:37.206 (h:m:s.ms)
Size:                   18 425 548 800 bytes
Total Bitrate:          35,29 Mbps
VIDEO:
Codec                   Bitrate             Description
-----                   -------             -----------
MPEG-4 AVC Video        31976 kbps          1080i / 29,970 fps / 16:9 / High Profile 4.1
AUDIO:
Codec                           Language        Bitrate         Description
-----                           --------        -------         -----------
LPCM Audio                      Japanese        1536 kbps       2.0 / 48 kHz / 1536 kbps / 16-bit
FILES:
Name            Time In         Length          Size            Total Bitrate
----            -------         ------          ----            -------------
00000.M2TS      0:00:00.000     1:09:37.206     18 425 548 800  35 288
CHAPTERS:
Number          Time In         Length          Avg Video Rate  Max 1-Sec Rate  Max 1-Sec Time  Max 5-Sec Rate  Max 5-Sec Time  Max 10Sec Rate  Max 10Sec Time  Avg Frame Size  Max Frame Size  Max Frame Time
------          -------         ------          --------------  --------------  --------------  --------------  --------------  --------------  --------------  --------------  --------------  --------------
1               0:00:00.000     0:03:46.326     30 877 kbps     41 632 kbps     00:03:44.791    38 199 kbps     00:01:05.865    37 020 kbps     00:01:00.894    128 766 bytes   506 384 bytes   00:01:21.781
2               0:03:46.326     0:07:20.740     33 270 kbps     40 726 kbps     00:06:42.034    38 924 kbps     00:07:07.693    38 607 kbps     00:07:24.377    138 764 bytes   335 014 bytes   00:06:42.869
3               0:11:07.066     0:04:39.145     34 112 kbps     42 172 kbps     00:12:11.831    39 097 kbps     00:13:02.982    38 923 kbps     00:12:57.977    142 276 bytes   333 738 bytes   00:15:45.544
4               0:15:46.211     0:19:50.956     32 774 kbps     41 411 kbps     00:16:40.733    38 913 kbps     00:20:14.846    38 770 kbps     00:20:12.844    136 696 bytes   348 905 bytes   00:16:45.137
5               0:35:37.168     0:00:37.570     34 696 kbps     45 093 kbps     00:36:12.570    38 826 kbps     00:35:58.589    38 745 kbps     00:35:56.888    144 711 bytes   298 846 bytes   00:36:13.271
6               0:36:14.739     0:11:22.048     30 911 kbps     40 151 kbps     00:47:03.654    38 919 kbps     00:47:01.418    38 789 kbps     00:46:56.480    128 924 bytes   303 971 bytes   00:47:00.083
7               0:47:36.787     0:09:22.328     31 942 kbps     45 188 kbps     00:52:32.883    39 493 kbps     00:55:02.866    39 140 kbps     00:54:57.827    133 225 bytes   420 619 bytes   00:55:57.454
8               0:56:59.115     0:04:56.729     30 067 kbps     38 572 kbps     01:01:54.243    32 228 kbps     00:57:03.453    31 484 kbps     00:57:01.317    125 405 bytes   329 011 bytes   01:01:55.044
9               1:01:55.845     0:03:54.567     31 098 kbps     46 484 kbps     01:05:35.898    39 156 kbps     01:05:20.783    35 170 kbps     01:03:25.401    129 705 bytes   465 426 bytes   01:05:50.413
10              1:05:50.413     0:03:46.793     29 977 kbps     38 770 kbps     01:07:30.846    32 073 kbps     01:09:21.690    31 342 kbps     01:09:16.619    125 048 bytes   465 413 bytes   01:05:51.414
STREAM DIAGNOSTICS:
File            PID             Type            Codec           Language                Seconds                 Bitrate                 Bytes           Packets
----            ---             ----            -----           --------                --------------          --------------          -------------   -----
00000.M2TS      4113 (0x1011)   0x1B            AVC                                     4177,073                31 977                  16 696 273 065  90 813 800
00000.M2TS      4352 (0x1100)   0x80            LPCM            jpn (Japanese)          4177,073                1 542                   805 365 124     5 012 646

QUICK SUMMARY:
Disc Title: DAIKANSHASAI_SP_BD
Disc Size: 23 899 150 315 bytes
Protection: AACS
BD-Java: No
Playlist: 00000.MPLS
Size: 18 425 548 800 bytes
Length: 1:09:37.206
Total Bitrate: 35,29 Mbps
Video: MPEG-4 AVC Video / 31976 kbps / 1080i / 29,970 fps / 16:9 / High Profile 4.1
Audio: Japanese / LPCM Audio / 2.0 / 48 kHz / 1536 kbps / 16-bit
********************
PLAYLIST: 00002.MPLS
********************

Код:

                                                                                Total   Video
Title                                                           Codec   Length  Movie Size      Disc Size       Bitrate Bitrate Main Audio Track                          Secondary Audio Track
-----                                                           ------  ------- --------------  --------------  ------- ------- ------------------                        ---------------------
00002.MPLS                                                      AVC     0:10:36 2 809 774 080   23 899 150 315  35,31   31,99   LPCM 2.0 1536Kbps (48kHz/16-bit)

Код:
DISC INFO:
Disc Title:     DAIKANSHASAI_SP_BD
Disc Size:      23 899 150 315 bytes
Protection:     AACS
BD-Java:        No
BDInfo:         0.5.8
PLAYLIST REPORT:
Name:                   00002.MPLS
Length:                 0:10:36.636 (h:m:s.ms)
Size:                   2 809 774 080 bytes
Total Bitrate:          35,31 Mbps
VIDEO:
Codec                   Bitrate             Description
-----                   -------             -----------
MPEG-4 AVC Video        31995 kbps          1080i / 29,970 fps / 16:9 / High Profile 4.1
AUDIO:
Codec                           Language        Bitrate         Description
-----                           --------        -------         -----------
LPCM Audio                      Japanese        1536 kbps       2.0 / 48 kHz / 1536 kbps / 16-bit
FILES:
Name            Time In         Length          Size            Total Bitrate
----            -------         ------          ----            -------------
00002.M2TS      0:00:00.000     0:10:36.636     2 809 774 080   35 308
CHAPTERS:
Number          Time In         Length          Avg Video Rate  Max 1-Sec Rate  Max 1-Sec Time  Max 5-Sec Rate  Max 5-Sec Time  Max 10Sec Rate  Max 10Sec Time  Avg Frame Size  Max Frame Size  Max Frame Time
------          -------         ------          --------------  --------------  --------------  --------------  --------------  --------------  --------------  --------------  --------------  --------------
1               0:00:00.000     0:10:36.636     31 995 kbps     44 735 kbps     00:02:35.488    38 297 kbps     00:04:29.669    37 123 kbps     00:04:25.098    133 446 bytes   363 287 bytes   00:01:37.931
STREAM DIAGNOSTICS:
File            PID             Type            Codec           Language                Seconds                 Bitrate                 Bytes           Packets
----            ---             ----            -----           --------                --------------          --------------          -------------   -----
00002.M2TS      4113 (0x1011)   0x1B            AVC                                     636,503                 32 002                  2 546 141 484   13 848 927
00002.M2TS      4352 (0x1100)   0x80            LPCM            jpn (Japanese)          636,503                 1 543                   122 743 228     763 962

QUICK SUMMARY:
Disc Title: DAIKANSHASAI_SP_BD
Disc Size: 23 899 150 315 bytes
Protection: AACS
BD-Java: No
Playlist: 00002.MPLS
Size: 2 809 774 080 bytes
Length: 0:10:36.636
Total Bitrate: 35,31 Mbps
Video: MPEG-4 AVC Video / 31995 kbps / 1080i / 29,970 fps / 16:9 / High Profile 4.1
Audio: Japanese / LPCM Audio / 2.0 / 48 kHz / 1536 kbps / 16-bit
********************
PLAYLIST: 00001.MPLS
********************

Код:

                                                                                Total   Video
Title                                                           Codec   Length  Movie Size      Disc Size       Bitrate Bitrate Main Audio Track                          Secondary Audio Track
-----                                                           ------  ------- --------------  --------------  ------- ------- ------------------                        ---------------------
00001.MPLS                                                      AVC     0:06:21 1 683 259 392   23 899 150 315  35,31   32,00   LPCM 2.0 1536Kbps (48kHz/16-bit)

Код:
DISC INFO:
Disc Title:     DAIKANSHASAI_SP_BD
Disc Size:      23 899 150 315 bytes
Protection:     AACS
BD-Java:        No
BDInfo:         0.5.8
PLAYLIST REPORT:
Name:                   00001.MPLS
Length:                 0:06:21.381 (h:m:s.ms)
Size:                   1 683 259 392 bytes
Total Bitrate:          35,31 Mbps
VIDEO:
Codec                   Bitrate             Description
-----                   -------             -----------
MPEG-4 AVC Video        31996 kbps          1080i / 29,970 fps / 16:9 / High Profile 4.1
AUDIO:
Codec                           Language        Bitrate         Description
-----                           --------        -------         -----------
LPCM Audio                      Japanese        1536 kbps       2.0 / 48 kHz / 1536 kbps / 16-bit
FILES:
Name            Time In         Length          Size            Total Bitrate
----            -------         ------          ----            -------------
00001.M2TS      0:00:00.000     0:06:21.381     1 683 259 392   35 309
CHAPTERS:
Number          Time In         Length          Avg Video Rate  Max 1-Sec Rate  Max 1-Sec Time  Max 5-Sec Rate  Max 5-Sec Time  Max 10Sec Rate  Max 10Sec Time  Avg Frame Size  Max Frame Size  Max Frame Time
------          -------         ------          --------------  --------------  --------------  --------------  --------------  --------------  --------------  --------------  --------------  --------------
1               0:00:00.000     0:06:21.381     31 996 kbps     39 303 kbps     00:01:27.220    38 657 kbps     00:01:23.216    36 709 kbps     00:01:03.163    133 450 bytes   468 518 bytes   00:06:19.779
STREAM DIAGNOSTICS:
File            PID             Type            Codec           Language                Seconds                 Bitrate                 Bytes           Packets
----            ---             ----            -----           --------                --------------          --------------          -------------   -----
00001.M2TS      4113 (0x1011)   0x1B            AVC                                     381,248                 32 007                  1 525 331 736   8 296 524
00001.M2TS      4352 (0x1100)   0x80            LPCM            jpn (Japanese)          381,248                 1 543                   73 530 064      457 656

QUICK SUMMARY:
Disc Title: DAIKANSHASAI_SP_BD
Disc Size: 23 899 150 315 bytes
Protection: AACS
BD-Java: No
Playlist: 00001.MPLS
Size: 1 683 259 392 bytes
Length: 0:06:21.381
Total Bitrate: 35,31 Mbps
Video: MPEG-4 AVC Video / 31996 kbps / 1080i / 29,970 fps / 16:9 / High Profile 4.1
Audio: Japanese / LPCM Audio / 2.0 / 48 kHz / 1536 kbps / 16-bit
********************
PLAYLIST: 00006.MPLS
********************

Код:

                                                                                Total   Video
Title                                                           Codec   Length  Movie Size      Disc Size       Bitrate Bitrate Main Audio Track                          Secondary Audio Track
-----                                                           ------  ------- --------------  --------------  ------- ------- ------------------                        ---------------------
00006.MPLS                                                      AVC     0:05:01 557 082 624     23 899 150 315  14,79   12,33   LPCM 2.0 1536Kbps (48kHz/16-bit)

Код:
DISC INFO:
Disc Title:     DAIKANSHASAI_SP_BD
Disc Size:      23 899 150 315 bytes
Protection:     AACS
BD-Java:        No
BDInfo:         0.5.8
PLAYLIST REPORT:
Name:                   00006.MPLS
Length:                 0:05:01.301 (h:m:s.ms)
Size:                   557 082 624 bytes
Total Bitrate:          14,79 Mbps
VIDEO:
Codec                   Bitrate             Description
-----                   -------             -----------
MPEG-4 AVC Video        12334 kbps          1080i / 29,970 fps / 16:9 / High Profile 4.1
AUDIO:
Codec                           Language        Bitrate         Description
-----                           --------        -------         -----------
LPCM Audio                      Japanese        1536 kbps       2.0 / 48 kHz / 1536 kbps / 16-bit
SUBTITLES:
Codec                           Language        Bitrate         Description
-----                           --------        -------         -----------
Interactive Graphics            Japanese        0,772 kbps
FILES:
Name            Time In         Length          Size            Total Bitrate
----            -------         ------          ----            -------------
00008.M2TS      0:00:00.000     0:05:00.299     552 290 304     14 713
00009.M2TS      0:05:00.299     0:00:01.001     4 792 320       38 300
CHAPTERS:
Number          Time In         Length          Avg Video Rate  Max 1-Sec Rate  Max 1-Sec Time  Max 5-Sec Rate  Max 5-Sec Time  Max 10Sec Rate  Max 10Sec Time  Avg Frame Size  Max Frame Size  Max Frame Time
------          -------         ------          --------------  --------------  --------------  --------------  --------------  --------------  --------------  --------------  --------------  --------------
1               0:00:00.000     0:05:01.301     12 334 kbps     34 825 kbps     00:05:00.266    15 925 kbps     00:04:56.262    14 516 kbps     00:04:51.257    51 442 bytes    742 881 bytes   00:02:33.153
STREAM DIAGNOSTICS:
File            PID             Type            Codec           Language                Seconds                 Bitrate                 Bytes           Packets
----            ---             ----            -----           --------                --------------          --------------          -------------   -----
00008.M2TS      4113 (0x1011)   0x1B            AVC                                     300,200                 12 263                  460 165 141     2 505 901
00008.M2TS      4352 (0x1100)   0x80            LPCM            jpn (Japanese)          300,200                 1 543                   57 897 840      360 360
00008.M2TS      5120 (0x1400)   0x91            IGS             jpn (Japanese)          300,200                 1                       28 976          163
00009.M2TS      4113 (0x1011)   0x1B            AVC                                     0,868                   40 183                  4 357 534       23 708
00009.M2TS      4352 (0x1100)   0x80            LPCM            jpn (Japanese)          0,868                   1 778                   192 800         1 200
00009.M2TS      5120 (0x1400)   0x91            IGS             jpn (Japanese)          0,868                   1                       109             3

QUICK SUMMARY:
Disc Title: DAIKANSHASAI_SP_BD
Disc Size: 23 899 150 315 bytes
Protection: AACS
BD-Java: No
Playlist: 00006.MPLS
Size: 557 082 624 bytes
Length: 0:05:01.301
Total Bitrate: 14,79 Mbps
Video: MPEG-4 AVC Video / 12334 kbps / 1080i / 29,970 fps / 16:9 / High Profile 4.1
Audio: Japanese / LPCM Audio / 2.0 / 48 kHz / 1536 kbps / 16-bit
Subtitle: Japanese / 0,772 kbps
********************
PLAYLIST: 00003.MPLS
********************

Код:

                                                                                Total   Video
Title                                                           Codec   Length  Movie Size      Disc Size       Bitrate Bitrate Main Audio Track                          Secondary Audio Track
-----                                                           ------  ------- --------------  --------------  ------- ------- ------------------                        ---------------------
00003.MPLS                                                      AVC     0:00:33 145 747 968     23 899 150 315  35,30   31,98   LPCM 2.0 1536Kbps (48kHz/16-bit)

Код:
DISC INFO:
Disc Title:     DAIKANSHASAI_SP_BD
Disc Size:      23 899 150 315 bytes
Protection:     AACS
BD-Java:        No
BDInfo:         0.5.8
PLAYLIST REPORT:
Name:                   00003.MPLS
Length:                 0:00:33.032 (h:m:s.ms)
Size:                   145 747 968 bytes
Total Bitrate:          35,30 Mbps
VIDEO:
Codec                   Bitrate             Description
-----                   -------             -----------
MPEG-4 AVC Video        31984 kbps          1080i / 29,970 fps / 16:9 / High Profile 4.1
AUDIO:
Codec                           Language        Bitrate         Description
-----                           --------        -------         -----------
LPCM Audio                      Japanese        1536 kbps       2.0 / 48 kHz / 1536 kbps / 16-bit
FILES:
Name            Time In         Length          Size            Total Bitrate
----            -------         ------          ----            -------------
00003.M2TS      0:00:00.000     0:00:17.016     75 085 824      35 299
00005.M2TS      0:00:17.016     0:00:16.015     70 662 144      35 296
CHAPTERS:
Number          Time In         Length          Avg Video Rate  Max 1-Sec Rate  Max 1-Sec Time  Max 5-Sec Rate  Max 5-Sec Time  Max 10Sec Rate  Max 10Sec Time  Avg Frame Size  Max Frame Size  Max Frame Time
------          -------         ------          --------------  --------------  --------------  --------------  --------------  --------------  --------------  --------------  --------------  --------------
1               0:00:00.000     0:00:17.016     32 091 kbps     38 801 kbps     00:00:06.706    35 361 kbps     00:00:02.769    33 889 kbps     00:00:00.200    133 584 bytes   296 318 bytes   00:00:10.643
2               0:00:17.016     0:00:16.015     31 870 kbps     39 656 kbps     00:00:21.354    35 099 kbps     00:00:21.087    33 027 kbps     00:00:19.519    133 204 bytes   324 923 bytes   00:00:27.694
STREAM DIAGNOSTICS:
File            PID             Type            Codec           Language                Seconds                 Bitrate                 Bytes           Packets
----            ---             ----            -----           --------                --------------          --------------          -------------   -----
00003.M2TS      4113 (0x1011)   0x1B            AVC                                     16,884                  32 236                  68 032 090      370 049
00003.M2TS      4352 (0x1100)   0x80            LPCM            jpn (Japanese)          16,884                  1 555                   3 281 456       20 424
00005.M2TS      4113 (0x1011)   0x1B            AVC                                     15,883                  32 254                  64 034 058      348 304
00005.M2TS      4352 (0x1100)   0x80            LPCM            jpn (Japanese)          15,883                  1 555                   3 087 692       19 218

QUICK SUMMARY:
Disc Title: DAIKANSHASAI_SP_BD
Disc Size: 23 899 150 315 bytes
Protection: AACS
BD-Java: No
Playlist: 00003.MPLS
Size: 145 747 968 bytes
Length: 0:00:33.032
Total Bitrate: 35,30 Mbps
Video: MPEG-4 AVC Video / 31984 kbps / 1080i / 29,970 fps / 16:9 / High Profile 4.1
Audio: Japanese / LPCM Audio / 2.0 / 48 kHz / 1536 kbps / 16-bit
********************
PLAYLIST: 00004.MPLS
********************

Код:

                                                                                Total   Video
Title                                                           Codec   Length  Movie Size      Disc Size       Bitrate Bitrate Main Audio Track                          Secondary Audio Track
-----                                                           ------  ------- --------------  --------------  ------- ------- ------------------                        ---------------------
00004.MPLS                                                      AVC     0:00:33 145 760 256     23 899 150 315  35,30   31,99   LPCM 2.0 1536Kbps (48kHz/16-bit)

Код:
DISC INFO:
Disc Title:     DAIKANSHASAI_SP_BD
Disc Size:      23 899 150 315 bytes
Protection:     AACS
BD-Java:        No
BDInfo:         0.5.8
PLAYLIST REPORT:
Name:                   00004.MPLS
Length:                 0:00:33.032 (h:m:s.ms)
Size:                   145 760 256 bytes
Total Bitrate:          35,30 Mbps
VIDEO:
Codec                   Bitrate             Description
-----                   -------             -----------
MPEG-4 AVC Video        31986 kbps          1080i / 29,970 fps / 16:9 / High Profile 4.1
AUDIO:
Codec                           Language        Bitrate         Description
-----                           --------        -------         -----------
LPCM Audio                      Japanese        1536 kbps       2.0 / 48 kHz / 1536 kbps / 16-bit
FILES:
Name            Time In         Length          Size            Total Bitrate
----            -------         ------          ----            -------------
00004.M2TS      0:00:00.000     0:00:17.016     75 091 968      35 302
00006.M2TS      0:00:17.016     0:00:16.015     70 668 288      35 299
CHAPTERS:
Number          Time In         Length          Avg Video Rate  Max 1-Sec Rate  Max 1-Sec Time  Max 5-Sec Rate  Max 5-Sec Time  Max 10Sec Rate  Max 10Sec Time  Avg Frame Size  Max Frame Size  Max Frame Time
------          -------         ------          --------------  --------------  --------------  --------------  --------------  --------------  --------------  --------------  --------------  --------------
1               0:00:00.000     0:00:17.016     32 092 kbps     38 916 kbps     00:00:06.806    35 454 kbps     00:00:02.802    33 908 kbps     00:00:00.200    133 589 bytes   292 017 bytes   00:00:10.643
2               0:00:17.016     0:00:16.015     31 873 kbps     39 644 kbps     00:00:21.354    35 230 kbps     00:00:21.087    33 141 kbps     00:00:19.586    133 216 bytes   309 249 bytes   00:00:27.694
STREAM DIAGNOSTICS:
File            PID             Type            Codec           Language                Seconds                 Bitrate                 Bytes           Packets
----            ---             ----            -----           --------                --------------          --------------          -------------   -----
00004.M2TS      4113 (0x1011)   0x1B            AVC                                     16,884                  32 239                  68 039 212      370 094
00004.M2TS      4352 (0x1100)   0x80            LPCM            jpn (Japanese)          16,884                  1 555                   3 281 456       20 424
00006.M2TS      4113 (0x1011)   0x1B            AVC                                     15,883                  32 254                  64 035 106      348 314
00006.M2TS      4352 (0x1100)   0x80            LPCM            jpn (Japanese)          15,883                  1 555                   3 087 692       19 218

QUICK SUMMARY:
Disc Title: DAIKANSHASAI_SP_BD
Disc Size: 23 899 150 315 bytes
Protection: AACS
BD-Java: No
Playlist: 00004.MPLS
Size: 145 760 256 bytes
Length: 0:00:33.032
Total Bitrate: 35,30 Mbps
Video: MPEG-4 AVC Video / 31986 kbps / 1080i / 29,970 fps / 16:9 / High Profile 4.1
Audio: Japanese / LPCM Audio / 2.0 / 48 kHz / 1536 kbps / 16-bit
********************
PLAYLIST: 00005.MPLS
********************

Код:

                                                                                Total   Video
Title                                                           Codec   Length  Movie Size      Disc Size       Bitrate Bitrate Main Audio Track                          Secondary Audio Track
-----                                                           ------  ------- --------------  --------------  ------- ------- ------------------                        ---------------------
00005.MPLS                                                      AVC     0:00:27 131 702 784     23 899 150 315  38,28   34,83   LPCM 2.0 1536Kbps (48kHz/16-bit)

Код:
DISC INFO:
Disc Title:     DAIKANSHASAI_SP_BD
Disc Size:      23 899 150 315 bytes
Protection:     AACS
BD-Java:        No
BDInfo:         0.5.8
PLAYLIST REPORT:
Name:                   00005.MPLS
Length:                 0:00:27.527 (h:m:s.ms)
Size:                   131 702 784 bytes
Total Bitrate:          38,28 Mbps
VIDEO:
Codec                   Bitrate             Description
-----                   -------             -----------
MPEG-4 AVC Video        34825 kbps          1080i / 29,970 fps / 16:9 / High Profile 4.1
AUDIO:
Codec                           Language        Bitrate         Description
-----                           --------        -------         -----------
LPCM Audio                      Japanese        1536 kbps       2.0 / 48 kHz / 1536 kbps / 16-bit
FILES:
Name            Time In         Length          Size            Total Bitrate
----            -------         ------          ----            -------------
00007.M2TS      0:00:00.000     0:00:27.527     131 702 784     38 275
CHAPTERS:
Number          Time In         Length          Avg Video Rate  Max 1-Sec Rate  Max 1-Sec Time  Max 5-Sec Rate  Max 5-Sec Time  Max 10Sec Rate  Max 10Sec Time  Avg Frame Size  Max Frame Size  Max Frame Time
------          -------         ------          --------------  --------------  --------------  --------------  --------------  --------------  --------------  --------------  --------------  --------------
1               0:00:00.000     0:00:27.527     34 825 kbps     37 356 kbps     00:00:15.081    35 401 kbps     00:00:01.067    35 045 kbps     00:00:11.111    145 251 bytes   372 541 bytes   00:00:16.015
STREAM DIAGNOSTICS:
File            PID             Type            Codec           Language                Seconds                 Bitrate                 Bytes           Packets
----            ---             ----            -----           --------                --------------          --------------          -------------   -----
00007.M2TS      4113 (0x1011)   0x1B            AVC                                     27,394                  34 995                  119 832 049     651 978
00007.M2TS      4352 (0x1100)   0x80            LPCM            jpn (Japanese)          27,394                  1 550                   5 306 820       33 030

QUICK SUMMARY:
Disc Title: DAIKANSHASAI_SP_BD
Disc Size: 23 899 150 315 bytes
Protection: AACS
BD-Java: No
Playlist: 00005.MPLS
Size: 131 702 784 bytes
Length: 0:00:27.527
Total Bitrate: 38,28 Mbps
Video: MPEG-4 AVC Video / 34825 kbps / 1080i / 29,970 fps / 16:9 / High Profile 4.1
Audio: Japanese / LPCM Audio / 2.0 / 48 kHz / 1536 kbps / 16-bit


Скриншоты








Live CD (lossless) | BDrip 1080p | BDrip 720p                                                                                       
                       
                       
                       
                       
                       
                                磁力下载:(论坛代下载服务)
                                                               
                                       
游客,本主题需向作者支付 7音乐币 才能浏览,金币充值, 免回复、免金币,直接查看内容请开通VIP支付

                                               
  • 110.43 GB
  • 温馨提示

    记得善用社区搜索功能,那里可能会有你想要的资源;论坛站内搜索

    如果你有什么需要的资源可以去资源求档发帖,求助社区的网友,我们会在第一时间给你回复哦;资源求档

    对于本社区网盘链接失效密码错误各种报错请在反馈板块反馈报错发帖,您的支持,是我们发展的最大动力;投诉建议

    回复

    使用道具 举报

    您需要登录后才可以回帖 登录 | 立即注册 微信登录

    本版积分规则

    关注0

    粉丝0

    帖子30073

    发布主题
    阅读排行更多+
    关闭

    站长推荐上一条 /1 下一条

    收藏帖子 返回列表 这是一个自定义按钮
    音乐分享,音乐下载。
    微信公众号
    微信号:hires_
    意见反馈:admin@maomicd.com

    加入我们的官方QQ群和微信群

    Powered by Discuz! X3.4 Archiver|手机版|小黑屋|捌零音乐论坛 ( 苏ICP备20015413号 )|( 苏公网安备 32030502000272号) 繁體

    GMT+8, 2021-5-18 19:32