自购原抓音乐圈:只有自购、合购、原抓级高解析(hires、sacd、dsd)正版音乐资源分享!【点我打开
极速无线网卡:千兆无线网卡、服务器网卡、USB接口台式机笔记本网卡 硬盘代考无损音乐!【点我打开
广告

[日韩音乐] Red Velvet - 日本的第2音乐会'Redmare'[2019,KPOP,Blu-ray,1080p]

[复制链接]
10086 发表于 2021-4-13 15:37:45 | 显示全部楼层 |阅读模式 打印 上一主题 下一主题
Red Velvet - 2nd Concert 'REDMARE' In Japan
Жанр: Kpop
Продолжительность: 02:30:52 + 00:28:17
Год выпуска: 2019
Качество: Blu-ray
Разрешение видео/развертка: 1080p
Контейнер: BDMV
Видео кодек: H.264
Аудио кодек: PCM
Видео: MPEG-4 AVC Video / 29000 kbps / 1080p / 23.976 fps / 16:9 / High Profile 4.1
Аудио: Japanese / LPCM Audio / 2.0 / 48 kHz / 2304 kbps / 24-bit
Треклист
01. VCR 1 / Intro
02. Russian Roulette (Japanese Version)
03. Power Up
04. #Cookie Jar
05. ~Talk 1~
06. My Second Date (Remix) / [Solo dances]
07. Mosquito
08. Look
09. VCR 2
10. Mr.E
11. Zoo
12. Happiness
13. Hit That Drum
14. VCR 3
15. Lucky Girl
16. Sappy Teaser
17. Sappy
18. Bad Dracula
19. All Right
20. ~Talk 2~
21. Blue Lemonade
22. Aitai-tai
23. About Love
24. Moonlight Melody
25. VCR 4
26. Bad Boy
27. Peek-A-Boo
28. ~Talk 3~
29. RBB (Really Bad Boy)
30. Rookie
31. Encore Chant
32. VCR 5
33. [Encore] With You
34. [Encore] Day 1
35. ~Talk 4~
36. [Encore] Red Flavor (Japanese Version)
37. ~Talk 5~ / Outro
28. Credits
Red Velvet - Documentary of 2nd Concert 'REDMARE' In Japan [00:28:17]
01. Intro
02. 2019.01.05 Marine Messe Fukuoka Rehearsal Before Concert
03. 2019.01.06 Marine Messe Fukuoka - First Day of Tour
04. 2019.01.12 Kobe World Hall Day 1
05. 2019.01.13 Kobe World Hall Day 2
06. 2019.01.29 Yokohama Arena Day 1
07. 2019.01.30 Yokohama Arena Day 2 - Last Day of Tour

BDInfo

Disc Label:     Red Velvet - 2nd Concert 'REDMARE' In Japan
Disc Size:      44,635,095,092 bytes
Protection:     AACS
BDInfo:         0.7.5.5
Notes:
BDINFO HOME:
  Cinema Squid (old)
    http://www.cinemasquid.com/blu-ray/tools/bdinfo
  UniqProject GitHub (new)
   https://github.com/UniqProject/BDInfo
INCLUDES FORUMS REPORT FOR:
  AVS Forum Blu-ray Audio and Video Specifications Thread
    http://www.avsforum.com/avs-vb/showthread.php?t=1155731
********************
PLAYLIST: 00001.MPLS
********************

Код:

                                                                                Total   Video
Title                                                           Codec   Length  Movie Size      Disc Size       Bitrate Bitrate Main Audio Track                          Secondary Audio Track
-----                                                           ------  ------- --------------  --------------  ------- ------- ------------------                        ---------------------
00001.MPLS                                                      AVC     2:30:52 37,103,566,848  44,635,095,092  32.79   29.00   LPCM 2.0 2304Kbps (48kHz/24-bit)

Код:
DISC INFO:
Disc Label:     Red Velvet - 2nd Concert 'REDMARE' In Japan
Disc Size:      44,635,095,092 bytes
Protection:     AACS
BDInfo:         0.7.5.5
PLAYLIST REPORT:
Name:                   00001.MPLS
Length:                 2:30:52.043 (h:m:s.ms)
Size:                   37,103,566,848 bytes
Total Bitrate:          32.79 Mbps
VIDEO:
Codec                   Bitrate             Description
-----                   -------             -----------
MPEG-4 AVC Video        29000 kbps          1080p / 23.976 fps / 16:9 / High Profile 4.1
AUDIO:
Codec                           Language        Bitrate         Description
-----                           --------        -------         -----------
LPCM Audio                      Japanese        2304 kbps       2.0 / 48 kHz /  2304 kbps / 24-bit
FILES:
Name            Time In         Length          Size            Total Bitrate
----            -------         ------          ----            -------------
00001.M2TS      0:00:00.000     2:30:52.043     37,103,566,848  32,791
CHAPTERS:
Number          Time In         Length          Avg Video Rate  Max 1-Sec Rate  Max 1-Sec Time  Max 5-Sec Rate  Max 5-Sec Time  Max 10Sec Rate  Max 10Sec Time  Avg Frame Size  Max Frame Size  Max Frame Time
------          -------         ------          --------------  --------------  --------------  --------------  --------------  --------------  --------------  --------------  --------------  --------------
1               0:00:00.000     0:03:57.987     26,881 kbps     38,738 kbps     00:03:45.058    36,836 kbps     00:00:29.529    36,421 kbps     00:00:26.067    140,122 bytes   493,100 bytes   00:00:00.000
2               0:03:57.987     0:03:31.461     33,678 kbps     41,637 kbps     00:04:13.127    36,342 kbps     00:05:50.850    36,107 kbps     00:05:50.641    175,584 bytes   366,328 bytes   00:04:47.578
3               0:07:29.448     0:03:25.205     35,085 kbps     40,803 kbps     00:10:23.581    37,155 kbps     00:08:57.203    36,479 kbps     00:08:56.536    182,920 bytes   348,815 bytes   00:07:41.752
4               0:10:54.654     0:03:53.524     34,129 kbps     39,410 kbps     00:13:24.094    36,858 kbps     00:12:04.390    36,252 kbps     00:14:16.188    177,931 bytes   330,269 bytes   00:11:17.843
5               0:14:48.178     0:03:19.908     25,484 kbps     37,854 kbps     00:15:36.143    33,749 kbps     00:15:26.175    31,692 kbps     00:15:27.176    132,863 bytes   364,050 bytes   00:15:36.810
6               0:18:08.087     0:02:16.010     29,837 kbps     37,741 kbps     00:19:30.711    35,999 kbps     00:18:23.602    34,543 kbps     00:19:07.938    155,555 bytes   360,885 bytes   00:19:07.980
7               0:20:24.097     0:03:12.150     32,888 kbps     41,214 kbps     00:22:45.238    36,914 kbps     00:23:26.363    36,711 kbps     00:23:21.233    171,462 bytes   372,982 bytes   00:20:41.281
8               0:23:36.248     0:04:11.417     31,399 kbps     39,410 kbps     00:27:35.612    36,765 kbps     00:23:37.874    36,544 kbps     00:27:09.002    163,702 bytes   445,716 bytes   00:25:33.406
9               0:27:47.666     0:04:24.681     28,177 kbps     38,991 kbps     00:30:19.067    36,396 kbps     00:32:07.342    35,272 kbps     00:32:02.337    146,903 bytes   635,436 bytes   00:28:36.965
10              0:32:12.347     0:03:35.798     35,475 kbps     40,109 kbps     00:35:40.471    37,104 kbps     00:35:36.592    36,631 kbps     00:35:31.504    184,949 bytes   408,669 bytes   00:32:30.948
11              0:35:48.145     0:03:34.213     31,725 kbps     37,986 kbps     00:38:27.221    36,696 kbps     00:37:32.833    35,573 kbps     00:37:41.300    165,402 bytes   320,892 bytes   00:37:21.530
12              0:39:22.359     0:03:45.225     29,324 kbps     38,535 kbps     00:43:01.412    34,487 kbps     00:42:04.021    33,474 kbps     00:42:01.602    152,883 bytes   334,827 bytes   00:39:31.077
13              0:43:07.585     0:03:33.212     31,669 kbps     39,200 kbps     00:46:29.203    36,849 kbps     00:46:28.452    36,118 kbps     00:43:58.886    165,106 bytes   341,222 bytes   00:45:44.074
14              0:46:40.797     0:03:40.595     25,081 kbps     37,549 kbps     00:49:36.098    35,133 kbps     00:49:33.512    32,060 kbps     00:49:29.883    130,762 bytes   356,206 bytes   00:49:35.639
15              0:50:21.393     0:03:26.831     32,615 kbps     40,606 kbps     00:51:00.974    37,061 kbps     00:50:44.291    36,720 kbps     00:50:39.244    170,038 bytes   420,330 bytes   00:51:26.458
16              0:53:48.225     0:00:18.018     24,116 kbps     31,419 kbps     00:54:04.324    26,345 kbps     00:54:00.737    24,067 kbps     00:53:48.892    125,728 bytes   404,464 bytes   00:53:56.191
17              0:54:06.243     0:03:27.916     30,341 kbps     38,337 kbps     00:55:12.267    36,738 kbps     00:54:09.329    35,346 kbps     00:54:09.329    158,184 bytes   381,806 bytes   00:55:02.674
18              0:57:34.159     0:03:05.602     27,115 kbps     37,363 kbps     00:58:48.775    35,756 kbps     00:59:49.043    32,012 kbps     00:59:47.125    141,363 bytes   302,562 bytes   00:59:36.197
19              1:00:39.761     0:03:48.353     29,724 kbps     39,627 kbps     01:03:31.516    36,429 kbps     01:03:08.075    35,111 kbps     01:03:38.022    154,968 bytes   343,116 bytes   01:03:40.733
20              1:04:28.114     0:14:16.772     25,585 kbps     37,764 kbps     01:08:54.547    36,217 kbps     01:06:56.095    34,482 kbps     01:06:51.924    133,386 bytes   373,395 bytes   01:07:55.780
21              1:18:44.886     0:03:19.032     29,909 kbps     38,282 kbps     01:20:54.641    35,747 kbps     01:19:41.234    34,404 kbps     01:20:39.251    155,933 bytes   309,668 bytes   01:19:57.959
22              1:22:03.919     0:03:15.486     29,160 kbps     37,578 kbps     01:24:38.239    36,600 kbps     01:24:34.986    33,225 kbps     01:22:44.709    152,027 bytes   337,087 bytes   01:25:19.405
23              1:25:19.405     0:03:27.582     27,311 kbps     43,018 kbps     01:28:36.894    35,177 kbps     01:25:19.405    33,950 kbps     01:28:32.640    142,389 bytes   387,548 bytes   01:28:37.603
24              1:28:46.988     0:03:42.555     25,968 kbps     38,099 kbps     01:30:00.853    36,733 kbps     01:29:43.920    33,523 kbps     01:29:44.003    135,387 bytes   319,467 bytes   01:29:45.338
25              1:32:29.544     0:04:43.074     29,334 kbps     41,989 kbps     01:33:37.528    36,496 kbps     01:34:01.677    35,876 kbps     01:34:00.009    152,936 bytes   407,433 bytes   01:36:15.770
26              1:37:12.618     0:03:33.338     34,482 kbps     39,116 kbps     01:38:14.305    36,798 kbps     01:39:34.802    36,523 kbps     01:38:34.825    179,773 bytes   352,778 bytes   01:40:41.744
27              1:40:45.956     0:03:08.563     34,683 kbps     38,659 kbps     01:41:31.710    36,750 kbps     01:41:22.117    36,652 kbps     01:41:19.156    180,821 bytes   328,275 bytes   01:42:42.197
28              1:43:54.519     0:05:18.026     28,318 kbps     37,939 kbps     01:46:54.032    36,534 kbps     01:48:01.516    35,629 kbps     01:45:06.550    147,638 bytes   329,090 bytes   01:45:12.472
29              1:49:12.546     0:03:06.936     31,789 kbps     38,217 kbps     01:52:12.851    36,169 kbps     01:52:08.847    35,439 kbps     01:52:03.842    165,734 bytes   330,104 bytes   01:50:13.690
30              1:52:19.482     0:03:42.472     29,943 kbps     39,272 kbps     01:53:38.019    36,211 kbps     01:54:47.505    35,704 kbps     01:52:34.497    156,108 bytes   349,863 bytes   01:52:31.786
31              1:56:01.955     0:00:16.933     30,798 kbps     37,933 kbps     01:56:08.503    36,649 kbps     01:56:04.415    34,074 kbps     01:56:04.290    160,567 bytes   313,684 bytes   01:56:08.962
32              1:56:18.888     0:02:49.335     25,967 kbps     38,106 kbps     01:56:22.850    34,797 kbps     01:58:01.449    31,671 kbps     01:56:43.371    135,380 bytes   427,177 bytes   01:58:11.876
33              1:59:08.224     0:03:28.208     29,047 kbps     40,206 kbps     02:00:28.471    36,812 kbps     02:00:19.420    36,296 kbps     02:00:19.420    151,435 bytes   352,058 bytes   01:59:12.228
34              2:02:36.432     0:03:24.495     31,258 kbps     37,850 kbps     02:05:13.923    36,760 kbps     02:05:13.923    36,599 kbps     02:05:13.756    162,963 bytes   355,208 bytes   02:03:44.959
35              2:06:00.928     0:13:19.632     26,085 kbps     35,312 kbps     02:12:52.255    33,094 kbps     02:16:27.178    32,410 kbps     02:16:22.173    135,997 bytes   360,168 bytes   02:11:43.103
36              2:19:20.560     0:03:09.272     31,691 kbps     37,814 kbps     02:20:47.313    36,773 kbps     02:20:50.066    36,534 kbps     02:20:48.940    165,224 bytes   310,977 bytes   02:20:54.237
37              2:22:29.832     0:05:26.034     29,376 kbps     38,090 kbps     02:24:08.723    36,771 kbps     02:25:40.064    36,578 kbps     02:26:27.779    153,151 bytes   419,471 bytes   02:24:04.427
38              2:27:55.867     0:02:56.175     9,762 kbps      16,375 kbps     02:27:59.120    13,618 kbps     02:30:21.554    13,120 kbps     02:30:17.591    50,907 bytes    347,720 bytes   02:30:22.013
STREAM DIAGNOSTICS:
File            PID             Type            Codec           Language                Seconds                 Bitrate                 Bytes           Packets
----            ---             ----            -----           --------                --------------          --------------          -------------   -----
00001.M2TS      4113 (0x1011)   0x1B            AVC                                     9051.876                29,000                  32,813,467,366  178,461,235
00001.M2TS      4352 (0x1100)   0x80            LPCM            jpn (Japanese)          9051.876                2,310                   2,614,229,152   14,483,264


QUICK SUMMARY:
Disc Label: Red Velvet - 2nd Concert 'REDMARE' In Japan
Disc Size: 44,635,095,092 bytes
Protection: AACS
Playlist: 00001.MPLS
Size: 37,103,566,848 bytes
Length: 2:30:52.043
Total Bitrate: 32.79 Mbps
Video: MPEG-4 AVC Video / 29000 kbps / 1080p / 23.976 fps / 16:9 / High Profile 4.1
Audio: Japanese / LPCM Audio / 2.0 / 48 kHz /  2304 kbps / 24-bit
********************
PLAYLIST: 00002.MPLS
********************

Код:

                                                                                Total   Video
Title                                                           Codec   Length  Movie Size      Disc Size       Bitrate Bitrate Main Audio Track                          Secondary Audio Track
-----                                                           ------  ------- --------------  --------------  ------- ------- ------------------                        ---------------------
00002.MPLS                                                      AVC     0:28:17 6,955,192,320   44,635,095,092  32.77   28.98   LPCM 2.0 2304Kbps (48kHz/24-bit)

Код:
DISC INFO:
Disc Label:     Red Velvet - 2nd Concert 'REDMARE' In Japan
Disc Size:      44,635,095,092 bytes
Protection:     AACS
BDInfo:         0.7.5.5
PLAYLIST REPORT:
Name:                   00002.MPLS
Length:                 0:28:17.696 (h:m:s.ms)
Size:                   6,955,192,320 bytes
Total Bitrate:          32.77 Mbps
VIDEO:
Codec                   Bitrate             Description
-----                   -------             -----------
MPEG-4 AVC Video        28984 kbps          1080p / 23.976 fps / 16:9 / High Profile 4.1
AUDIO:
Codec                           Language        Bitrate         Description
-----                           --------        -------         -----------
LPCM Audio                      Japanese        2304 kbps       2.0 / 48 kHz /  2304 kbps / 24-bit
FILES:
Name            Time In         Length          Size            Total Bitrate
----            -------         ------          ----            -------------
00002.M2TS      0:00:00.000     0:28:17.696     6,955,192,320   32,775
CHAPTERS:
Number          Time In         Length          Avg Video Rate  Max 1-Sec Rate  Max 1-Sec Time  Max 5-Sec Rate  Max 5-Sec Time  Max 10Sec Rate  Max 10Sec Time  Avg Frame Size  Max Frame Size  Max Frame Time
------          -------         ------          --------------  --------------  --------------  --------------  --------------  --------------  --------------  --------------  --------------  --------------
1               0:00:00.000     0:00:13.263     25,625 kbps     37,057 kbps     00:00:05.964    31,558 kbps     00:00:02.085    29,332 kbps     00:00:01.167    133,177 bytes   390,374 bytes   00:00:00.000
2               0:00:13.263     0:04:19.092     27,614 kbps     37,782 kbps     00:02:18.221    36,750 kbps     00:02:14.342    35,925 kbps     00:00:47.797    143,966 bytes   429,702 bytes   00:03:30.251
3               0:04:32.355     0:06:29.931     28,102 kbps     39,780 kbps     00:06:45.988    36,751 kbps     00:06:07.075    35,683 kbps     00:06:02.862    146,511 bytes   496,823 bytes   00:06:48.991
4               0:11:02.286     0:04:00.073     29,299 kbps     38,185 kbps     00:14:22.319    36,689 kbps     00:11:08.292    36,105 kbps     00:11:25.309    152,750 bytes   390,825 bytes   00:11:03.621
5               0:15:02.359     0:06:02.528     28,440 kbps     38,301 kbps     00:16:45.546    36,747 kbps     00:16:42.292    34,580 kbps     00:16:41.291    148,271 bytes   461,341 bytes   00:15:05.988
6               0:21:04.888     0:03:05.435     29,620 kbps     38,595 kbps     00:22:01.194    36,770 kbps     00:23:15.769    36,299 kbps     00:23:14.768    154,428 bytes   455,899 bytes   00:21:06.723
7               0:24:10.323     0:04:07.372     32,005 kbps     40,065 kbps     00:26:04.938    37,358 kbps     00:26:00.934    36,751 kbps     00:25:56.054    166,915 bytes   526,407 bytes   00:25:32.155
STREAM DIAGNOSTICS:
File            PID             Type            Codec           Language                Seconds                 Bitrate                 Bytes           Packets
----            ---             ----            -----           --------                --------------          --------------          -------------   -----
00002.M2TS      4113 (0x1011)   0x1B            AVC                                     1697.571                28,986                  6,150,763,314   33,451,772
00002.M2TS      4352 (0x1100)   0x80            LPCM            jpn (Japanese)          1697.571                2,311                   490,294,316     2,716,312


QUICK SUMMARY:
Disc Label: Red Velvet - 2nd Concert 'REDMARE' In Japan
Disc Size: 44,635,095,092 bytes
Protection: AACS
Playlist: 00002.MPLS
Size: 6,955,192,320 bytes
Length: 0:28:17.696
Total Bitrate: 32.77 Mbps
Video: MPEG-4 AVC Video / 28984 kbps / 1080p / 23.976 fps / 16:9 / High Profile 4.1
Audio: Japanese / LPCM Audio / 2.0 / 48 kHz /  2304 kbps / 24-bit
********************
PLAYLIST: 00000.MPLS
********************

Код:

                                                                                Total   Video
Title                                                           Codec   Length  Movie Size      Disc Size       Bitrate Bitrate Main Audio Track                          Secondary Audio Track
-----                                                           ------  ------- --------------  --------------  ------- ------- ------------------                        ---------------------
00000.MPLS                                                      AVC     0:00:24 67,620,864      44,635,095,092  22.48   19.12   LPCM 2.0 2304Kbps (48kHz/24-bit)

Код:
DISC INFO:
Disc Label:     Red Velvet - 2nd Concert 'REDMARE' In Japan
Disc Size:      44,635,095,092 bytes
Protection:     AACS
BDInfo:         0.7.5.5
PLAYLIST REPORT:
Name:                   00000.MPLS
Length:                 0:00:24.065 (h:m:s.ms)
Size:                   67,620,864 bytes
Total Bitrate:          22.48 Mbps
VIDEO:
Codec                   Bitrate             Description
-----                   -------             -----------
MPEG-4 AVC Video        19117 kbps          1080p / 23.976 fps / 16:9 / High Profile 4.1
AUDIO:
Codec                           Language        Bitrate         Description
-----                           --------        -------         -----------
LPCM Audio                      Japanese        2304 kbps       2.0 / 48 kHz /  2304 kbps / 24-bit
FILES:
Name            Time In         Length          Size            Total Bitrate
----            -------         ------          ----            -------------
00000.M2TS      0:00:00.000     0:00:24.065     67,620,864      22,479
CHAPTERS:
Number          Time In         Length          Avg Video Rate  Max 1-Sec Rate  Max 1-Sec Time  Max 5-Sec Rate  Max 5-Sec Time  Max 10Sec Rate  Max 10Sec Time  Avg Frame Size  Max Frame Size  Max Frame Time
------          -------         ------          --------------  --------------  --------------  --------------  --------------  --------------  --------------  --------------  --------------  --------------
1               0:00:00.000     0:00:24.065     19,117 kbps     38,627 kbps     00:00:21.104    31,175 kbps     00:00:17.976    21,833 kbps     00:00:01.334    99,841 bytes    584,015 bytes   00:00:18.018
STREAM DIAGNOSTICS:
File            PID             Type            Codec           Language                Seconds                 Bitrate                 Bytes           Packets
----            ---             ----            -----           --------                --------------          --------------          -------------   -----
00000.M2TS      4113 (0x1011)   0x1B            AVC                                     23.982                  19,184                  57,508,371      312,854
00000.M2TS      4352 (0x1100)   0x80            LPCM            jpn (Japanese)          23.982                  2,318                   6,949,972       38,504


QUICK SUMMARY:
Disc Label: Red Velvet - 2nd Concert 'REDMARE' In Japan
Disc Size: 44,635,095,092 bytes
Protection: AACS
Playlist: 00000.MPLS
Size: 67,620,864 bytes
Length: 0:00:24.065
Total Bitrate: 22.48 Mbps
Video: MPEG-4 AVC Video / 19117 kbps / 1080p / 23.976 fps / 16:9 / High Profile 4.1
Audio: Japanese / LPCM Audio / 2.0 / 48 kHz /  2304 kbps / 24-bit


Скриншоты











                                                                                       
                       
                       
                       
                       
                       
                                磁力下载:(论坛代下载服务)
                                                               
                                       
游客,本主题需向作者支付 7音乐币 才能浏览,金币充值, 免回复、免金币,直接查看内容请开通VIP支付

                                               
  • 41.57 GB
  • 温馨提示

    记得善用社区搜索功能,那里可能会有你想要的资源;论坛站内搜索

    如果你有什么需要的资源可以去资源求档发帖,求助社区的网友,我们会在第一时间给你回复哦;资源求档

    对于本社区网盘链接失效密码错误各种报错请在反馈板块反馈报错发帖,您的支持,是我们发展的最大动力;投诉建议

    回复

    使用道具 举报

    您需要登录后才可以回帖 登录 | 立即注册 微信登录

    本版积分规则

    关注0

    粉丝4

    帖子51182

    发布主题
    阅读排行更多+
    关闭

    站长推荐上一条 /1 下一条

    收藏帖子 返回列表 这是一个自定义按钮
    音乐分享,音乐下载。
    微信公众号
    微信号:hires_
    意见反馈:admin@maomicd.com

    加入我们的官方QQ群和微信群

    Powered by Discuz! X3.4 Archiver|手机版|小黑屋|捌零音乐论坛 ( 苏ICP备20015413号 )|( 苏公网安备 32030502000272号) 繁體

    GMT+8, 2021-5-9 00:24