自购原抓音乐圈:只有自购、合购、原抓级高解析(hires、sacd、dsd)正版音乐资源分享!【点我打开
极速无线网卡:千兆无线网卡、服务器网卡、USB接口台式机笔记本网卡 硬盘代考无损音乐!【点我打开
广告

[日韩音乐] [MV,PV] GFRYS - MAGO(夹子和性能)[2020,KPOP,LIVE,HD 1080P,HDTV 1080i]

[复制链接]
elmisy 发表于 2021-4-13 15:37:45 | 显示全部楼层 |阅读模式 打印 上一主题 下一主题
.
GFRIEND - MAGO
(клип и концертное выступление)

Жанр: KPop
Релизы: 2020
.
Клип-новинка

GFRIEND - MAGO [Bugs!]
Продолжительность: 00:03:30 | Релиз: 2020.11.06
Перевод: Английские субтитры, внешние
Качество: HD 1080p | Контейнер: MP4
Видео: AVC, 1920x1280 (3:2), 29.7 Мбит/с, 23,976 кадра/с
Аудио: AAC, 318 Кбит/с, 44.1 КГц, 2 канала




Отчёт MediaInfo
Общее
Полное имя : G:\K-Pop\Bugs!\GFRIEND - MAGO\GFRIEND - MAGO [Bugs! 1080p].mp4
Формат : MPEG-4
Профиль формата : Base Media / Version 2
Идентификатор кодека : mp42 (mp42/mp41)
Размер файла : 755 Мбайт
Продолжительность : 3 м. 30 с.
Режим общего битрейта : Переменный
Общий поток : 30,0 Мбит/сек
Дата кодирования : UTC 2020-11-07 09:56:56
Дата пометки : UTC 2020-11-07 09:57:48
©TIM : 00:00:00:00
©TSC : 24000
©TSZ : 1001
Видео
Идентификатор : 1
Формат : AVC
Формат/Информация : Advanced Video Codec
Профиль формата : Main@L5
Параметр CABAC формата : Да
Параметр RefFrames формата : 2 кадра
Идентификатор кодека : avc1
Идентификатор кодека/Информация : Advanced Video Coding
Продолжительность : 3 м. 30 с.
Вид битрейта : Переменный
Битрейт : 29,7 Мбит/сек
Максимальный битрейт : 768 Кбит/сек
Ширина : 1920 пикселей
Высота : 1280 пикселей
Соотношение сторон : 3:2
Режим частоты кадров : Постоянный
Частота кадров : 23,976 (24000/1001) кадра/сек
Цветовое пространство : YUV
Субдискретизация насыщенности : 4:2:0
Битовая глубина : 8 бит
Тип развёртки : Прогрессивная
Бит/(Пиксели*Кадры) : 0.504
Размер потока : 747 Мбайт (99%)
Язык : English
Дата кодирования : UTC 2020-11-07 09:56:56
Дата пометки : UTC 2020-11-07 09:56:56
Цветовой диапазон : Limited
Основные цвета : BT.709
Характеристики трансфера : BT.709
Коэффициенты матрицы : BT.709
Аудио
Идентификатор : 2
Формат : AAC
Формат/Информация : Advanced Audio Codec
Профиль формата : LC
Идентификатор кодека : 40
Продолжительность : 3 м. 30 с.
Продолжительность оригинала : 3 м. 30 с.
Вид битрейта : Переменный
Битрейт : 318 Кбит/сек
Максимальный битрейт : 397 Кбит/сек
Каналы : 2 канала
Расположение каналов : Front: L R
Частота : 44,1 КГц
Частота кадров : 43,066 кадра/сек (1024 SPF)
Метод сжатия : С потерями
Размер потока : 7,98 Мбайт (1%)
Размер потока оригинала : 7,98 Мбайт (1%)
Язык : English
Дата кодирования : UTC 2020-11-07 09:56:56
Дата пометки : UTC 2020-11-07 09:56:56


GFRIEND - MAGO [2020.11.13 KBS Music Bank]
Продолжительность: 00:04:00
Качество: HDTV 1080i | Контейнер: TS
Видео: AVC, 1920x1080 (16:9), 12.1 Мбит/с, 29.97 кадра/с
Аудио: AC-3, 384 Кбит/с, 48.0 КГц, 16 бит, 2 канала




MediaInfo
Общее
Идентификатор : 1 (0x1)
Полное имя : G:\K-Pop\Bugs!\GFRIEND - MAGO\201113 KBS Music Bank. GFRIEND - MAGO.ts
Формат : MPEG-TS
Размер файла : 377 Мбайт
Продолжительность : 4 м. 0 с.
Режим общего битрейта : Переменный
Общий поток : 13,1 Мбит/сек
Видео
Идентификатор : 256 (0x100)
Идентификатор меню : 1 (0x1)
Формат : AVC
Формат/Информация : Advanced Video Codec
Профиль формата : High@L4
Параметр CABAC формата : Да
Параметр RefFrames формата : 4 кадра
Параметр GOP формата : M=1, N=15
Идентификатор кодека : 27
Продолжительность : 4 м. 0 с.
Битрейт : 12,1 Мбит/сек
Ширина : 1920 пикселей
Высота : 1080 пикселей
Соотношение сторон : 16:9
Частота кадров : 29,970 (30000/1001) кадров/сек
Цветовое пространство : YUV
Субдискретизация насыщенности : 4:2:0
Битовая глубина : 8 бит
Тип развёртки : Чересстрочная
Метод сохранения типа развёртки : Раздельные поля
Порядок развёртки : Верхнее поле первое
Бит/(Пиксели*Кадры) : 0.194
Размер потока : 347 Мбайт (92%)
Цветовой диапазон : Limited
Основные цвета : BT.709
Характеристики трансфера : BT.709
Коэффициенты матрицы : BT.709
Аудио
Идентификатор : 257 (0x101)
Идентификатор меню : 1 (0x1)
Формат : AC-3
Формат/Информация : Audio Coding 3
Параметр Endianness формата : Big
Идентификатор кодека : 129
Продолжительность : 4 м. 0 с.
Вид битрейта : Постоянный
Битрейт : 384 Кбит/сек
Каналы : 2 канала
Расположение каналов : Front: L R
Частота : 48,0 КГц
Частота кадров : 31,250 кадров/сек (1536 SPF)
Битовая глубина : 16 бит
Метод сжатия : С потерями
Задержка видео : -117 мс.
Размер потока : 11,0 Мбайт (3%)
Язык : Korean
ServiceKind/String : Complete Main
Меню
Идентификатор : 4096 (0x1000)
Идентификатор меню : 1 (0x1)
Продолжительность : 4 м. 0 с.
Список : 256 (0x100) (AVC) / 257 (0x101) (AC-3, Korean)
Язык : / Korean
Название сервиса : Service01
Поставщик сервиса : FFmpeg
Тип сервиса : digital television

                                                                                       
                       
                       
                       
                       
                       
                                磁力下载:
                                                               
                                       
游客,本主题需向作者支付 7音乐币 才能浏览,金币充值, 免回复、免金币,直接查看内容请开通VIP支付

                                               
  • 1.1 GB
  • 温馨提示

    记得善用社区搜索功能,那里可能会有你想要的资源;论坛站内搜索

    如果你有什么需要的资源可以去资源求档发帖,求助社区的网友,我们会在第一时间给你回复哦;资源求档

    对于本社区网盘链接失效密码错误各种报错请在反馈板块反馈报错发帖,您的支持,是我们发展的最大动力;投诉建议

    回复

    使用道具 举报

    您需要登录后才可以回帖 登录 | 立即注册 微信登录

    本版积分规则

    关注0

    粉丝1

    帖子29564

    发布主题
    阅读排行更多+
    关闭

    站长推荐上一条 /1 下一条

    收藏帖子 返回列表 这是一个自定义按钮
    音乐分享,音乐下载。
    微信公众号
    微信号:hires_
    意见反馈:admin@maomicd.com

    加入我们的官方QQ群和微信群

    Powered by Discuz! X3.4 Archiver|手机版|小黑屋|捌零音乐论坛 ( 苏ICP备20015413号 )|( 苏公网安备 32030502000272号) 繁體

    GMT+8, 2021-5-6 23:21