自购原抓音乐圈:只有自购、合购、原抓级高解析(hires、sacd、dsd)正版音乐资源分享!【点我打开
极速无线网卡:千兆无线网卡、服务器网卡、USB接口台式机笔记本网卡 硬盘代考无损音乐!【点我打开
广告

[日韩音乐] [mv]浆果高质量剪辑[2014,2017,2018,Kpop,HD 1080p]

[复制链接]
elmisy 发表于 2021-4-13 15:37:45 | 显示全部楼层 |阅读模式 打印 上一主题 下一主题
Berry Good — клипы высокого качества

Жанр: KPop | Релизы: 2014, 2017, 2018

Berry Good - Bibbidi Bobbidi Boo (Bugs! HD 1080p)
.
Berry Good - Bibbidi Bobbidi Boo

Жанр: KPop
Продолжительность: 0:03:23
Релиз: 2017.04.17
Качество: HD 1080p
Контейнер: MP4
Видео: AVC, 1920x1080 (16:9) 18.0 Мбит/с, 29.97 кадра/с
Аудио: AAC, 384 Кбит/с, 48.0 КГц, stereo

Отчёт MediaInfo
Общее
Полное имя : E:\Torrents\Berry Good - Bibbidi Bobbidi Boo (Bugs! HD 1080p).mp4
Формат : MPEG-4
Профиль формата : JVT
Идентификатор кодека : avc1 (avc1/mp42)
Размер файла : 445 MiB
Продолжительность : 3 min 23 s
Режим общего битрейта : Constant
Общий поток : 18.4 Mb/s
Дата кодирования : UTC 2017-04-17 01:25:45
Дата пометки : UTC 2017-04-17 01:25:45
Video
Идентификатор : 1
Формат : AVC
Формат/Информация : Advanced Video Codec
Профиль формата : High@L4
Параметр CABAC формата : Yes
Параметр ReFrames формата : 2 frames
Параметр GOP формата : M=3, N=30
Идентификатор кодека : avc1
Идентификатор кодека/Информация : Advanced Video Coding
Продолжительность : 3 min 23 s
Вид битрейта : Constant
Битрейт : 18.0 Mb/s
Ширина : 1 920 pixels
Высота : 1 080 pixels
Соотношение сторон : 16:9
Режим частоты кадров : Constant
Частота кадров : 29.970 (30000/1001) FPS
Цветовое пространство : YUV
Субдискретизация насыщенности : 4:2:0
Битовая глубина : 8 bits
Тип развёртки : Progressive
Бит/(Пиксели*Кадры) : 0.290
Размер потока : 435 MiB (98%)
Язык : English
Дата кодирования : UTC 2017-04-17 01:25:45
Дата пометки : UTC 2017-04-17 01:25:45
Audio
Идентификатор : 2
Формат : AAC
Формат/Информация : Advanced Audio Codec
Профиль формата : LC
Идентификатор кодека : 40
Продолжительность : 3 min 23 s
Продолжительность оригинала : 3 min 23 s
Вид битрейта : Constant
Битрейт : 384 kb/s
Каналы : 2 channels
Расположение каналов : Front: L R
Частота : 48.0 kHz
Частота кадров : 46.875 FPS (1024 spf)
Метод сжатия : Lossy
Размер потока : 9.30 MiB (2%)
Размер потока оригинала : 9.31 MiB (2%)
Язык : English
Дата кодирования : UTC 2017-04-17 01:25:45
Дата пометки : UTC 2017-04-17 01:25:45

Скриншоты







Berry Good - Love Letter (GomTV 1080p)
.
Berry Good - Love Letter

Жанр: KPop
Продолжительность: 0:03:33
Релиз: 2014.05.14
Качество: HD 1080p
Контейнер: MP4
Видео: AVC, 1920x1080 (16:9), 44.4 Мбит/с, 23.98 кадра/с
Аудио: AAC, 160 Кбит/с, 48.0 КГц, stereo

Отчёт MediaInfo
Общее
Полное имя : E:\Torrents\Berry Good\Berry Good - Love Letter (GomTV 1080p).mp4
Формат : MPEG-4
Профиль формата : Base Media
Идентификатор кодека : isom (isom/mp41)
Размер файла : 1,15 Гбайт
Продолжительность : 3 м. 33 с.
Режим общего битрейта : Переменный
Общий поток : 46,4 Мбит/сек
Дата кодирования : UTC 2014-06-09 05:55:07
Дата пометки : UTC 2014-06-09 05:55:07
Видео
Идентификатор : 1
Формат : AVC
Формат/Информация : Advanced Video Codec
Профиль формата : Baseline@L4.1
Параметр CABAC формата : Нет
Параметр ReFrames формата : 1 кадр
Идентификатор кодека : avc1
Идентификатор кодека/Информация : Advanced Video Coding
Продолжительность : 3 м. 33 с.
Продолжительность оригинала : 3 м. 33 с.
Вид битрейта : Переменный
Битрейт : 44,4 Мбит/сек
Максимальный битрейт : 50,0 Мбит/сек
Ширина : 1920 пикселей
Высота : 1080 пикселей
Соотношение сторон : 16:9
Режим частоты кадров : Постоянный
Частота кадров : 23,976 (24000/1001) кадра/сек
Стандарт вещания : NTSC
Цветовое пространство : YUV
Субдискретизация насыщенности : 4:2:0
Битовая глубина : 8 бит
Тип развёртки : Прогрессивная
Бит/(Пиксели*Кадры) : 0.894
Размер потока : 1,10 Гбайт (96%)
Размер потока оригинала : 1,15 Гбайт (100%)
Язык : English
Дата кодирования : UTC 2014-06-09 05:55:07
Дата пометки : UTC 2014-06-09 05:55:07
Цветовой диапазон : Limited
mdhd_Duration : 213329
Аудио
Идентификатор : 2
Формат : AAC
Формат/Информация : Advanced Audio Codec
Профиль формата : LC
Идентификатор кодека : 40
Продолжительность : 3 м. 33 с.
Вид битрейта : Постоянный
Битрейт : 160 Кбит/сек
Каналы : 2 канала
Расположение каналов : Front: L R
Частота : 48,0 КГц
Частота кадров : 46,875 кадров/сек (1024 spf)
Метод сжатия : С потерями
Размер потока : 4,06 Мбайт (0%)
Язык : English
Дата кодирования : UTC 2014-06-09 05:55:07
Дата пометки : UTC 2014-06-09 05:55:07
mdhd_Duration : 213363

Скриншоты






Berry Good Heart Heart - Crazy, Gone Crazy (Bugs! HD 1080p)
.
Berry Good Heart Heart - Crazy, Gone Crazy

Жанр: KPop
Продолжительность: 0:03:51
Релиз: 2018.04.18
Качество: HD 1080p
Контейнер: MP4
Видео: AVC, 1920x1080 (16:9), 12.0 Мбит/с, 25.0 кадра/с
Аудио: AAC, 192 Кбит/с, 48.0 КГц, stereo

Отчёт MediaInfo
Общее
Полное имя : E:\Torrents\Berry Good\Berry Good Heart Heart - Crazy, Gone Crazy (Bugs! HD 1080p).mp4
Формат : MPEG-4
Профиль формата : Base Media / Version 2
Идентификатор кодека : mp42 (isom/mp42)
Размер файла : 337 Мбайт
Продолжительность : 3 м. 51 с.
Режим общего битрейта : Переменный
Общий поток : 12,2 Мбит/сек
Дата кодирования : UTC 2018-04-21 05:11:24
Дата пометки : UTC 2018-04-21 05:11:24
Видео
Идентификатор : 2
Формат : AVC
Формат/Информация : Advanced Video Codec
Профиль формата : Main@L4
Параметр CABAC формата : Да
Параметр ReFrames формата : 3 кадра
Идентификатор кодека : avc1
Идентификатор кодека/Информация : Advanced Video Coding
Продолжительность : 3 м. 51 с.
Вид битрейта : Переменный
Битрейт : 12,0 Мбит/сек
Максимальный битрейт : 24,0 Мбит/сек
Ширина : 1920 пикселей
Высота : 1080 пикселей
Соотношение сторон : 16:9
Режим частоты кадров : Постоянный
Частота кадров : 25,000 кадров/сек
Стандарт вещания : PAL
Цветовое пространство : YUV
Субдискретизация насыщенности : 4:2:0
Битовая глубина : 8 бит
Тип развёртки : Прогрессивная
Бит/(Пиксели*Кадры) : 0.232
Размер потока : 332 Мбайт (98%)
Язык : English
Дата кодирования : UTC 2018-04-21 05:11:25
Дата пометки : UTC 2018-04-21 05:11:25
Цветовой диапазон : Limited
Аудио
Идентификатор : 1
Формат : AAC
Формат/Информация : Advanced Audio Codec
Профиль формата : LC
Идентификатор кодека : 40
Продолжительность : 3 м. 51 с.
Вид битрейта : Переменный
Битрейт : 192 Кбит/сек
Максимальный битрейт : 459 Кбит/сек
Каналы : 2 канала
Расположение каналов : Front: L R
Частота : 48,0 КГц
Частота кадров : 46,875 кадров/сек (1024 spf)
Метод сжатия : С потерями
Размер потока : 5,23 Мбайт (2%)
Язык : English
Дата кодирования : UTC 2018-04-21 05:11:25
Дата пометки : UTC 2018-04-21 05:11:25

Скриншоты





                                                                                       
                       
                       
                       
                       
                       
                                磁力下载:(论坛代下载服务)
                                                               
                                       
游客,本主题需向作者支付 7音乐币 才能浏览,金币充值, 免回复、免金币,直接查看内容请开通VIP支付

                                               
  • 1.92 GB
  • 温馨提示

    记得善用社区搜索功能,那里可能会有你想要的资源;论坛站内搜索

    如果你有什么需要的资源可以去资源求档发帖,求助社区的网友,我们会在第一时间给你回复哦;资源求档

    对于本社区网盘链接失效密码错误各种报错请在反馈板块反馈报错发帖,您的支持,是我们发展的最大动力;投诉建议

    回复

    使用道具 举报

    您需要登录后才可以回帖 登录 | 立即注册 微信登录

    本版积分规则

    关注0

    粉丝2

    帖子29564

    发布主题
    阅读排行更多+
    关闭

    站长推荐上一条 /1 下一条

    收藏帖子 返回列表 这是一个自定义按钮
    音乐分享,音乐下载。
    微信公众号
    微信号:hires_
    意见反馈:admin@maomicd.com

    加入我们的官方QQ群和微信群

    Powered by Discuz! X3.4 Archiver|手机版|小黑屋|捌零音乐论坛 ( 苏ICP备20015413号 )|( 苏公网安备 32030502000272号) 繁體

    GMT+8, 2021-5-18 18:23