自购原抓音乐圈:只有自购、合购、原抓级高解析(hires、sacd、dsd)正版音乐资源分享!【点我打开
极速无线网卡:千兆无线网卡、服务器网卡、USB接口台式机笔记本网卡 硬盘代考无损音乐!【点我打开
广告

[日韩音乐] [MV]紫色吻 - 音乐剪辑(更新)[2020,2021,KPOP,UHD 2160P,4K]

[复制链接]
fqw1001 发表于 2021-4-13 15:37:45 | 显示全部楼层 |阅读模式 打印 上一主题 下一主题
Purple K!ss - музыкальные клипы

Жанр: KPop | Релизы: 2020, 2021
Обновлено 20 марта
О группе
PURPLE K!SS (퍼플키스; стилизовано как PURPLE KISS) - будущая женская группа
из семи участниц компании Rainbow Bridge World. Они дебютируют в 2021 году.
Название Purple K!ss (Пёрпл кисс) состоит из словосочетания: «Purple» и «Kiss»,
участницы хотят передать свою любовь множеству людей через многогранный колорит в музыке.
«Purple» обозначает музыкальный цвет группы, а «Kiss» представляет силу любви, передающаяся через поцелуй.
Подробности о группе: https://kpop.fandom.com/ru/wiki/PURPLE_K!SS

PURPLE KISS – Can We Talk Again [Bugs!]
Релиз: 2021.02.01 | Продолжительность: 00:03:34
Качество: UHD 2160p | Контейнер: MP4
Видео: AVC, 3840x2160 (16:9), 64.9 Мбит/сек, 23.976 кадра/с
Аудио: AAC, 317 Кбит/с, 48.0 КГц, 2 канала




Отчёт MediaInfo
Общее
Полное имя : G:\K-Pop\Bugs!\Purple Kiss 4K\PURPLE KISS – Can We Talk Again [Bugs! 2160p].mp4
Формат : MPEG-4
Профиль формата : Base Media
Идентификатор кодека : isom (isom/iso2/avc1/mp41)
Размер файла : 1,63 Гбайт
Продолжительность : 3 м. 34 с.
Общий поток : 65,2 Мбит/сек
Программа кодирования : Lavf55.12.100
Видео
Идентификатор : 2
Формат : AVC
Формат/Информация : Advanced Video Codec
Профиль формата : High@L5.1
Настройки формата : CABAC / 4 Ref Frames
Параметр CABAC формата : Да
Параметр RefFrames формата : 4 кадра
Идентификатор кодека : avc1
Идентификатор кодека/Информация : Advanced Video Coding
Продолжительность : 3 м. 34 с.
Битрейт : 64,9 Мбит/сек
Ширина : 3 840 пикселей
Высота : 2 160 пикселей
Соотношение сторон : 16:9
Режим частоты кадров : Переменный
Частота кадров : 23,976 кадра/сек
Минимальная частота кадров : 23,807 кадра/сек
Максимальная частота кадров : 24,409 кадра/сек
Цветовое пространство : YUV
Субдискретизация насыщенности : 4:2:0
Битовая глубина : 8 бит
Тип развёртки : Прогрессивная
Бит/(Пиксели*Кадры) : 0.326
Размер потока : 1,62 Гбайт (100%)
Библиотека кодирования : x264 core 157 r2970 5493be8
Настройки программы : cabac=1 / ref=3 / deblock=1:0:0 / analyse=0x3:0x113 / me=hex / subme=7 / psy=1 / psy_rd=1.00:0.00 / mixed_ref=1 / me_range=16 / chroma_me=1 / trellis=1 / 8x8dct=1 / cqm=0 / deadzone=21,11 / fast_pskip=1 / chroma_qp_offset=-2 / threads=24 / lookahead_threads=4 / sliced_threads=0 / nr=0 / decimate=1 / interlaced=0 / bluray_compat=0 / constrained_intra=0 / bframes=3 / b_pyramid=2 / b_adapt=1 / b_bias=0 / direct=1 / weightb=1 / open_gop=0 / weightp=2 / keyint=250 / keyint_min=23 / scenecut=40 / intra_refresh=0 / rc_lookahead=40 / rc=crf / mbtree=1 / crf=14.0 / qcomp=0.60 / qpmin=0 / qpmax=69 / qpstep=4 / ip_ratio=1.40 / aq=1:1.00
Язык : English
Codec configuration box : avcC
Аудио
Идентификатор : 1
Формат : AAC LC
Формат/Информация : Advanced Audio Codec Low Complexity
Идентификатор кодека : mp4a-40-2
Продолжительность : 3 м. 34 с.
Вид битрейта : Постоянный
Битрейт : 317 Кбит/сек
Каналы : 2 канала
Channel layout : L R
Частота : 48,0 КГц
Частота кадров : 46,875 кадров/сек (1024 SPF)
Метод сжатия : С потерями
Размер потока : 8,13 Мбайт (0%)
Язык : English
Default : Да
Alternate group : 1


PURPLE KISS – My Heart Skip a Beat (Performance Ver.) [Bugs!]
Релиз: 2020.11.23 | Продолжительность: 00:03:37
Перевод: Английские субтитры, внешние
Качество: UHD 2160p | Контейнер: MP4
Видео: AVC, 3840x2160 (16:9), 57.4 Мбит/сек, 23.944 кадра/с
Аудио: AAC, 317 Кбит/с, 48.0 КГц, 2 канала





Отчёт MediaInfo
Общее
Полное имя : G:\K-Pop\Bugs!\Purple Kiss 4K\PURPLE KISS – My Heart Skip a Beat (Performance Ver.) [Bugs! 2160p].mp4
Формат : MPEG-4
Профиль формата : Base Media
Идентификатор кодека : isom (isom/iso2/avc1/mp41)
Размер файла : 1,46 Гбайт
Продолжительность : 3 м. 37 с.
Общий поток : 57,7 Мбит/сек
Программа кодирования : Lavf55.12.100
Видео
Идентификатор : 2
Формат : AVC
Формат/Информация : Advanced Video Codec
Профиль формата : Main@L5.1
Настройки формата : CABAC / 4 Ref Frames
Параметр CABAC формата : Да
Параметр RefFrames формата : 4 кадра
Идентификатор кодека : avc1
Идентификатор кодека/Информация : Advanced Video Coding
Продолжительность : 3 м. 37 с.
Битрейт : 57,4 Мбит/сек
Ширина : 3 840 пикселей
Высота : 2 160 пикселей
Соотношение сторон : 16:9
Режим частоты кадров : Переменный
Частота кадров : 23,944 кадра/сек
Минимальная частота кадров : 11,904 кадров/сек
Максимальная частота кадров : 24,996 кадров/сек
Частота кадров в оригинале : 23,976 (24000/1001) кадра/сек
Цветовое пространство : YUV
Субдискретизация насыщенности : 4:2:0
Битовая глубина : 8 бит
Тип развёртки : Прогрессивная
Бит/(Пиксели*Кадры) : 0.289
Размер потока : 1,45 Гбайт (99%)
Язык : English
Цветовой диапазон : Limited
Основные цвета : BT.709
Характеристики трансфера : BT.709
Коэффициенты матрицы : BT.709
Codec configuration box : avcC
Аудио
Идентификатор : 1
Формат : AAC LC
Формат/Информация : Advanced Audio Codec Low Complexity
Идентификатор кодека : mp4a-40-2
Продолжительность : 3 м. 37 с.
Вид битрейта : Постоянный
Битрейт : 317 Кбит/сек
Каналы : 2 канала
Channel layout : L R
Частота : 48,0 КГц
Частота кадров : 46,875 кадров/сек (1024 SPF)
Метод сжатия : С потерями
Размер потока : 8,23 Мбайт (1%)
Язык : English
Default : Да
Alternate group : 1


PURPLE KISS - Ponzona [Bugs!]
Релиз: 2021.03.09 | Продолжительность: 00:03:41
Перевод: Английские субтитры, внешние
Качество: UHD 2160p | Контейнер: MP4
Видео: AVC, 3840x2160 (16:9), 78.5 Мбит/сек, 23.976 кадра/с
Аудио: AAC, 317 Кбит/с, 48.0 КГц, 2 канала




Отчёт MediaInfo
Общее
Полное имя : G:\K-Pop\Bugs!\Purple Kiss 4K\PURPLE KISS - Ponzona [Bugs! 2160p].mp4
Формат : MPEG-4
Профиль формата : Base Media
Идентификатор кодека : isom (isom/iso2/avc1/mp41)
Размер файла : 2,03 Гбайт
Продолжительность : 3 м. 41 с.
Общий поток : 78,6 Мбит/сек
Дата кодирования : UTC 2021-03-17 03:55:12
Дата пометки : UTC 2021-03-17 03:55:12
Программа кодирования : Lavf58.12.100
Видео
Идентификатор : 1
Формат : AVC
Формат/Информация : Advanced Video Codec
Профиль формата : High@L5.1
Настройки формата : CABAC / 4 Ref Frames
Параметр CABAC формата : Да
Параметр RefFrames формата : 4 кадра
Идентификатор кодека : avc1
Идентификатор кодека/Информация : Advanced Video Coding
Продолжительность : 3 м. 40 с.
Битрейт : 78,5 Мбит/сек
Ширина : 3 840 пикселей
Высота : 2 160 пикселей
Соотношение сторон : 16:9
Режим частоты кадров : Переменный
Частота кадров : 23,976 (23976/1000) кадра/сек
Минимальная частота кадров : 23,807 кадра/сек
Максимальная частота кадров : 27 021,000 кадров/сек
Цветовое пространство : YUV
Субдискретизация насыщенности : 4:2:0
Битовая глубина : 8 бит
Тип развёртки : Прогрессивная
Бит/(Пиксели*Кадры) : 0.395
Размер потока : 2,02 Гбайт (100%)
Библиотека кодирования : x264 core 157 r2970 5493be8
Настройки программы : cabac=1 / ref=3 / deblock=1:0:0 / analyse=0x3:0x113 / me=hex / subme=7 / psy=1 / psy_rd=1.00:0.00 / mixed_ref=1 / me_range=16 / chroma_me=1 / trellis=1 / 8x8dct=1 / cqm=0 / deadzone=21,11 / fast_pskip=1 / chroma_qp_offset=-2 / threads=24 / lookahead_threads=4 / sliced_threads=0 / nr=0 / decimate=1 / interlaced=0 / bluray_compat=0 / constrained_intra=0 / bframes=3 / b_pyramid=2 / b_adapt=1 / b_bias=0 / direct=1 / weightb=1 / open_gop=0 / weightp=2 / keyint=250 / keyint_min=23 / scenecut=40 / intra_refresh=0 / rc_lookahead=40 / rc=crf / mbtree=1 / crf=15.0 / qcomp=0.60 / qpmin=0 / qpmax=69 / qpstep=4 / ip_ratio=1.40 / aq=1:1.00
Язык : English
Дата кодирования : UTC 2021-03-17 03:55:12
Дата пометки : UTC 2021-03-17 03:55:12
Codec configuration box : avcC
Аудио
Идентификатор : 2
Формат : AAC LC
Формат/Информация : Advanced Audio Codec Low Complexity
Идентификатор кодека : mp4a-40-2
Продолжительность : 3 м. 41 с.
Вид битрейта : Постоянный
Битрейт : 317 Кбит/сек
Каналы : 2 канала
Channel layout : L R
Частота : 48,0 КГц
Частота кадров : 46,875 кадров/сек (1024 SPF)
Метод сжатия : С потерями
Размер потока : 8,37 Мбайт (0%)
Язык : English
Default : Да
Alternate group : 1
Дата кодирования : UTC 2021-03-17 03:55:12
Дата пометки : UTC 2021-03-17 03:55:12

                                                                                       
                       
                       
                       
                       
                       
                                磁力下载:(论坛代下载服务)
                                                               
                                       
游客,本主题需向作者支付 7音乐币 才能浏览,金币充值, 免回复、免金币,直接查看内容请开通VIP支付

                                               
  • 5.12 GB
  • 温馨提示

    记得善用社区搜索功能,那里可能会有你想要的资源;论坛站内搜索

    如果你有什么需要的资源可以去资源求档发帖,求助社区的网友,我们会在第一时间给你回复哦;资源求档

    对于本社区网盘链接失效密码错误各种报错请在反馈板块反馈报错发帖,您的支持,是我们发展的最大动力;投诉建议

    回复

    使用道具 举报

    您需要登录后才可以回帖 登录 | 立即注册 微信登录

    本版积分规则

    关注0

    粉丝0

    帖子29518

    发布主题
    阅读排行更多+
    关闭

    站长推荐上一条 /1 下一条

    收藏帖子 返回列表 这是一个自定义按钮
    音乐分享,音乐下载。
    微信公众号
    微信号:hires_
    意见反馈:admin@maomicd.com

    加入我们的官方QQ群和微信群

    Powered by Discuz! X3.4 Archiver|手机版|小黑屋|捌零音乐论坛 ( 苏ICP备20015413号 )|( 苏公网安备 32030502000272号) 繁體

    GMT+8, 2021-5-8 23:29