自购原抓音乐圈:只有自购、合购、原抓级高解析(hires、sacd、dsd)正版音乐资源分享!【点我打开
极速无线网卡:千兆无线网卡、服务器网卡、USB接口台式机笔记本网卡 硬盘代考无损音乐!【点我打开
广告

[日韩音乐] [MV] Mamamoo - 音乐剪辑(1月21日更新)[2015-2020,KPOP,HD 1080P]

[复制链接]
全球采集 发表于 2021-4-13 15:37:44 | 显示全部楼层 |阅读模式 打印 上一主题 下一主题
MAMAMOO — музыкальные клипы

Жанр: KPop | Релизы: 2015 - 2020
Обновлено 21 января
K.Will & MAMAMOO - Peppermint Chocolate (feat. Wheesung) [MelOn 1080p]
Релиз: 2014.02.10 | Продолжительность: 0:03:30
Перевод: Английские субтитры, внешние
Качество: HD 1080p | Контейнер: MP4
Видео: AVC, 1920x1080 (16:9), 10.0 Мбит/с, 29.97 кадра/с
Аудио: AAC, 317 Кбит/с, 48.0 КГц, stereo





Отчёт MediaInfo
Общее
Полное имя : G:\K-Pop\Bugs!\mmm\K.Will & MAMAMOO - Peppermint Chocolate (feat. Wheesung) [MelOn 1080p].mp4
Формат : MPEG-4
Профиль формата : Base Media / Version 2
Идентификатор кодека : mp42 (mp42/isom/avc1)
Размер файла : 258 Мбайт
Продолжительность : 3 м. 30 с.
Режим общего битрейта : Переменный
Общий поток : 10,3 Мбит/сек
Программа кодирования : TMPGEnc Video Mastering Works 5 Version. 5.4.0.100
Видео
Идентификатор : 2
Формат : AVC
Формат/Информация : Advanced Video Codec
Профиль формата : Baseline@L4.1
Параметр CABAC формата : Нет
Параметр RefFrames формата : 4 кадра
Идентификатор кодека : avc1
Идентификатор кодека/Информация : Advanced Video Coding
Продолжительность : 3 м. 30 с.
Вид битрейта : Постоянный
Битрейт : 10000 Кбит/сек / 10000 Кбит/сек
Ширина : 1920 пикселей
Высота : 1080 пикселей
Соотношение сторон : 16:9
Режим частоты кадров : Постоянный
Частота кадров : 29,970 (30000/1001) кадров/сек
Стандарт вещания : Component
Цветовое пространство : YUV
Субдискретизация насыщенности : 4:2:0
Битовая глубина : 8 бит
Тип развёртки : Прогрессивная
Бит/(Пиксели*Кадры) : 0.161
Размер потока : 250 Мбайт (97%)
Библиотека кодирования : x264 core 125
Настройки программы : cabac=0 / ref=4 / deblock=1:0:0 / analyse=0x1:0x111 / me=dia / subme=2 / psy=1 / psy_rd=1.00:0.00 / mixed_ref=0 / me_range=16 / chroma_me=1 / trellis=0 / 8x8dct=0 / cqm=0 / deadzone=21,11 / fast_pskip=1 / chroma_qp_offset=0 / threads=6 / lookahead_threads=1 / sliced_threads=0 / slices=1 / nr=0 / decimate=1 / interlaced=0 / bluray_compat=0 / constrained_intra=0 / bframes=0 / weightp=0 / keyint=300 / keyint_min=29 / scenecut=40 / intra_refresh=0 / rc_lookahead=10 / rc=cbr / mbtree=1 / bitrate=10000 / ratetol=1.0 / qcomp=0.60 / qpmin=0 / qpmax=69 / qpstep=4 / vbv_maxrate=10000 / vbv_bufsize=10000 / nal_hrd=cbr / ip_ratio=1.40 / aq=1:1.00
Цветовой диапазон : Limited
Основные цвета : BT.709
Характеристики трансфера : BT.709
Коэффициенты матрицы : BT.709
Аудио
Идентификатор : 1
Формат : AAC
Формат/Информация : Advanced Audio Codec
Профиль формата : LC
Идентификатор кодека : 40
Продолжительность : 3 м. 30 с.
Вид битрейта : Переменный
Битрейт : 317 Кбит/сек
Максимальный битрейт : 576 Кбит/сек
Каналы : 2 канала
Расположение каналов : Front: L R
Частота : 48,0 КГц
Частота кадров : 46,875 кадров/сек (1024 SPF)
Метод сжатия : С потерями
Размер потока : 7,95 Мбайт (3%)


MAMAMOO - Aya [Bugs! 1080p] | новинка!
Релиз: 2020.10.29 | Продолжительность: 0:03:39
Перевод: Английские, польские, русские субтитры, внешние
Качество: HD 1080p | Контейнер: MP4
Видео: AVC, 1920x1080 (16:9), 61.5 Мбит/с, 23.976 кадра/с
Аудио: AAC, 317 Кбит/с, 48.0 КГц, 2 канала




Отчёт MediaInfo
Общее
Полное имя : G:\K-Pop\Bugs!\mmm\Mamamoo - Aya [Bugs! 1080p].mp4
Формат : MPEG-4
Профиль формата : Base Media / Version 2
Идентификатор кодека : mp42 (mp42/mp41)
Размер файла : 1,58 Гбайт
Продолжительность : 3 м. 39 с.
Режим общего битрейта : Переменный
Общий поток : 61,8 Мбит/сек
Дата кодирования : UTC 2020-11-02 06:55:50
Дата пометки : UTC 2020-11-02 06:57:58
TIM : 00:06:50:04
TSC : 24000
TSZ : 1001
Видео
Идентификатор : 1
Формат : AVC
Формат/Информация : Advanced Video Codec
Профиль формата : High@L4.2
Настройки формата : CABAC / 2 Ref Frames
Параметр CABAC формата : Да
Параметр RefFrames формата : 2 кадра
Идентификатор кодека : avc1
Идентификатор кодека/Информация : Advanced Video Coding
Продолжительность : 3 м. 39 с.
Вид битрейта : Переменный
Битрейт : 61,5 Мбит/сек
Максимальный битрейт : 768 Кбит/сек
Ширина : 1 920 пикселей
Высота : 1 080 пикселей
Соотношение сторон : 16:9
Режим частоты кадров : Постоянный
Частота кадров : 23,976 (24000/1001) кадра/сек
Цветовое пространство : YUV
Субдискретизация насыщенности : 4:2:0
Битовая глубина : 8 бит
Тип развёртки : Прогрессивная
Бит/(Пиксели*Кадры) : 1.237
Размер потока : 1,57 Гбайт (99%)
Язык : English
Дата кодирования : UTC 2020-11-02 06:55:50
Дата пометки : UTC 2020-11-02 06:55:50
Цветовой диапазон : Limited
Основные цвета : BT.709
Характеристики трансфера : BT.709
Коэффициенты матрицы : BT.709
Codec configuration box : avcC
Аудио
Идентификатор : 2
Формат : AAC LC
Формат/Информация : Advanced Audio Codec Low Complexity
Идентификатор кодека : mp4a-40-2
Продолжительность : 3 м. 39 с.
Продолжительность оригинала : 3 м. 39 с.
Вид битрейта : Переменный
Битрейт : 317 Кбит/сек
Максимальный битрейт : 449 Кбит/сек
Каналы : 2 канала
Channel layout : L R
Частота : 48,0 КГц
Частота кадров : 46,875 кадров/сек (1024 SPF)
Метод сжатия : С потерями
Размер потока : 8,30 Мбайт (1%)
Размер потока оригинала : 8,30 Мбайт (1%)
Язык : English
Дата кодирования : UTC 2020-11-02 06:55:51
Дата пометки : UTC 2020-11-02 06:55:51


MAMAMOO - Aze Gag [Bugs! 1080p]
Продолжительность: 0:04:22 | Релиз: 2017.06.21
Качество: HD 1080p | Контейнер: MP4
Видео: AVC, 1920x1080 (16:9), 20.0 Мбит/с, 23.98 кадра/с
Аудио: AAC, 157 Кбит/с, 48.0 КГц, 2 канала





Отчёт MediaInfo
Общее
Полное имя : E:\Torrents\mmm\MAMAMOO - Aze Gag [Bugs! HD 1080p].mp4
Формат : MPEG-4
Идентификатор кодека : M4V (M4V /mp42/isom)
Размер файла : 631 Мбайт
Продолжительность : 4 м. 22 с.
Режим общего битрейта : Переменный
Общий поток : 20,2 Мбит/сек
Дата кодирования : UTC 2017-06-21 11:03:58
Дата пометки : UTC 2017-06-21 11:04:26
©TIM : 01:11:24:00
©TSC : 24000
©TSZ : 1001
Видео
Идентификатор : 1
Формат : AVC
Формат/Информация : Advanced Video Codec
Профиль формата : High@L4
Параметр CABAC формата : Нет
Параметр ReFrames формата : 2 кадра
Идентификатор кодека : avc1
Идентификатор кодека/Информация : Advanced Video Coding
Продолжительность : 4 м. 22 с.
Продолжительность оригинала : 4 м. 22 с.
Битрейт : 20,0 Мбит/сек
Ширина : 1920 пикселей
Высота : 1080 пикселей
Соотношение сторон : 16:9
Режим частоты кадров : Переменный
Частота кадров : 23,976 (24000/1001) кадра/сек
Минимальная частота кадров : 23,976 кадра/сек
Максимальная частота кадров : 24,000 кадра/сек
Стандарт вещания : NTSC
Цветовое пространство : YUV
Субдискретизация насыщенности : 4:2:0
Битовая глубина : 8 бит
Тип развёртки : Прогрессивная
Бит/(Пиксели*Кадры) : 0.402
Размер потока : 626 Мбайт (99%)
Размер потока оригинала : 626 Мбайт (99%)
Язык : English
Дата кодирования : UTC 2017-06-21 11:03:58
Дата пометки : UTC 2017-06-21 11:03:58
Цветовой диапазон : Limited
Основные цвета : BT.709
Характеристики трансфера : BT.709
Коэффициенты матрицы : BT.709
mdhd_Duration : 262512
Аудио
Идентификатор : 2
Формат : AAC
Формат/Информация : Advanced Audio Codec
Профиль формата : LC
Идентификатор кодека : 40
Продолжительность : 4 м. 22 с.
Продолжительность оригинала : 4 м. 22 с.
Вид битрейта : Переменный
Битрейт : 157 Кбит/сек
Максимальный битрейт : 249 Кбит/сек
Каналы : 2 канала
Расположение каналов : Front: L R
Частота : 48,0 КГц
Частота кадров : 46,875 кадров/сек (1024 spf)
Метод сжатия : С потерями
Размер потока : 4,92 Мбайт (1%)
Размер потока оригинала : 4,93 Мбайт (1%)
Язык : English
Дата кодирования : UTC 2017-06-21 11:03:58
Дата пометки : UTC 2017-06-21 11:03:58
mdhd_Duration : 262549


MAMAMOO - Decalcomanie [Bugs! 1080p]
Релиз: 2016.11.02 | Продолжительность: 0:05:31
Перевод: Английские субтитры, внешние
Качество: HD 1080p | Контейнер: MP4
Видео: AVC, 1920x1080 (16:9), 20.0 Мбит/с, 23.976 кадра/с
Аудио: AAC, 157 Кбит/с, 48.0 КГц, 2 канала





Отчёт MediaInfo
Общее
Полное имя : E:\Torrents\mmm\Mamamoo - Decalcomanie [Bugs! 1080p].mp4
Формат : MPEG-4
Профиль формата : Base Media
Идентификатор кодека : isom (isom/iso2/avc1/mp41)
Размер файла : 796 Мбайт
Продолжительность : 5 м. 31 с.
Общий поток : 20,2 Мбит/сек
Программа кодирования : Lavf56.1.100
Видео
Идентификатор : 1
Формат : AVC
Формат/Информация : Advanced Video Codec
Профиль формата : High@L4
Параметр CABAC формата : Нет
Параметр RefFrames формата : 2 кадра
Идентификатор кодека : avc1
Идентификатор кодека/Информация : Advanced Video Coding
Продолжительность : 5 м. 31 с.
Битрейт : 20,0 Мбит/сек
Ширина : 1920 пикселей
Высота : 1080 пикселей
Соотношение сторон : 16:9
Режим частоты кадров : Переменный
Частота кадров : 23,976 (24000/1001) кадра/сек
Минимальная частота кадров : 23,976 кадра/сек
Максимальная частота кадров : 24,000 кадра/сек
Стандарт вещания : NTSC
Цветовое пространство : YUV
Субдискретизация насыщенности : 4:2:0
Битовая глубина : 8 бит
Тип развёртки : Прогрессивная
Бит/(Пиксели*Кадры) : 0.402
Размер потока : 790 Мбайт (99%)
Язык : English
Цветовой диапазон : Limited
Основные цвета : BT.709
Характеристики трансфера : BT.709
Коэффициенты матрицы : BT.709
Аудио
Идентификатор : 2
Формат : AAC
Формат/Информация : Advanced Audio Codec
Профиль формата : LC
Идентификатор кодека : 40
Продолжительность : 5 м. 31 с.
Вид битрейта : Постоянный
Битрейт : 157 Кбит/сек
Каналы : 2 канала
Расположение каналов : Front: L R
Частота : 48,0 КГц
Частота кадров : 46,875 кадров/сек (1024 SPF)
Метод сжатия : С потерями
Размер потока : 6,22 Мбайт (1%)
Язык : English
Default : Да
AlternateGroup/String : 1


MAMAMOO - Dingga [Bugs! 1080p] | новинка!
Релиз: 2020.10.19 | Продолжительность: 0:03:52
Перевод: Английские, польские, русские субтитры, внешние
Качество: HD 1080p | Контейнер: MP4
Видео: AVC, 1920x1080 (16:9), 21.3 Мбит/с, 23.976 кадра/с
Аудио: AAC, 317 Кбит/с, 48.0 КГц, 2 канала




Отчёт MediaInfo
Общее
Полное имя : G:\K-Pop\Bugs!\mmm\MAMAMOO - Dingga [Bugs! 1080p].mp4
Формат : MPEG-4
Профиль формата : Base Media / Version 2
Идентификатор кодека : mp42 (mp42/mp41)
Размер файла : 602 Мбайт
Продолжительность : 3 м. 52 с.
Режим общего битрейта : Переменный
Общий поток : 21,7 Мбит/сек
Дата кодирования : UTC 2020-10-20 07:31:48
Дата пометки : UTC 2020-10-20 07:32:36
TIM : 00:00:00:00
TSC : 24000
TSZ : 1001
Видео
Идентификатор : 1
Формат : AVC
Формат/Информация : Advanced Video Codec
Профиль формата : High@L4.2
Настройки формата : CABAC / 2 Ref Frames
Параметр CABAC формата : Да
Параметр RefFrames формата : 2 кадра
Идентификатор кодека : avc1
Идентификатор кодека/Информация : Advanced Video Coding
Продолжительность : 3 м. 52 с.
Вид битрейта : Переменный
Битрейт : 21,3 Мбит/сек
Максимальный битрейт : 768 Кбит/сек
Ширина : 1 920 пикселей
Высота : 1 080 пикселей
Соотношение сторон : 16:9
Режим частоты кадров : Постоянный
Частота кадров : 23,976 (24000/1001) кадра/сек
Цветовое пространство : YUV
Субдискретизация насыщенности : 4:2:0
Битовая глубина : 8 бит
Тип развёртки : Прогрессивная
Бит/(Пиксели*Кадры) : 0.429
Размер потока : 592 Мбайт (98%)
Язык : English
Дата кодирования : UTC 2020-10-20 07:31:48
Дата пометки : UTC 2020-10-20 07:31:48
Цветовой диапазон : Limited
Основные цвета : BT.709
Характеристики трансфера : BT.709
Коэффициенты матрицы : BT.709
Codec configuration box : avcC
Аудио
Идентификатор : 2
Формат : AAC LC
Формат/Информация : Advanced Audio Codec Low Complexity
Идентификатор кодека : mp4a-40-2
Продолжительность : 3 м. 52 с.
Продолжительность оригинала : 3 м. 52 с.
Вид битрейта : Переменный
Битрейт : 317 Кбит/сек
Максимальный битрейт : 465 Кбит/сек
Каналы : 2 канала
Channel layout : L R
Частота : 48,0 КГц
Частота кадров : 46,875 кадров/сек (1024 SPF)
Метод сжатия : С потерями
Размер потока : 8,80 Мбайт (1%)
Размер потока оригинала : 8,80 Мбайт (1%)
Язык : English
Дата кодирования : UTC 2020-10-20 07:31:48
Дата пометки : UTC 2020-10-20 07:31:48


MAMAMOO - Egotistic [Bugs! 1080p]
Релиз: 2018.07.11 | Продолжительность: 0:03:34
Перевод: Английские субтитры, внешние
Качество: HD 1080p | Контейнер: MP4
Видео: AVC, 1920x1080 (16:9), 20.0 Мбит/с, 23.976 кадра/с
Аудио: AAC, 157 Кбит/с, 48.0 КГц, stereo





Отчёт MediaInfo
Общее
Полное имя : E:\Torrents\mmm\MAMAMOO - Egotistic [Bugs! 1080p].mp4
Формат : MPEG-4
Профиль формата : Base Media
Идентификатор кодека : isom (isom/iso2/avc1/mp41)
Размер файла : 516 Мбайт
Продолжительность : 3 м. 34 с.
Общий поток : 20,1 Мбит/сек
Программа кодирования : Lavf56.32.100
Видео
Идентификатор : 1
Формат : AVC
Формат/Информация : Advanced Video Codec
Профиль формата : High@L4
Параметр CABAC формата : Нет
Параметр RefFrames формата : 2 кадра
Идентификатор кодека : avc1
Идентификатор кодека/Информация : Advanced Video Coding
Продолжительность : 3 м. 34 с.
Битрейт : 20,0 Мбит/сек
Ширина : 1920 пикселей
Высота : 1080 пикселей
Соотношение сторон : 16:9
Режим частоты кадров : Переменный
Частота кадров : 23,976 (24000/1001) кадра/сек
Минимальная частота кадров : 23,810 кадра/сек
Максимальная частота кадров : 24,390 кадра/сек
Стандарт вещания : NTSC
Цветовое пространство : YUV
Субдискретизация насыщенности : 4:2:0
Битовая глубина : 8 бит
Тип развёртки : Прогрессивная
Бит/(Пиксели*Кадры) : 0.402
Размер потока : 512 Мбайт (99%)
Язык : English
Цветовой диапазон : Limited
Основные цвета : BT.709
Характеристики трансфера : BT.709
Коэффициенты матрицы : BT.709
Аудио
Идентификатор : 2
Формат : AAC
Формат/Информация : Advanced Audio Codec
Профиль формата : LC
Идентификатор кодека : 40
Продолжительность : 3 м. 34 с.
Вид битрейта : Постоянный
Битрейт : 157 Кбит/сек
Каналы : 2 канала
Расположение каналов : Front: L R
Частота : 48,0 КГц
Частота кадров : 46,875 кадров/сек (1024 SPF)
Метод сжатия : С потерями
Размер потока : 4,03 Мбайт (1%)
Язык : English
Default : Да
AlternateGroup/String : 1


MAMAMOO - Gleam (Davich Optical Collaboration Campaign) [Master 1080p]
Релиз: 2019.07.22 | Продолжительность: 0:03:07
Перевод: Английские субтитры, внешние
Качество: HD 1080p | Контейнер: MP4
Видео: AVC, 1920x1080 (16:9), 20.0 Мбит/с, 23.976 кадра/с
Аудио: AAC, 128 Кбит/с, 48.0 КГц, stereo





Отчёт MediaInfo
Общее
Полное имя : G:\K-Pop\Bugs!\mmm\Mamamoo - Gleam (Davich Optical Collaboration Campaign) [Master 1080p].mp4
Формат : MPEG-4
Профиль формата : Base Media
Идентификатор кодека : isom (isom/iso2/avc1/mp41)
Размер файла : 453 Мбайт
Продолжительность : 3 м. 7 с.
Общий поток : 20,3 Мбит/сек
Программа кодирования : ShanaEncoder
Видео
Идентификатор : 1
Формат : AVC
Формат/Информация : Advanced Video Codec
Профиль формата : Baseline@L4.1
Параметр CABAC формата : Нет
Параметр RefFrames формата : 1 кадр
Идентификатор кодека : avc1
Идентификатор кодека/Информация : Advanced Video Coding
Продолжительность : 3 м. 7 с.
Битрейт : 20,0 Мбит/сек
Ширина : 1920 пикселей
Высота : 1080 пикселей
Соотношение сторон : 16:9
Режим частоты кадров : Постоянный
Частота кадров : 23,976 (24000/1001) кадра/сек
Цветовое пространство : YUV
Субдискретизация насыщенности : 4:2:0
Битовая глубина : 8 бит
Тип развёртки : Прогрессивная
Бит/(Пиксели*Кадры) : 0.402
Размер потока : 450 Мбайт (99%)
Библиотека кодирования : x264 core 150 r2833 df79067
Настройки программы : cabac=0 / ref=1 / deblock=1:0:0 / analyse=0x1:0x111 / me=hex / subme=2 / psy=1 / psy_rd=1.00:0.00 / mixed_ref=0 / me_range=16 / chroma_me=1 / trellis=0 / 8x8dct=0 / cqm=0 / deadzone=21,11 / fast_pskip=1 / chroma_qp_offset=0 / threads=12 / lookahead_threads=4 / sliced_threads=0 / nr=0 / decimate=1 / interlaced=0 / bluray_compat=0 / constrained_intra=0 / bframes=0 / weightp=0 / keyint=250 / keyint_min=23 / scenecut=40 / intra_refresh=0 / rc_lookahead=10 / rc=abr / mbtree=1 / bitrate=20000 / ratetol=1.0 / qcomp=0.60 / qpmin=0 / qpmax=69 / qpstep=4 / ip_ratio=1.40 / aq=1:1.00
Аудио
Идентификатор : 2
Формат : AAC
Формат/Информация : Advanced Audio Codec
Профиль формата : LC
Идентификатор кодека : 40
Продолжительность : 3 м. 7 с.
Вид битрейта : Постоянный
Битрейт : 128 Кбит/сек
Каналы : 2 канала
Расположение каналов : Front: L R
Частота : 48,0 КГц
Частота кадров : 46,875 кадров/сек (1024 SPF)
Метод сжатия : С потерями
Размер потока : 2,86 Мбайт (1%)
Default : Да
AlternateGroup/String : 1


MAMAMOO - gogobebe [Bugs! 1080p]
Релиз: 2019.03.11 | Продолжительность: 0:04:05
Перевод: Английские субтитры, внешние
Качество: HD 1080p | Контейнер: MP4
Видео: AVC, 1920x1080 (16:9), 25.0 Мбит/с, 23.976 кадра/с
Аудио: AAC, 157 Кбит/с, 48.0 КГц, stereo





Отчёт MediaInfo
Общее
Полное имя : G:\K-Pop\Bugs!\mmm\Mamamoo - gogobebe [Bugs! 1080p].mp4
Формат : MPEG-4
Идентификатор кодека : M4V (M4V /mp42/isom)
Размер файла : 736 Мбайт
Продолжительность : 4 м. 5 с.
Режим общего битрейта : Переменный
Общий поток : 25,2 Мбит/сек
Дата кодирования : UTC 2019-03-13 15:10:19
Дата пометки : UTC 2019-03-13 15:10:32
©TIM : 01:04:21:16
©TSC : 24000
©TSZ : 1001
Видео
Идентификатор : 1
Формат : AVC
Формат/Информация : Advanced Video Codec
Профиль формата : High@L4
Параметр CABAC формата : Нет
Параметр RefFrames формата : 2 кадра
Идентификатор кодека : avc1
Идентификатор кодека/Информация : Advanced Video Coding
Продолжительность : 4 м. 5 с.
Продолжительность оригинала : 4 м. 5 с.
Битрейт : 25,0 Мбит/сек
Ширина : 1920 пикселей
Высота : 1080 пикселей
Соотношение сторон : 16:9
Режим частоты кадров : Переменный
Частота кадров : 23,976 (24000/1001) кадра/сек
Минимальная частота кадров : 23,976 кадра/сек
Максимальная частота кадров : 24,000 кадра/сек
Стандарт вещания : NTSC
Цветовое пространство : YUV
Субдискретизация насыщенности : 4:2:0
Битовая глубина : 8 бит
Тип развёртки : Прогрессивная
Бит/(Пиксели*Кадры) : 0.503
Размер потока : 732 Мбайт (99%)
Размер потока оригинала : 732 Мбайт (99%)
Язык : English
Дата кодирования : UTC 2019-03-13 15:10:19
Дата пометки : UTC 2019-03-13 15:10:19
Цветовой диапазон : Limited
Основные цвета : BT.709
Характеристики трансфера : BT.709
Коэффициенты матрицы : BT.709
mdhd_Duration : 245620
Аудио
Идентификатор : 2
Формат : AAC
Формат/Информация : Advanced Audio Codec
Профиль формата : LC
Идентификатор кодека : 40
Продолжительность : 4 м. 5 с.
Продолжительность оригинала : 4 м. 5 с.
Вид битрейта : Переменный
Битрейт : 157 Кбит/сек
Максимальный битрейт : 246 Кбит/сек
Каналы : 2 канала
Расположение каналов : Front: L R
Частота : 48,0 КГц
Частота кадров : 46,875 кадров/сек (1024 SPF)
Метод сжатия : С потерями
Размер потока : 4,61 Мбайт (1%)
Размер потока оригинала : 4,61 Мбайт (1%)
Язык : English
Дата кодирования : UTC 2019-03-13 15:10:19
Дата пометки : UTC 2019-03-13 15:10:19
mdhd_Duration : 245675


MAMAMOO - HIP [Bugs! 1080p]
Релиз: 2019.11.13 | Продолжительность: 0:03:30
Перевод: Английские субтитры, внешние
Качество: HD 1080p | Контейнер: MP4
Видео: AVC, 1920x1080 (16:9), 25.0 Мбит/с, 23.976 кадра/с
Аудио: AAC, 157 Кбит/с, 48.0 КГц, stereo





Отчёт MediaInfo
Общее
Полное имя : E:\Torrents\mmm\MAMAMOO - HIP [Bugs! 1080p].mp4
Формат : MPEG-4
Идентификатор кодека : M4V (M4V /mp42/isom)
Размер файла : 631 Мбайт
Продолжительность : 3 м. 30 с.
Режим общего битрейта : Переменный
Общий поток : 25,2 Мбит/сек
Дата кодирования : UTC 2019-11-13 19:00:00
Дата пометки : UTC 2019-11-13 19:00:17
©TIM : 01:09:04:14
©TSC : 24000
©TSZ : 1001
Видео
Идентификатор : 1
Формат : AVC
Формат/Информация : Advanced Video Codec
Профиль формата : High@L4
Параметр CABAC формата : Нет
Параметр RefFrames формата : 2 кадра
Идентификатор кодека : avc1
Идентификатор кодека/Информация : Advanced Video Coding
Продолжительность : 3 м. 30 с.
Продолжительность оригинала : 3 м. 30 с.
Битрейт : 25,0 Мбит/сек
Ширина : 1920 пикселей
Высота : 1080 пикселей
Соотношение сторон : 16:9
Режим частоты кадров : Переменный
Частота кадров : 23,976 (24000/1001) кадра/сек
Минимальная частота кадров : 23,976 кадра/сек
Максимальная частота кадров : 24,000 кадра/сек
Стандарт вещания : NTSC
Цветовое пространство : YUV
Субдискретизация насыщенности : 4:2:0
Битовая глубина : 8 бит
Тип развёртки : Прогрессивная
Бит/(Пиксели*Кадры) : 0.503
Размер потока : 627 Мбайт (99%)
Размер потока оригинала : 627 Мбайт (99%)
Язык : English
Дата кодирования : UTC 2019-11-13 19:00:00
Дата пометки : UTC 2019-11-13 19:00:00
Цветовой диапазон : Limited
Основные цвета : BT.709
Характеристики трансфера : BT.709
Коэффициенты матрицы : BT.709
mdhd_Duration : 210544
Аудио
Идентификатор : 2
Формат : AAC
Формат/Информация : Advanced Audio Codec
Профиль формата : LC
Идентификатор кодека : 40
Продолжительность : 3 м. 30 с.
Продолжительность оригинала : 3 м. 30 с.
Вид битрейта : Переменный
Битрейт : 157 Кбит/сек
Максимальный битрейт : 240 Кбит/сек
Каналы : 2 канала
Расположение каналов : Front: L R
Частота : 48,0 КГц
Частота кадров : 46,875 кадров/сек (1024 SPF)
Метод сжатия : С потерями
Размер потока : 3,95 Мбайт (1%)
Размер потока оригинала : 3,95 Мбайт (1%)
Язык : English
Дата кодирования : UTC 2019-11-13 19:00:00
Дата пометки : UTC 2019-11-13 19:00:00
mdhd_Duration : 210581


MAMAMOO - Mr. Ambiguous [Naver 1080p]
Релиз: 2014.06.03 | Продолжительность: 0:05:25
Качество: HD 1080p | Контейнер: MP4
Видео: AVC, 1920x1080 (16:9), 5121 Кбит/с, 24.0 кадра/с
Аудио: AAC, 192 Кбит/с, 44.1 КГц, stereo





Отчёт MediaInfo
Общее
Полное имя : G:\K-Pop\Bugs!\mmm\MAMAMOO - Mr. Ambiguous [Naver 1080p].mp4
Формат : MPEG-4
Профиль формата : Base Media
Идентификатор кодека : isom (isom/iso2/avc1/mp41)
Размер файла : 207 Мбайт
Продолжительность : 5 м. 25 с.
Режим общего битрейта : Переменный
Общий поток : 5319 Кбит/сек
Дата кодирования : UTC 2014-06-18 01:28:54
Дата пометки : UTC 2014-06-18 01:28:54
Программа кодирования : Lavf52.62.0
Примечание : FlixEngineLinux_8.0.18.0 (www.on2.com)
Видео
Идентификатор : 1
Формат : AVC
Формат/Информация : Advanced Video Codec
Профиль формата : High@L4
Параметр CABAC формата : Да
Параметр RefFrames формата : 4 кадра
Параметр GOP формата : M=1, N=24
Идентификатор кодека : avc1
Идентификатор кодека/Информация : Advanced Video Coding
Продолжительность : 5 м. 25 с.
Битрейт : 5121 Кбит/сек
Ширина : 1920 пикселей
Высота : 1080 пикселей
Соотношение сторон : 16:9
Режим частоты кадров : Переменный
Частота кадров : 24,000 кадра/сек
Минимальная частота кадров : 23,810 кадра/сек
Максимальная частота кадров : 24,390 кадра/сек
Цветовое пространство : YUV
Субдискретизация насыщенности : 4:2:0
Битовая глубина : 8 бит
Тип развёртки : Прогрессивная
Бит/(Пиксели*Кадры) : 0.103
Размер потока : 199 Мбайт (96%)
Дата кодирования : UTC 2014-06-18 01:28:54
Дата пометки : UTC 2014-06-18 01:28:54
Аудио
Идентификатор : 2
Формат : AAC
Формат/Информация : Advanced Audio Codec
Профиль формата : LC
Идентификатор кодека : 40
Продолжительность : 5 м. 25 с.
Вид битрейта : Переменный
Битрейт : 192 Кбит/сек
Каналы : 2 канала
Расположение каналов : Front: L R
Частота : 44,1 КГц
Частота кадров : 43,066 кадра/сек (1024 SPF)
Метод сжатия : С потерями
Размер потока : 7,45 Мбайт (4%)
Дата кодирования : UTC 2014-06-18 01:28:54
Дата пометки : UTC 2014-06-18 01:28:54


MAMAMOO - Piano Man [MelOn 1080p]
Релиз: 2014.11.14 | Продолжительность: 0:03:50
Качество: HD 1080p | Контейнер: MP4
Видео: AVC, 1920x1080 (16:9), 10.0 Мбит/с, 23.976 кадра/с
Аудио: AAC, 317 Кбит/с, 48.0 КГц, stereo





Отчёт MediaInfo
Общее
Полное имя : G:\K-Pop\Bugs!\mmm\MAMAMOO - Piano Man [MelOn 1080p].mp4
Формат : MPEG-4
Профиль формата : Base Media / Version 2
Идентификатор кодека : mp42 (mp42/isom/avc1)
Размер файла : 279 Мбайт
Продолжительность : 3 м. 50 с.
Режим общего битрейта : Переменный
Общий поток : 10,1 Мбит/сек
Программа кодирования : TMPGEnc Video Mastering Works 5 Version. 5.4.0.100
Видео
Идентификатор : 2
Формат : AVC
Формат/Информация : Advanced Video Codec
Профиль формата : Baseline@L4.1
Параметр CABAC формата : Нет
Параметр RefFrames формата : 4 кадра
Идентификатор кодека : avc1
Идентификатор кодека/Информация : Advanced Video Coding
Продолжительность : 3 м. 50 с.
Вид битрейта : Постоянный
Битрейт : 10000 Кбит/сек / 10000 Кбит/сек
Ширина : 1920 пикселей
Высота : 1080 пикселей
Соотношение сторон : 16:9
Режим частоты кадров : Постоянный
Частота кадров : 23,976 (24000/1001) кадра/сек
Стандарт вещания : Component
Цветовое пространство : YUV
Субдискретизация насыщенности : 4:2:0
Битовая глубина : 8 бит
Тип развёртки : Прогрессивная
Бит/(Пиксели*Кадры) : 0.201
Размер потока : 270 Мбайт (97%)
Библиотека кодирования : x264 core 125
Настройки программы : cabac=0 / ref=4 / deblock=1:0:0 / analyse=0x1:0x111 / me=dia / subme=2 / psy=1 / psy_rd=1.00:0.00 / mixed_ref=0 / me_range=16 / chroma_me=1 / trellis=0 / 8x8dct=0 / cqm=0 / deadzone=21,11 / fast_pskip=1 / chroma_qp_offset=0 / threads=6 / lookahead_threads=1 / sliced_threads=0 / slices=1 / nr=0 / decimate=1 / interlaced=0 / bluray_compat=0 / constrained_intra=0 / bframes=0 / weightp=0 / keyint=300 / keyint_min=23 / scenecut=40 / intra_refresh=0 / rc_lookahead=10 / rc=cbr / mbtree=1 / bitrate=10000 / ratetol=1.0 / qcomp=0.60 / qpmin=0 / qpmax=69 / qpstep=4 / vbv_maxrate=10000 / vbv_bufsize=10000 / nal_hrd=cbr / ip_ratio=1.40 / aq=1:1.00
Цветовой диапазон : Limited
Основные цвета : BT.709
Характеристики трансфера : BT.709
Коэффициенты матрицы : BT.709
Аудио
Идентификатор : 1
Формат : AAC
Формат/Информация : Advanced Audio Codec
Профиль формата : LC
Идентификатор кодека : 40
Продолжительность : 3 м. 50 с.
Вид битрейта : Переменный
Битрейт : 317 Кбит/сек
Максимальный битрейт : 576 Кбит/сек
Каналы : 2 канала
Расположение каналов : Front: L R
Частота : 48,0 КГц
Частота кадров : 46,875 кадров/сек (1024 SPF)
Метод сжатия : С потерями
Размер потока : 8,74 Мбайт (3%)


MAMAMOO - Starry Night [Bugs! 1080p]
Продолжительность: 0:04:21 | Релиз: 2018.03.05
Перевод: Английские и русские субтитры, внешние
Качество: HD 1080p | Контейнер: MKV
Видео: AVC, 1920x1080 (16:9), 20.0 Мбит/с, 23.98 кадра/с
Аудио: AAC, 157 Кбит/с, 48.0 КГц, stereo






Отчёт MediaInfo
Общее
Уникальный идентификатор : 148330912468095852033811183764515718318 (0x6F977E9E1C050E9724DF293662EA04AE)
Полное имя : E:\Torrents\mmm\MAMAMOO - Starry Night [Bugs! HD 1080p].mkv
Формат : Matroska
Версия формата : Version 4 / Version 2
Размер файла : 628 Мбайт
Продолжительность : 4 м. 21 с.
Общий поток : 20,2 Мбит/сек
Программа кодирования : Lavf58.3.100
Библиотека кодирования : Lavf58.3.100
ErrorDetectionType : Per level 1
Attachments : Cooper Black_0.ttf
Видео
Идентификатор : 1
Формат : AVC
Формат/Информация : Advanced Video Codec
Профиль формата : High@L4
Параметр CABAC формата : Нет
Параметр ReFrames формата : 2 кадра
Идентификатор кодека : V_MPEG4/ISO/AVC
Продолжительность : 4 м. 21 с.
Ширина : 1920 пикселей
Высота : 1080 пикселей
Соотношение сторон : 16:9
Режим частоты кадров : Постоянный
Частота кадров : 23,976 (24000/1001) кадра/сек
Стандарт вещания : NTSC
Цветовое пространство : YUV
Субдискретизация насыщенности : 4:2:0
Битовая глубина : 8 бит
Тип развёртки : Прогрессивная
Библиотека кодирования : AVC Coding
Язык : English
Default : Да
Forced : Нет
Цветовой диапазон : Limited
Основные цвета : BT.709
Характеристики трансфера : BT.709
Коэффициенты матрицы : BT.709
DURATION : 00:04:21.261000000
HANDLER_NAME : Mainconcept MP4 Video Media Handler
Аудио
Идентификатор : 2
Формат : AAC
Формат/Информация : Advanced Audio Codec
Профиль формата : LC
Идентификатор кодека : A_AAC
Продолжительность : 4 м. 21 с.
Каналы : 2 канала
Расположение каналов : Front: L R
Частота : 48,0 КГц
Частота кадров : 46,875 кадров/сек (1024 spf)
Метод сжатия : С потерями
Язык : English
Default : Да
Forced : Нет
DURATION : 00:04:21.261000000
HANDLER_NAME : Mainconcept MP4 Sound Media Handler
Текст
Идентификатор : 3
Формат : UTF-8
Идентификатор кодека : S_TEXT/UTF8
Идентификатор кодека/Информация : UTF-8 Plain Text
Библиотека кодирования : Lavc58.9.100 srt
Default : Да
Forced : Нет
DURATION : 00:02:15.510000000


MAMAMOO - Taller Than You [MelOn 1080p]
Продолжительность: 0:03:07 | Релиз: 2016.02.05
Качество: HD 1080p | Контейнер: MP4
Видео: AVC, 1920x1080 (16:9), 10.0 Мбит/с, 29.97 кадра/с
Аудио: AAC, 317 Кбит/с, 48.0 КГц, stereo





Отчёт MediaInfo
Общее
Полное имя : E:\Torrents\mmm\MAMAMOO - Taller Than You [MelOn 1080p].mp4
Формат : MPEG-4
Профиль формата : Base Media / Version 2
Идентификатор кодека : mp42 (mp42/isom/avc1)
Размер файла : 228 Мбайт
Продолжительность : 3 м. 7 с.
Режим общего битрейта : Переменный
Общий поток : 10,2 Мбит/сек
Программа кодирования : TMPGEnc Video Mastering Works 5 Version. 5.4.0.100
Видео
Идентификатор : 2
Формат : AVC
Формат/Информация : Advanced Video Codec
Профиль формата : Baseline@L4.1
Параметр CABAC формата : Нет
Параметр ReFrames формата : 4 кадра
Идентификатор кодека : avc1
Идентификатор кодека/Информация : Advanced Video Coding
Продолжительность : 3 м. 7 с.
Вид битрейта : Постоянный
Битрейт : 10000 Кбит/сек / 10000 Кбит/сек
Ширина : 1920 пикселей
Высота : 1080 пикселей
Соотношение сторон : 16:9
Режим частоты кадров : Постоянный
Частота кадров : 29,970 (30000/1001) кадров/сек
Стандарт вещания : Component
Цветовое пространство : YUV
Субдискретизация насыщенности : 4:2:0
Битовая глубина : 8 бит
Тип развёртки : Прогрессивная
Бит/(Пиксели*Кадры) : 0.161
Размер потока : 221 Мбайт (97%)
Библиотека кодирования : x264 core 125
Настройки программы : cabac=0 / ref=4 / deblock=1:0:0 / analyse=0x1:0x111 / me=hex / subme=4 / psy=1 / psy_rd=1.00:0.00 / mixed_ref=0 / me_range=16 / chroma_me=1 / trellis=1 / 8x8dct=0 / cqm=0 / deadzone=21,11 / fast_pskip=1 / chroma_qp_offset=0 / threads=6 / lookahead_threads=1 / sliced_threads=0 / slices=1 / nr=0 / decimate=1 / interlaced=0 / bluray_compat=0 / constrained_intra=0 / bframes=0 / weightp=0 / keyint=300 / keyint_min=29 / scenecut=40 / intra_refresh=0 / rc_lookahead=20 / rc=cbr / mbtree=1 / bitrate=10000 / ratetol=1.0 / qcomp=0.60 / qpmin=0 / qpmax=69 / qpstep=4 / vbv_maxrate=10000 / vbv_bufsize=10000 / nal_hrd=cbr / ip_ratio=1.40 / aq=1:1.00
Цветовой диапазон : Limited
Основные цвета : BT.709
Характеристики трансфера : BT.709
Коэффициенты матрицы : BT.709
Аудио
Идентификатор : 1
Формат : AAC
Формат/Информация : Advanced Audio Codec
Профиль формата : LC
Идентификатор кодека : 40
Продолжительность : 3 м. 7 с.
Вид битрейта : Переменный
Битрейт : 317 Кбит/сек
Максимальный битрейт : 576 Кбит/сек
Каналы : 2 канала
Расположение каналов : Front: L R
Частота : 48,0 КГц
Частота кадров : 46,875 кадров/сек (1024 spf)
Метод сжатия : С потерями
Размер потока : 7,11 Мбайт (3%)


MAMAMOO - Um Oh Ah Yeh [GomTV 1080p]
Продолжительность: 0:04:04 | Релиз: 2015.06.12
Качество: HD 1080p | Контейнер: MP4
Видео: AVC, 1920x1080 (16:9), 10.1 Мбит/с, 23.98 кадра/с
Аудио: AAC, 128 Кбит/с, 44.1 КГц, stereo





Отчёт MediaInfo
Общее
Полное имя : E:\Torrents\mmm\MAMAMOO - Um Oh Ah Yeh [GomTV 1080p].mp4
Формат : MPEG-4
Профиль формата : Base Media
Идентификатор кодека : isom (mp41)
Размер файла : 297 Мбайт
Продолжительность : 4 м. 4 с.
Режим общего битрейта : Переменный
Общий поток : 10,2 Мбит/сек
Дата кодирования : UTC 2015-06-19 01:49:42
Дата пометки : UTC 2015-06-19 01:49:42
Программа кодирования : GOM ENCODER (GMp4Writer 1.0)
Примечание : QuickTime 6.0 or greater
Видео
Идентификатор : 1
Формат : AVC
Формат/Информация : Advanced Video Codec
Профиль формата : High@L3
Параметр CABAC формата : Да
Параметр ReFrames формата : 1 кадр
Идентификатор кодека : avc1
Идентификатор кодека/Информация : Advanced Video Coding
Продолжительность : 4 м. 4 с.
Продолжительность оригинала : 4 м. 4 с.
Битрейт : 10,1 Мбит/сек
Ширина : 1920 пикселей
Высота : 1080 пикселей
Соотношение сторон : 16:9
Режим частоты кадров : Переменный
Частота кадров : 23,976 (23976/1000) кадра/сек
Минимальная частота кадров : 23,970 кадра/сек
Максимальная частота кадров : 24,212 кадра/сек
Цветовое пространство : YUV
Субдискретизация насыщенности : 4:2:0
Битовая глубина : 8 бит
Тип развёртки : Прогрессивная
Бит/(Пиксели*Кадры) : 0.202
Размер потока : 293 Мбайт (99%)
Размер потока оригинала : 293 Мбайт (99%)
Язык : English
Дата кодирования : UTC 2015-06-19 01:49:42
Дата пометки : UTC 2015-06-19 01:49:42
mdhd_Duration : 244411
Аудио
Идентификатор : 2
Формат : AAC
Формат/Информация : Advanced Audio Codec
Профиль формата : LC
Идентификатор кодека : 40
Продолжительность : 4 м. 4 с.
Продолжительность оригинала : 4 м. 4 с.
Вид битрейта : Переменный
Битрейт : 128 Кбит/сек
Максимальный битрейт : 233 Кбит/сек
Каналы : 2 канала
Расположение каналов : Front: L R
Частота : 44,1 КГц
Частота кадров : 43,066 кадра/сек (1024 spf)
Метод сжатия : С потерями
Размер потока : 3,72 Мбайт (1%)
Размер потока оригинала : 3,72 Мбайт (1%)
Язык : English
Дата кодирования : UTC 2015-06-19 01:49:42
Дата пометки : UTC 2015-06-19 01:49:42
mdhd_Duration : 244366


MAMAMOO - Wanna Be Myself [Bugs! 1080p]
Релиз: 2020.09.07 | Продолжительность: 0:03:29
Перевод: Английские, польские, русские субтитры, внешние
Качество: HD 1080p | Контейнер: MP4
Видео: AVC, 1920x1080 (16:9), 25.0 Мбит/с, 23.976 кадра/с
Аудио: AAC, 157 Кбит/с, 48.0 КГц, stereo




Отчёт MediaInfo
Общее
Полное имя : G:\K-Pop\Bugs!\mmm\MAMAMOO - Wanna Be Myself [Bugs! 1080p].mp4
Формат : MPEG-4
Идентификатор кодека : M4V (M4V /mp42/isom)
Размер файла : 629 Мбайт
Продолжительность : 3 м. 29 с.
Режим общего битрейта : Переменный
Общий поток : 25,2 Мбит/сек
Дата кодирования : UTC 2020-09-09 15:16:28
Дата пометки : UTC 2020-09-09 15:16:46
©TIM : 00:01:33:09
©TSC : 24000
©TSZ : 1001
Видео
Идентификатор : 1
Формат : AVC
Формат/Информация : Advanced Video Codec
Профиль формата : High@L4
Параметр CABAC формата : Нет
Параметр RefFrames формата : 2 кадра
Идентификатор кодека : avc1
Идентификатор кодека/Информация : Advanced Video Coding
Продолжительность : 3 м. 29 с.
Продолжительность оригинала : 3 м. 29 с.
Битрейт : 25,0 Мбит/сек
Ширина : 1920 пикселей
Высота : 1080 пикселей
Соотношение сторон : 16:9
Режим частоты кадров : Переменный
Частота кадров : 23,976 (24000/1001) кадра/сек
Минимальная частота кадров : 23,976 кадра/сек
Максимальная частота кадров : 24,000 кадра/сек
Стандарт вещания : NTSC
Цветовое пространство : YUV
Субдискретизация насыщенности : 4:2:0
Битовая глубина : 8 бит
Тип развёртки : Прогрессивная
Бит/(Пиксели*Кадры) : 0.503
Размер потока : 624 Мбайт (99%)
Размер потока оригинала : 624 Мбайт (99%)
Язык : English
Дата кодирования : UTC 2020-09-09 15:16:28
Дата пометки : UTC 2020-09-09 15:16:28
Цветовой диапазон : Limited
Основные цвета : BT.709
Характеристики трансфера : BT.709
Коэффициенты матрицы : BT.709
mdhd_Duration : 209418
Аудио
Идентификатор : 2
Формат : AAC
Формат/Информация : Advanced Audio Codec
Профиль формата : LC
Идентификатор кодека : 40
Продолжительность : 3 м. 29 с.
Продолжительность оригинала : 3 м. 29 с.
Вид битрейта : Переменный
Битрейт : 157 Кбит/сек
Максимальный битрейт : 242 Кбит/сек
Каналы : 2 канала
Расположение каналов : Front: L R
Частота : 48,0 КГц
Частота кадров : 46,875 кадров/сек (1024 SPF)
Метод сжатия : С потерями
Размер потока : 3,93 Мбайт (1%)
Размер потока оригинала : 3,93 Мбайт (1%)
Язык : English
Дата кодирования : UTC 2020-09-09 15:16:28
Дата пометки : UTC 2020-09-09 15:16:28
mdhd_Duration : 209472


MAMAMOO - Wind Flower [Bugs! 1080p]
Релиз: 2018.11.27 | Продолжительность: 0:05:32
Перевод: Английские субтитры, внешние
Качество: HD 1080p | Контейнер: MP4
Видео: AVC, 1920x1080 (16:9), 25.0 Мбит/с, 23.976 кадра/с
Аудио: AAC, 157 Кбит/с, 48.0 КГц, stereo





Отчёт MediaInfo
Общее
Полное имя : E:\Torrents\mmm\MAMAMOO - Wind Flower [Bugs! 1080p].mp4
Формат : MPEG-4
Идентификатор кодека : M4V (M4V /mp42/isom)
Размер файла : 998 Мбайт
Продолжительность : 5 м. 32 с.
Режим общего битрейта : Переменный
Общий поток : 25,2 Мбит/сек
Дата кодирования : UTC 2018-11-28 09:59:54
Дата пометки : UTC 2018-11-28 10:00:09
©TIM : 00:00:00:00
©TSC : 24000
©TSZ : 1001
Видео
Идентификатор : 1
Формат : AVC
Формат/Информация : Advanced Video Codec
Профиль формата : High@L4
Параметр CABAC формата : Нет
Параметр RefFrames формата : 2 кадра
Идентификатор кодека : avc1
Идентификатор кодека/Информация : Advanced Video Coding
Продолжительность : 5 м. 32 с.
Продолжительность оригинала : 5 м. 32 с.
Битрейт : 25,0 Мбит/сек
Ширина : 1920 пикселей
Высота : 1080 пикселей
Соотношение сторон : 16:9
Режим частоты кадров : Переменный
Частота кадров : 23,976 (24000/1001) кадра/сек
Минимальная частота кадров : 23,976 кадра/сек
Максимальная частота кадров : 24,000 кадра/сек
Стандарт вещания : NTSC
Цветовое пространство : YUV
Субдискретизация насыщенности : 4:2:0
Битовая глубина : 8 бит
Тип развёртки : Прогрессивная
Бит/(Пиксели*Кадры) : 0.503
Размер потока : 991 Мбайт (99%)
Размер потока оригинала : 991 Мбайт (99%)
Язык : English
Дата кодирования : UTC 2018-11-28 09:59:54
Дата пометки : UTC 2018-11-28 09:59:54
Цветовой диапазон : Limited
Основные цвета : BT.709
Характеристики трансфера : BT.709
Коэффициенты матрицы : BT.709
mdhd_Duration : 332666
Аудио
Идентификатор : 2
Формат : AAC
Формат/Информация : Advanced Audio Codec
Профиль формата : LC
Идентификатор кодека : 40
Продолжительность : 5 м. 32 с.
Продолжительность оригинала : 5 м. 32 с.
Вид битрейта : Переменный
Битрейт : 157 Кбит/сек
Максимальный битрейт : 239 Кбит/сек
Каналы : 2 канала
Расположение каналов : Front: L R
Частота : 48,0 КГц
Частота кадров : 46,875 кадров/сек (1024 SPF)
Метод сжатия : С потерями
Размер потока : 6,24 Мбайт (1%)
Размер потока оригинала : 6,24 Мбайт (1%)
Язык : English
Дата кодирования : UTC 2018-11-28 09:59:54
Дата пометки : UTC 2018-11-28 09:59:54
mdhd_Duration : 332715


MAMAMOO - Yes I am [Bugs! 1080p]
Продолжительность: 0:03:40 | Релиз: 2017.06.19
Качество: HD 1080p | Контейнер: MP4
Видео: AVC, 1920x1080 (16:9), 20.0 Мбит/с, 23.98 кадра/с
Аудио: AAC, 157 Кбит/с, 48.0 КГц, stereo





Отчёт MediaInfo
Общее
Полное имя : E:\Torrents\mmm\MAMAMOO - Yes I am [Bugs! HD 1080p].mp4
Формат : MPEG-4
Идентификатор кодека : M4V (M4V /mp42/isom)
Размер файла : 530 Мбайт
Продолжительность : 3 м. 40 с.
Режим общего битрейта : Переменный
Общий поток : 20,2 Мбит/сек
Дата кодирования : UTC 2017-06-21 21:27:27
Дата пометки : UTC 2017-06-21 21:27:58
©TIM : 01:04:19:10
©TSC : 24000
©TSZ : 1001
Видео
Идентификатор : 1
Формат : AVC
Формат/Информация : Advanced Video Codec
Профиль формата : High@L4
Параметр CABAC формата : Нет
Параметр ReFrames формата : 2 кадра
Идентификатор кодека : avc1
Идентификатор кодека/Информация : Advanced Video Coding
Продолжительность : 3 м. 40 с.
Продолжительность оригинала : 3 м. 40 с.
Битрейт : 20,0 Мбит/сек
Ширина : 1920 пикселей
Высота : 1080 пикселей
Соотношение сторон : 16:9
Режим частоты кадров : Переменный
Частота кадров : 23,976 (24000/1001) кадра/сек
Минимальная частота кадров : 23,976 кадра/сек
Максимальная частота кадров : 24,000 кадра/сек
Стандарт вещания : NTSC
Цветовое пространство : YUV
Субдискретизация насыщенности : 4:2:0
Битовая глубина : 8 бит
Тип развёртки : Прогрессивная
Бит/(Пиксели*Кадры) : 0.402
Размер потока : 525 Мбайт (99%)
Размер потока оригинала : 525 Мбайт (99%)
Язык : English
Дата кодирования : UTC 2017-06-21 21:27:27
Дата пометки : UTC 2017-06-21 21:27:27
Цветовой диапазон : Limited
Основные цвета : BT.709
Характеристики трансфера : BT.709
Коэффициенты матрицы : BT.709
mdhd_Duration : 220345
Аудио
Идентификатор : 2
Формат : AAC
Формат/Информация : Advanced Audio Codec
Профиль формата : LC
Идентификатор кодека : 40
Продолжительность : 3 м. 40 с.
Продолжительность оригинала : 3 м. 40 с.
Вид битрейта : Переменный
Битрейт : 157 Кбит/сек
Максимальный битрейт : 257 Кбит/сек
Каналы : 2 канала
Расположение каналов : Front: L R
Частота : 48,0 КГц
Частота кадров : 46,875 кадров/сек (1024 spf)
Метод сжатия : С потерями
Размер потока : 4,13 Мбайт (1%)
Размер потока оригинала : 4,13 Мбайт (1%)
Язык : English
Дата кодирования : UTC 2017-06-21 21:27:27
Дата пометки : UTC 2017-06-21 21:27:27
mdhd_Duration : 220395


MAMAMOO - You’re The Best [Bugs! 1080p]
Релиз: 2016.02.24 | Продолжительность: 0:04:24
Качество: HD 1080p | Контейнер: MP4
Видео: AVC, 1920x1080 (16:9), 56.1 Мбит/с, 23.976 кадра/с
Аудио: AAC, 253 Кбит/с, 48.0 КГц, stereo





Отчёт MediaInfo
Общее
Полное имя : E:\Torrents\mmm\MAMAMOO - You’re The Best [Bugs! 1080p].mp4
Формат : MPEG-4
Профиль формата : Base Media / Version 2
Идентификатор кодека : mp42 (mp42/mp41)
Размер файла : 1,71 Гбайт
Продолжительность : 4 м. 24 с.
Режим общего битрейта : Переменный
Общий поток : 55,5 Мбит/сек
Дата кодирования : UTC 2016-02-24 08:49:07
Дата пометки : UTC 2016-02-24 08:50:42
©TIM : 01:00:23:16
©TSC : 24000
©TSZ : 1001
Видео
Идентификатор : 1
Формат : AVC
Формат/Информация : Advanced Video Codec
Профиль формата : High@L4.1
Параметр CABAC формата : Да
Параметр RefFrames формата : 3 кадра
Идентификатор кодека : avc1
Идентификатор кодека/Информация : Advanced Video Coding
Продолжительность : 4 м. 24 с.
Вид битрейта : Переменный
Битрейт : 56,1 Мбит/сек
Максимальный битрейт : 60,5 Мбит/сек
Ширина : 1920 пикселей
Высота : 1080 пикселей
Соотношение сторон : 16:9
Режим частоты кадров : Постоянный
Частота кадров : 23,976 (24000/1001) кадра/сек
Стандарт вещания : NTSC
Цветовое пространство : YUV
Субдискретизация насыщенности : 4:2:0
Битовая глубина : 8 бит
Тип развёртки : Прогрессивная
Бит/(Пиксели*Кадры) : 1.128
Размер потока : 1,70 Гбайт (100%)
Язык : English
Дата кодирования : UTC 2016-02-24 08:49:07
Дата пометки : UTC 2016-02-24 08:49:07
Цветовой диапазон : Limited
Основные цвета : BT.709
Характеристики трансфера : BT.709
Коэффициенты матрицы : BT.709
Аудио
Идентификатор : 2
Формат : AAC
Формат/Информация : Advanced Audio Codec
Профиль формата : LC
Идентификатор кодека : 40
Продолжительность : 4 м. 24 с.
Продолжительность оригинала : 4 м. 24 с.
Вид битрейта : Переменный
Битрейт : 253 Кбит/сек
Максимальный битрейт : 409 Кбит/сек
Каналы : 2 канала
Расположение каналов : Front: L R
Частота : 48,0 КГц
Частота кадров : 46,875 кадров/сек (1024 SPF)
Метод сжатия : С потерями
Размер потока : 7,98 Мбайт (0%)
Размер потока оригинала : 7,98 Мбайт (0%)
Язык : English
Дата кодирования : UTC 2016-02-24 08:49:07
Дата пометки : UTC 2016-02-24 08:49:07


MAMAMOO - You're the Best (One Take Ver.) [Naver 1080p]
Продолжительность: 0:03:54 | Релиз: 2016.03.16
Качество: HD 1080p | Контейнер: MP4
Видео: AVC, 1920x1080 (16:9), 4063 Кбит/с, 23.98 кадра/с
Аудио: AAC, 192 Кбит/с, 48.0 КГц, stereo





Отчёт MediaInfo
Общее
Полное имя : E:\Torrents\mmm\MAMAMOO - You're the Best (One Take Ver.) [Naver 1080p].mp4
Формат : MPEG-4
Профиль формата : Base Media
Идентификатор кодека : isom (isom/iso2/avc1/mp41)
Размер файла : 119 Мбайт
Продолжительность : 3 м. 54 с.
Режим общего битрейта : Переменный
Общий поток : 4257 Кбит/сек
Дата кодирования : UTC 2016-03-16 02:22:36
Дата пометки : UTC 2016-03-16 02:22:36
Программа кодирования : Lavf52.62.0
Примечание : FlixEngine_8.1.0.9
Видео
Идентификатор : 1
Формат : AVC
Формат/Информация : Advanced Video Codec
Профиль формата : High@L4
Параметр CABAC формата : Да
Параметр ReFrames формата : 3 кадра
Параметр GOP формата : M=1, N=46
Идентификатор кодека : avc1
Идентификатор кодека/Информация : Advanced Video Coding
Продолжительность : 3 м. 54 с.
Битрейт : 4063 Кбит/сек
Ширина : 1920 пикселей
Высота : 1080 пикселей
Соотношение сторон : 16:9
Режим частоты кадров : Переменный
Частота кадров : 23,976 (23976/1000) кадра/сек
Минимальная частота кадров : 23,923 кадра/сек
Максимальная частота кадров : 23,981 кадра/сек
Цветовое пространство : YUV
Субдискретизация насыщенности : 4:2:0
Битовая глубина : 8 бит
Тип развёртки : Прогрессивная
Бит/(Пиксели*Кадры) : 0.082
Размер потока : 113 Мбайт (95%)
Дата кодирования : UTC 2016-03-16 02:22:36
Дата пометки : UTC 2016-03-16 02:22:36
Аудио
Идентификатор : 2
Формат : AAC
Формат/Информация : Advanced Audio Codec
Профиль формата : LC
Идентификатор кодека : 40
Продолжительность : 3 м. 54 с.
Вид битрейта : Переменный
Битрейт : 192 Кбит/сек
Каналы : 2 канала
Расположение каналов : Front: L R
Частота : 48,0 КГц
Частота кадров : 46,875 кадров/сек (1024 spf)
Метод сжатия : С потерями
Размер потока : 5,36 Мбайт (5%)
Дата кодирования : UTC 2016-03-16 02:22:36
Дата пометки : UTC 2016-03-16 02:22:36


MAMAMOO (Hwasa) - twit [Bugs! 1080p]
Релиз: 2019.02.12 | Продолжительность: 0:03:45
Перевод: Английские субтитры, внешние
Качество: HD 1080p | Контейнер: MP4
Видео: AVC, 1920x1080 (16:9), 25.0 Мбит/с, 23.976 кадра/с
Аудио: AAC, 157 Кбит/с, 48.0 КГц, stereo





Отчёт MediaInfo
Общее
Полное имя : E:\Torrents\mmm\Hwasa (Mamamoo) - twit [Bugs! 1080p].mp4
Формат : MPEG-4
Идентификатор кодека : M4V (M4V /mp42/isom)
Размер файла : 676 Мбайт
Продолжительность : 3 м. 45 с.
Режим общего битрейта : Переменный
Общий поток : 25,2 Мбит/сек
Дата кодирования : UTC 2019-02-13 04:58:16
Дата пометки : UTC 2019-02-13 04:58:26
©TIM : 01:08:14:02
©TSC : 24000
©TSZ : 1001
Видео
Идентификатор : 1
Формат : AVC
Формат/Информация : Advanced Video Codec
Профиль формата : High@L4
Параметр CABAC формата : Нет
Параметр RefFrames формата : 2 кадра
Идентификатор кодека : avc1
Идентификатор кодека/Информация : Advanced Video Coding
Продолжительность : 3 м. 45 с.
Продолжительность оригинала : 3 м. 45 с.
Битрейт : 25,0 Мбит/сек
Ширина : 1920 пикселей
Высота : 1080 пикселей
Соотношение сторон : 16:9
Режим частоты кадров : Переменный
Частота кадров : 23,976 (24000/1001) кадра/сек
Минимальная частота кадров : 23,976 кадра/сек
Максимальная частота кадров : 24,000 кадра/сек
Стандарт вещания : NTSC
Цветовое пространство : YUV
Субдискретизация насыщенности : 4:2:0
Битовая глубина : 8 бит
Тип развёртки : Прогрессивная
Бит/(Пиксели*Кадры) : 0.503
Размер потока : 671 Мбайт (99%)
Размер потока оригинала : 671 Мбайт (99%)
Язык : English
Дата кодирования : UTC 2019-02-13 04:58:16
Дата пометки : UTC 2019-02-13 04:58:16
Цветовой диапазон : Limited
Основные цвета : BT.709
Характеристики трансфера : BT.709
Коэффициенты матрицы : BT.709
mdhd_Duration : 225183
Аудио
Идентификатор : 2
Формат : AAC
Формат/Информация : Advanced Audio Codec
Профиль формата : LC
Идентификатор кодека : 40
Продолжительность : 3 м. 45 с.
Продолжительность оригинала : 3 м. 45 с.
Вид битрейта : Переменный
Битрейт : 157 Кбит/сек
Максимальный битрейт : 239 Кбит/сек
Каналы : 2 канала
Расположение каналов : Front: L R
Частота : 48,0 КГц
Частота кадров : 46,875 кадров/сек (1024 SPF)
Метод сжатия : С потерями
Размер потока : 4,22 Мбайт (1%)
Размер потока оригинала : 4,23 Мбайт (1%)
Язык : English
Дата кодирования : UTC 2019-02-13 04:58:16
Дата пометки : UTC 2019-02-13 04:58:16
mdhd_Duration : 225237


MAMAMOO (Moon Byul) - Selfish (Feat. SEULGI of Red Velvet) [Naver 1080p]
Релиз: 2018.05.23 | Продолжительность: 0:03:39
Перевод: Английские субтитры, внешние
Качество: HD 1080p | Контейнер: MP4
Видео: AVC, 1920x1080 (16:9), 4225 Кбит/с, 23.976 кадра/с
Аудио: AAC, 192 Кбит/с, 48.0 КГц, stereo





Отчёт MediaInfo
Общее
Полное имя : E:\Torrents\mmm\Moon Byul (Mamamoo) - Selfish (Feat. SEULGI of Red Velvet) [Naver 1080p].mp4
Формат : MPEG-4
Профиль формата : Base Media
Идентификатор кодека : isom (isom/iso2/avc1/mp41)
Размер файла : 116 Мбайт
Продолжительность : 3 м. 39 с.
Общий поток : 4418 Кбит/сек
Программа кодирования : EX1.1.5(C1.0.1)
Видео
Идентификатор : 1
Формат : AVC
Формат/Информация : Advanced Video Codec
Профиль формата : High@L4
Параметр CABAC формата : Да
Параметр RefFrames формата : 3 кадра
Идентификатор кодека : avc1
Идентификатор кодека/Информация : Advanced Video Coding
Продолжительность : 3 м. 39 с.
Битрейт : 4225 Кбит/сек
Ширина : 1920 пикселей
Высота : 1080 пикселей
Соотношение сторон : 16:9
Режим частоты кадров : Постоянный
Частота кадров : 23,976 (24000/1001) кадра/сек
Цветовое пространство : YUV
Субдискретизация насыщенности : 4:2:0
Битовая глубина : 8 бит
Тип развёртки : Прогрессивная
Бит/(Пиксели*Кадры) : 0.085
Размер потока : 111 Мбайт (96%)
Цветовой диапазон : Limited
Основные цвета : BT.709
Характеристики трансфера : BT.709
Коэффициенты матрицы : BT.709
Аудио
Идентификатор : 2
Формат : AAC
Формат/Информация : Advanced Audio Codec
Профиль формата : LC
Идентификатор кодека : 40
Продолжительность : 3 м. 39 с.
Вид битрейта : Постоянный
Битрейт : 192 Кбит/сек
Каналы : 2 канала
Расположение каналов : Front: L R
Частота : 48,0 КГц
Частота кадров : 46,875 кадров/сек (1024 SPF)
Метод сжатия : С потерями
Размер потока : 5,02 Мбайт (4%)
Default : Да
AlternateGroup/String : 1


MAMAMOO (Whee In) - Easy (Feat. Sik-K) [Naver 1080p]
Релиз: 2018.04.17 | Продолжительность: 0:03:16
Перевод: Английские субтитры, внешние
Качество: HD 1080p | Контейнер: MP4
Видео: AVC, 1920x1080 (16:9), 3696 Кбит/с, 23.976 кадра/с
Аудио: AAC, 192 Кбит/с, 48.0 КГц, stereo





Отчёт MediaInfo
Общее
Полное имя : G:\K-Pop\Bugs!\mmm\Whee In (Mamamoo) - Easy (Feat. Sik-K) [Naver 1080p].mp4
Формат : MPEG-4
Профиль формата : Base Media
Идентификатор кодека : isom (isom/iso2/avc1/mp41)
Размер файла : 91,2 Мбайт
Продолжительность : 3 м. 16 с.
Общий поток : 3890 Кбит/сек
Программа кодирования : EX1.1.2(C1.0.1)
Видео
Идентификатор : 1
Формат : AVC
Формат/Информация : Advanced Video Codec
Профиль формата : High@L4
Параметр CABAC формата : Да
Параметр RefFrames формата : 3 кадра
Идентификатор кодека : avc1
Идентификатор кодека/Информация : Advanced Video Coding
Продолжительность : 3 м. 16 с.
Битрейт : 3696 Кбит/сек
Ширина : 1920 пикселей
Высота : 1080 пикселей
Соотношение сторон : 16:9
Режим частоты кадров : Постоянный
Частота кадров : 23,976 (24000/1001) кадра/сек
Цветовое пространство : YUV
Субдискретизация насыщенности : 4:2:0
Битовая глубина : 8 бит
Тип развёртки : Прогрессивная
Бит/(Пиксели*Кадры) : 0.074
Размер потока : 86,6 Мбайт (95%)
Цветовой диапазон : Limited
Основные цвета : BT.709
Характеристики трансфера : BT.709
Коэффициенты матрицы : BT.709
Аудио
Идентификатор : 2
Формат : AAC
Формат/Информация : Advanced Audio Codec
Профиль формата : LC
Идентификатор кодека : 40
Продолжительность : 3 м. 16 с.
Вид битрейта : Постоянный
Битрейт : 192 Кбит/сек
Каналы : 2 канала
Расположение каналов : Front: L R
Частота : 48,0 КГц
Частота кадров : 46,875 кадров/сек (1024 SPF)
Метод сжатия : С потерями
Размер потока : 4,50 Мбайт (5%)
Default : Да
AlternateGroup/String : 1


MAMAMOO, eSNa - Ahh! Opp! [MelOn 1080p]
Продолжительность: 0:03:33 | Релиз: 2015.04.01
Качество: HD 1080p | Контейнер: MP4
Видео: AVC, 1920x1080 (16:9), 10.0 Мбит/с, 23.98 кадра/с
Аудио: AAC, 317 Кбит/с, 48.0 КГц, stereo





Отчёт MediaInfo
Общее
Полное имя : E:\Torrents\mmm\MAMAMOO, eSNa - Ahh! Opp! [MelOn 1080p].mp4
Формат : MPEG-4
Профиль формата : Base Media / Version 2
Идентификатор кодека : mp42 (mp42/isom/avc1)
Размер файла : 259 Мбайт
Продолжительность : 3 м. 33 с.
Режим общего битрейта : Переменный
Общий поток : 10,2 Мбит/сек
Программа кодирования : TMPGEnc Video Mastering Works 5 Version. 5.4.0.100
Видео
Идентификатор : 2
Формат : AVC
Формат/Информация : Advanced Video Codec
Профиль формата : Baseline@L4.1
Параметр CABAC формата : Нет
Параметр ReFrames формата : 4 кадра
Идентификатор кодека : avc1
Идентификатор кодека/Информация : Advanced Video Coding
Продолжительность : 3 м. 33 с.
Вид битрейта : Постоянный
Битрейт : 10000 Кбит/сек / 10000 Кбит/сек
Ширина : 1920 пикселей
Высота : 1080 пикселей
Соотношение сторон : 16:9
Режим частоты кадров : Постоянный
Частота кадров : 23,976 (24000/1001) кадра/сек
Стандарт вещания : Component
Цветовое пространство : YUV
Субдискретизация насыщенности : 4:2:0
Битовая глубина : 8 бит
Тип развёртки : Прогрессивная
Бит/(Пиксели*Кадры) : 0.201
Размер потока : 251 Мбайт (97%)
Библиотека кодирования : x264 core 125
Настройки программы : cabac=0 / ref=4 / deblock=1:0:0 / analyse=0x1:0x111 / me=dia / subme=2 / psy=1 / psy_rd=1.00:0.00 / mixed_ref=0 / me_range=16 / chroma_me=1 / trellis=0 / 8x8dct=0 / cqm=0 / deadzone=21,11 / fast_pskip=1 / chroma_qp_offset=0 / threads=6 / lookahead_threads=1 / sliced_threads=0 / slices=1 / nr=0 / decimate=1 / interlaced=0 / bluray_compat=0 / constrained_intra=0 / bframes=0 / weightp=0 / keyint=300 / keyint_min=23 / scenecut=40 / intra_refresh=0 / rc_lookahead=10 / rc=cbr / mbtree=1 / bitrate=10000 / ratetol=1.0 / qcomp=0.60 / qpmin=0 / qpmax=69 / qpstep=4 / vbv_maxrate=10000 / vbv_bufsize=10000 / nal_hrd=cbr / ip_ratio=1.40 / aq=1:1.00
Цветовой диапазон : Limited
Основные цвета : BT.709
Характеристики трансфера : BT.709
Коэффициенты матрицы : BT.709
Аудио
Идентификатор : 1
Формат : AAC
Формат/Информация : Advanced Audio Codec
Профиль формата : LC
Идентификатор кодека : 40
Продолжительность : 3 м. 33 с.
Вид битрейта : Переменный
Битрейт : 317 Кбит/сек
Максимальный битрейт : 576 Кбит/сек
Каналы : 2 канала
Расположение каналов : Front: L R
Частота : 48,0 КГц
Частота кадров : 46,875 кадров/сек (1024 spf)
Метод сжатия : С потерями
Размер потока : 8,08 Мбайт (3%)

                                                                                       
                       
                       
                       
                       
                       
                                磁力下载:(论坛代下载服务)
                                                               
                                       
游客,本主题需向作者支付 7音乐币 才能浏览,金币充值, 免回复、免金币,直接查看内容请开通VIP支付

                                               
  • 13.6 GB
  • 温馨提示

    记得善用社区搜索功能,那里可能会有你想要的资源;论坛站内搜索

    如果你有什么需要的资源可以去资源求档发帖,求助社区的网友,我们会在第一时间给你回复哦;资源求档

    对于本社区网盘链接失效密码错误各种报错请在反馈板块反馈报错发帖,您的支持,是我们发展的最大动力;投诉建议

    回复

    使用道具 举报

    精彩评论1

    l123456654321 发表于 2021-5-4 21:06:55 来自手机 | 显示全部楼层
    为啥保存不了

    温馨提示

    记得善用社区搜索功能,那里可能会有你想要的资源;论坛站内搜索

    如果你有什么需要的资源可以去资源求档发帖,求助社区的网友,我们会在第一时间给你回复哦;资源求档

    对于本社区网盘链接失效密码错误各种报错请在反馈板块反馈报错发帖,您的支持,是我们发展的最大动力;投诉建议

    回复 支持 反对

    使用道具 举报

    您需要登录后才可以回帖 登录 | 立即注册 微信登录

    本版积分规则

    关注0

    粉丝16

    帖子86503

    发布主题
    阅读排行更多+
    关闭

    站长推荐上一条 /1 下一条

    收藏帖子 返回列表 这是一个自定义按钮
    音乐分享,音乐下载。
    微信公众号
    微信号:hires_
    意见反馈:admin@maomicd.com

    加入我们的官方QQ群和微信群

    Powered by Discuz! X3.4 Archiver|手机版|小黑屋|捌零音乐论坛 ( 苏ICP备20015413号 )|( 苏公网安备 32030502000272号) 繁體

    GMT+8, 2021-5-18 20:06