自购原抓音乐圈:只有自购、合购、原抓级高解析(hires、sacd、dsd)正版音乐资源分享!【点我打开
极速无线网卡:千兆无线网卡、服务器网卡、USB接口台式机笔记本网卡 硬盘代考无损音乐!【点我打开
广告

[日韩音乐] [PV]两次 - Concert演讲(更新)[2016-2020,KPOP,HDTV 1080i]

[复制链接]
10086 发表于 2021-4-13 15:37:43 | 显示全部楼层 |阅读模式 打印 上一主题 下一主题
TWICE - концертные выступления

“ONE IN A MILLION! 안녕하세요, TWICE입니다!”
Одни на миллион! Приветствуем~ C Вами TWICE!
(TWICE, приветствие)
Жанр: KPop | Релизы: 2016 - 2020

TWICE - видео в 4K


О TWICE
TWICE (트와이스) - южнокорейская женская айдол-группа под лейблом JYP Entertainment.
Группа была сформирована в результате шоу SIXTEEN и официально дебютировала
20 октября, 2015 с мини-альбомом The Story Begins.
.
Больше информации http://ru.kpop.wikia.com/wiki/TWICE

Концертные выступления

TWICE - TT [2016.12.31 MBC Music Festival]
Продолжительность: 00:04:00
Качество: HDTV 1080i | Контейнер: TS
Видео: MPEG-2, 1920x1080 (16:9), 17.4 Мбит/с, 29.97 кадра/с
Аудио: AC-3, 448 Кбит/с, 48.0 КГц, 16 бит, stereo




M.I.
Общее
Полное имя : G:\K-Pop\TWICE\161231 MBC Music Festival TWICE - TT.ts
Размер файла : 527 Мбайт (Что-то MediaInfo тупит)
=========================================================
Информация PotPlayer
[Видео]
Decoder: MPG2 - Native D3D9 DXVA Decoder(VLD) - NVIDIA GeForce GTX 950
Input type: MPG2(12 bits)
Input size: 1920 × 1080(1.78:1)
Output type: dxva
Output size: 1920 × 1080(1.78:1)
Framerate: 29.97
BitRate: 17370 kbps
[Аудио]
Decoder: Dolby AC3(0x2000) - FFmpegMininum.dll(ac3)
Samplerate: 48000 -> 48000 sample/sec
Bits: 0 -> 16 bit/sample
Channels: 2 -> 2 channels
Bitrate: 448 kbps
=========================================================
Информация MediaPlayerClassic-HomeCinema
Video: MPEG2 Video 1920x1080 29.97fps [V: mpeg2 main, yuv420p, 1920x1080]
Audio: Dolby AC3 48000Hz stereo 448kbps [A: ac3, 48000 Hz, stereo, 448 kb/s]


TWICE - Bad Girl Good Girl + NOBODY + HONEY [2017.07.06 Mnet KCON X M Countdown] (Special Stage)
Продолжительность: 00:04:40
Качество: HDTV 1080i | Контейнер: TS
Видео: AVC, 1920x1080 (16:9), 13.4 Мбит/с, 29.97 кадра/с
Аудио: AAC, 192 Кбит/с, 48.0 КГц, stereo




M.I.
Общее
Идентификатор : 0 (0x0)
Полное имя : G:\K-Pop\TWICE\170706 Mnet KCON X M Countdown TWICE - Bad Girl Good Girl + NOBODY + HONEY.ts
Формат : MPEG-TS
Размер файла : 456 Мбайт
Продолжительность : 4 м. 40 с.
Режим общего битрейта : Переменный
Общий поток : 13,6 Мбит/сек
Ограничение по возрасту : N/A
Видео
Идентификатор : 1504 (0x5E0)
Идентификатор меню : 873 (0x369)
Формат : AVC
Формат/Информация : Advanced Video Codec
Профиль формата : High@L4
Параметр CABAC формата : Да
Параметр RefFrames формата : 2 кадра
Параметр GOP формата : M=1, N=15
Идентификатор кодека : 27
Продолжительность : 4 м. 40 с.
Вид битрейта : Постоянный
Номинальный битрейт : 20,0 Мбит/сек
Ширина : 1920 пикселей
Высота : 1080 пикселей
Соотношение сторон : 16:9
Частота кадров : 29,970 (30000/1001) кадров/сек
Цветовое пространство : YUV
Субдискретизация насыщенности : 4:2:0
Битовая глубина : 8 бит
Тип развёртки : MBAFF
Метод сохранения типа развёртки : Раздельные поля
Порядок развёртки : Верхнее поле первое
Бит/(Пиксели*Кадры) : 0.322
Цветовой диапазон : Limited
Основные цвета : BT.709
Характеристики трансфера : BT.709
Коэффициенты матрицы : BT.709
Аудио
Идентификатор : 2504 (0x9C8)
Идентификатор меню : 873 (0x369)
Формат : AAC
Формат/Информация : Advanced Audio Codec
Версия формата : Version 2
Профиль формата : LC
Режим смешивания : ADTS
Идентификатор кодека : 15
Продолжительность : 4 м. 40 с.
Вид битрейта : Переменный
Каналы : 2 канала
Расположение каналов : Front: L R
Частота : 48,0 КГц
Частота кадров : 46,875 кадров/сек (1024 SPF)
Метод сжатия : С потерями
Язык : English


TWICE - INTRO + SIGNAL [2017.07.06 Mnet KCON X M Countdown]
Продолжительность: 00:03:43
Качество: HDTV 1080i | Контейнер: TS
Видео: AVC, 1920x1080 (16:9), 13.4 Мбит/с, 29.97 кадра/с
Аудио: AAC, 192 Кбит/с, 48.0 КГц, stereo




M.I.
Общее
Идентификатор : 0 (0x0)
Полное имя : G:\K-Pop\TWICE\170706 Mnet KCON X M Countdown TWICE - INTRO + SIGNAL.ts
Формат : MPEG-TS
Размер файла : 362 Мбайт
Продолжительность : 3 м. 43 с.
Режим общего битрейта : Постоянный
Общий поток : 13,6 Мбит/сек
Ограничение по возрасту : N/A
Видео
Идентификатор : 1504 (0x5E0)
Идентификатор меню : 873 (0x369)
Формат : AVC
Формат/Информация : Advanced Video Codec
Профиль формата : High@L4
Параметр CABAC формата : Да
Параметр RefFrames формата : 2 кадра
Идентификатор кодека : 27
Продолжительность : 3 м. 43 с.
Вид битрейта : Постоянный
Номинальный битрейт : 20,0 Мбит/сек
Ширина : 1920 пикселей
Высота : 1080 пикселей
Соотношение сторон : 16:9
Частота кадров : 29,970 (30000/1001) кадров/сек
Цветовое пространство : YUV
Субдискретизация насыщенности : 4:2:0
Битовая глубина : 8 бит
Тип развёртки : MBAFF
Метод сохранения типа развёртки : Раздельные поля
Порядок развёртки : Верхнее поле первое
Бит/(Пиксели*Кадры) : 0.322
Цветовой диапазон : Limited
Основные цвета : BT.709
Характеристики трансфера : BT.709
Коэффициенты матрицы : BT.709
Аудио
Идентификатор : 2504 (0x9C8)
Идентификатор меню : 873 (0x369)
Формат : AAC
Формат/Информация : Advanced Audio Codec
Версия формата : Version 2
Профиль формата : LC
Режим смешивания : ADTS
Идентификатор кодека : 15
Продолжительность : 3 м. 43 с.
Вид битрейта : Переменный
Каналы : 2 канала
Расположение каналов : Front: L R
Частота : 48,0 КГц
Частота кадров : 46,875 кадров/сек (1024 SPF)
Метод сжатия : С потерями
Задержка видео : -376 мс.
Язык : English


TWICE - Merry & Happy + Heart Shaker [2017.12.17 SBS Inkigayo] (Comeback Stage)
Продолжительность: 00:05:24
Качество: HDTV 1080i | Контейнер: TS
Видео: AVC, 1920x1080 (16:9), 9544 Кбит/с, 29.97 кадра/с
Аудио: AC-3, 384 Кбит/с, 48.0 КГц, 16 бит, stereo




M.I.
Общее
Идентификатор : 1 (0x1)
Полное имя : G:\K-Pop\TWICE\171217 SBS Inkigayo TWICE - Merry & Happy + Heart Shaker (Comeback Stage).ts
Формат : MPEG-TS
Размер файла : 404 Мбайт
Продолжительность : 5 м. 24 с.
Режим общего битрейта : Переменный
Общий поток : 10,4 Мбит/сек
Видео
Идентификатор : 67 (0x43)
Идентификатор меню : 1 (0x1)
Формат : AVC
Формат/Информация : Advanced Video Codec
Профиль формата : High@L4
Параметр CABAC формата : Да
Параметр RefFrames формата : 4 кадра
Идентификатор кодека : 27
Продолжительность : 5 м. 24 с.
Битрейт : 9544 Кбит/сек
Ширина : 1920 пикселей
Высота : 1080 пикселей
Соотношение сторон : 16:9
Частота кадров : 29,970 (30000/1001) кадров/сек
Цветовое пространство : YUV
Субдискретизация насыщенности : 4:2:0
Битовая глубина : 8 бит
Тип развёртки : Чересстрочная
Метод сохранения типа развёртки : Раздельные поля
Порядок развёртки : Верхнее поле первое
Бит/(Пиксели*Кадры) : 0.154
Размер потока : 369 Мбайт (91%)
Цветовой диапазон : Limited
Основные цвета : BT.709
Характеристики трансфера : BT.709
Коэффициенты матрицы : BT.709
Аудио
Идентификатор : 68 (0x44)
Идентификатор меню : 1 (0x1)
Формат : AC-3
Формат/Информация : Audio Coding 3
Параметр Endianness формата : Big
Идентификатор кодека : 129
Продолжительность : 5 м. 24 с.
Вид битрейта : Постоянный
Битрейт : 384 Кбит/сек
Каналы : 2 канала
Расположение каналов : Front: L R
Частота : 48,0 КГц
Частота кадров : 31,250 кадров/сек (1536 SPF)
Битовая глубина : 16 бит
Метод сжатия : С потерями
Размер потока : 14,8 Мбайт (4%)
Язык : Korean
ServiceKind/String : Complete Main
Текст
Идентификатор : 67 (0x43)-1
Идентификатор меню : 1 (0x1)
Формат : EIA-708
Режим смешивания : SCTE 128 / DTVCC Transport
Режим смешивания, доп. информация : Muxed in Video #1
Продолжительность : 5 м. 24 с.
Вид битрейта : Постоянный
Размер потока : 0,00 байт (0%)


TWICE - So Hot [2018.06.29 KBS Music Bank]
Продолжительность: 00:02:10
Качество: HDTV 1080i | Контейнер: TS
Видео: AVC, 1920x1080 (16:9), 12.0 Мбит/с, 29.97 кадра/с
Аудио: AC-3, 384 Кбит/с, 48.0 КГц, 16 бит, stereo




M.I.
Общее
Идентификатор : 1 (0x1)
Полное имя : G:\K-Pop\TWICE\180629 KBS Music Bank TWICE - So Hot.ts
Формат : MPEG-TS
Размер файла : 198 Мбайт
Продолжительность : 2 м. 10 с.
Режим общего битрейта : Переменный
Общий поток : 12,7 Мбит/сек
Видео
Идентификатор : 1525 (0x5F5)
Идентификатор меню : 152 (0x98)
Формат : AVC
Формат/Информация : Advanced Video Codec
Профиль формата : High@L4
Параметр CABAC формата : Да
Параметр RefFrames формата : 4 кадра
Параметр GOP формата : M=1, N=15
Идентификатор кодека : 27
Продолжительность : 2 м. 10 с.
Вид битрейта : Постоянный
Битрейт : 12,0 Мбит/сек
Ширина : 1920 пикселей
Высота : 1080 пикселей
Соотношение сторон : 16:9
Частота кадров : 29,970 (30000/1001) кадров/сек
Цветовое пространство : YUV
Субдискретизация насыщенности : 4:2:0
Битовая глубина : 8 бит
Тип развёртки : MBAFF
Метод сохранения типа развёртки : Раздельные поля
Порядок развёртки : Верхнее поле первое
Бит/(Пиксели*Кадры) : 0.193
Размер потока : 182 Мбайт (92%)
Цветовой диапазон : Limited
Основные цвета : BT.709
Характеристики трансфера : BT.709
Коэффициенты матрицы : BT.709
Аудио
Идентификатор : 1526 (0x5F6)
Идентификатор меню : 152 (0x98)
Формат : AC-3
Формат/Информация : Audio Coding 3
Параметр Endianness формата : Big
Идентификатор кодека : 129
Продолжительность : 2 м. 10 с.
Вид битрейта : Постоянный
Битрейт : 384 Кбит/сек
Каналы : 2 канала
Расположение каналов : Front: L R
Частота : 48,0 КГц
Частота кадров : 31,250 кадров/сек (1536 SPF)
Битовая глубина : 16 бит
Метод сжатия : С потерями
Размер потока : 5,95 Мбайт (3%)
Язык : Korean
ServiceKind/String : Complete Main
Текст
Идентификатор : 1525 (0x5F5)-1
Идентификатор меню : 152 (0x98)
Формат : EIA-708
Режим смешивания : SCTE 128 / DTVCC Transport
Режим смешивания, доп. информация : Muxed in Video #1
Продолжительность : 2 м. 10 с.
Вид битрейта : Постоянный
Размер потока : 0,00 байт (0%)


TWICE - What Is Love [2018.06.29 KBS Music Bank]
Продолжительность: 00:03:25
Качество: HDTV 1080i | Контейнер: TS
Видео: AVC, 1920x1080 (16:9), 12.0 Мбит/с, 29.97 кадра/с
Аудио: AC-3, 384 Кбит/с, 48.0 КГц, 16 бит, 2 канала




M.I.
Общее
Идентификатор : 1 (0x1)
Полное имя : G:\K-Pop\TWICE\180629 KBS Music Bank TWICE - What Is Love.ts
Формат : MPEG-TS
Размер файла : 313 Мбайт
Продолжительность : 3 м. 25 с.
Режим общего битрейта : Переменный
Общий поток : 12,7 Мбит/сек
Видео
Идентификатор : 1525 (0x5F5)
Идентификатор меню : 152 (0x98)
Формат : AVC
Формат/Информация : Advanced Video Codec
Профиль формата : High@L4
Параметр CABAC формата : Да
Параметр RefFrames формата : 4 кадра
Идентификатор кодека : 27
Продолжительность : 3 м. 25 с.
Вид битрейта : Постоянный
Битрейт : 12,0 Мбит/сек
Ширина : 1920 пикселей
Высота : 1080 пикселей
Соотношение сторон : 16:9
Частота кадров : 29,970 (30000/1001) кадров/сек
Цветовое пространство : YUV
Субдискретизация насыщенности : 4:2:0
Битовая глубина : 8 бит
Тип развёртки : MBAFF
Метод сохранения типа развёртки : Раздельные поля
Порядок развёртки : Верхнее поле первое
Бит/(Пиксели*Кадры) : 0.193
Размер потока : 288 Мбайт (92%)
Цветовой диапазон : Limited
Основные цвета : BT.709
Характеристики трансфера : BT.709
Коэффициенты матрицы : BT.709
Аудио
Идентификатор : 1526 (0x5F6)
Идентификатор меню : 152 (0x98)
Формат : AC-3
Формат/Информация : Audio Coding 3
Параметр Endianness формата : Big
Идентификатор кодека : 129
Продолжительность : 3 м. 25 с.
Вид битрейта : Постоянный
Битрейт : 384 Кбит/сек
Каналы : 2 канала
Расположение каналов : Front: L R
Частота : 48,0 КГц
Частота кадров : 31,250 кадров/сек (1536 SPF)
Битовая глубина : 16 бит
Метод сжатия : С потерями
Размер потока : 9,43 Мбайт (3%)
Язык : Korean
ServiceKind/String : Complete Main
Текст
Идентификатор : 1525 (0x5F5)-1
Идентификатор меню : 152 (0x98)
Формат : EIA-708
Режим смешивания : SCTE 128 / DTVCC Transport
Режим смешивания, доп. информация : Muxed in Video #1
Продолжительность : 3 м. 25 с.
Вид битрейта : Постоянный
Размер потока : 0,00 байт (0%)


TWICE - Dance The Night Away [2018.07.20 KBS Music Bank] (Comeback Stage)
Продолжительность: 00:03:19
Качество: HDTV 1080i | Контейнер: TS
Видео: AVC, 1920x1080 (16:9), 12.0 Мбит/с, 29.97 кадра/с
Аудио: AC-3, 384 Кбит/с, 48.0 КГц, 16 бит, 2 канала




M.I.
Общее
Идентификатор : 1 (0x1)
Полное имя : G:\K-Pop\TWICE\180720 KBS Music Bank TWICE - Dance The Night Away (Comeback Stage).ts
Формат : MPEG-TS
Размер файла : 304 Мбайт
Продолжительность : 3 м. 19 с.
Режим общего битрейта : Переменный
Общий поток : 12,7 Мбит/сек
Видео
Идентификатор : 1525 (0x5F5)
Идентификатор меню : 152 (0x98)
Формат : AVC
Формат/Информация : Advanced Video Codec
Профиль формата : High@L4
Параметр CABAC формата : Да
Параметр RefFrames формата : 3 кадра
Параметр GOP формата : M=1, N=15
Идентификатор кодека : 27
Продолжительность : 3 м. 19 с.
Вид битрейта : Постоянный
Битрейт : 12,0 Мбит/сек
Ширина : 1920 пикселей
Высота : 1080 пикселей
Соотношение сторон : 16:9
Частота кадров : 29,970 (30000/1001) кадров/сек
Цветовое пространство : YUV
Субдискретизация насыщенности : 4:2:0
Битовая глубина : 8 бит
Тип развёртки : MBAFF
Метод сохранения типа развёртки : Раздельные поля
Порядок развёртки : Верхнее поле первое
Бит/(Пиксели*Кадры) : 0.193
Размер потока : 279 Мбайт (92%)
Цветовой диапазон : Limited
Основные цвета : BT.709
Характеристики трансфера : BT.709
Коэффициенты матрицы : BT.709
Аудио
Идентификатор : 1526 (0x5F6)
Идентификатор меню : 152 (0x98)
Формат : AC-3
Формат/Информация : Audio Coding 3
Параметр Endianness формата : Big
Идентификатор кодека : 129
Продолжительность : 3 м. 19 с.
Вид битрейта : Постоянный
Битрейт : 384 Кбит/сек
Каналы : 2 канала
Расположение каналов : Front: L R
Частота : 48,0 КГц
Частота кадров : 31,250 кадров/сек (1536 SPF)
Битовая глубина : 16 бит
Метод сжатия : С потерями
Размер потока : 9,15 Мбайт (3%)
Язык : Korean
ServiceKind/String : Complete Main
Текст
Идентификатор : 1525 (0x5F5)-1
Идентификатор меню : 152 (0x98)
Формат : EIA-708
Режим смешивания : SCTE 128 / DTVCC Transport
Режим смешивания, доп. информация : Muxed in Video #1
Продолжительность : 3 м. 19 с.
Вид битрейта : Постоянный
Размер потока : 0,00 байт (0%)


TWICE - VCR + What is Love [2018.08.08 Korea Music Festival 2018]
Продолжительность: 00:04:29
Качество: HDTV 1080i | Контейнер: TS
Видео: AVC, 1920x1080 (16:9), 10.0 Мбит/с, 29.97 кадра/с
Аудио: AC-3, 384 Кбит/с, 48.0 КГц, 16 бит, 2 канала




M.I.
Общее
Идентификатор : 1 (0x1)
Полное имя : G:\K-Pop\TWICE\180808 Korea Music Festival 2018 TWICE - VCR + What is Love.ts
Формат : MPEG-TS
Размер файла : 351 Мбайт
Продолжительность : 4 м. 29 с.
Режим общего битрейта : Переменный
Общий поток : 10,9 Мбит/сек
Ограничение по возрасту : N/A
Видео
Идентификатор : 100 (0x64)
Идентификатор меню : 1 (0x1)
Формат : AVC
Формат/Информация : Advanced Video Codec
Профиль формата : High@L4
Параметр CABAC формата : Да
Параметр RefFrames формата : 4 кадра
Идентификатор кодека : 27
Продолжительность : 4 м. 29 с.
Вид битрейта : Постоянный
Битрейт : 10000 Кбит/сек
Ширина : 1920 пикселей
Высота : 1080 пикселей
Соотношение сторон : 16:9
Частота кадров : 29,970 (30000/1001) кадров/сек
Цветовое пространство : YUV
Субдискретизация насыщенности : 4:2:0
Битовая глубина : 8 бит
Тип развёртки : MBAFF
Метод сохранения типа развёртки : Чередующиеся поля
Порядок развёртки : Верхнее поле первое
Бит/(Пиксели*Кадры) : 0.161
Размер потока : 315 Мбайт (90%)
Цветовой диапазон : Limited
Основные цвета : BT.709
Характеристики трансфера : BT.709
Коэффициенты матрицы : BT.709
Аудио #1
Идентификатор : 101 (0x65)
Идентификатор меню : 1 (0x1)
Формат : AC-3
Формат/Информация : Audio Coding 3
Параметр Endianness формата : Big
Идентификатор кодека : 129
Продолжительность : 4 м. 29 с.
Вид битрейта : Постоянный
Битрейт : 384 Кбит/сек
Каналы : 2 канала
Расположение каналов : Front: L R
Частота : 48,0 КГц
Частота кадров : 31,250 кадров/сек (1536 SPF)
Битовая глубина : 16 бит
Метод сжатия : С потерями
Размер потока : 12,3 Мбайт (4%)
Язык : English
ServiceKind/String : Complete Main
Аудио #2
Идентификатор : 102 (0x66)
Идентификатор меню : 1 (0x1)
Формат : AC-3
Формат/Информация : Audio Coding 3
Параметр Endianness формата : Big
Идентификатор кодека : 129
Продолжительность : 4 м. 29 с.
Вид битрейта : Постоянный
Битрейт : 192 Кбит/сек
Каналы : 2 канала
Расположение каналов : Front: L R
Частота : 48,0 КГц
Частота кадров : 31,250 кадров/сек (1536 SPF)
Битовая глубина : 16 бит
Метод сжатия : С потерями
Размер потока : 6,17 Мбайт (2%)
Язык : English
ServiceKind/String : Complete Main
Текст #1
Идентификатор : 100 (0x64)-CC1
Идентификатор меню : 1 (0x1)
Формат : EIA-608
Режим смешивания : SCTE 128 / DTVCC Transport
Режим смешивания, доп. информация : Muxed in Video #1
Продолжительность : 4 м. 29 с.
Вид битрейта : Постоянный
Размер потока : 0,00 байт (0%)
CaptionServiceName : CC1
Текст #2
Идентификатор : 100 (0x64)-CC3
Идентификатор меню : 1 (0x1)
Формат : EIA-608
Режим смешивания : SCTE 128 / DTVCC Transport
Режим смешивания, доп. информация : Muxed in Video #1
Продолжительность : 4 м. 29 с.
Вид битрейта : Постоянный
Размер потока : 0,00 байт (0%)
CaptionServiceName : CC3


TWICE - TT + KNOCK KNOCK + SIGNAL + LIKEY + What is Love + Dance The Night Away + YES or YES [2018.11.21 MBC Show Champion ]
Продолжительность: 00:26:28
Качество: HDTV 1080i | Контейнер: TS
Видео: AVC, 1920x1080 (16:9), 10.8 Мбит/с, 29.97 кадра/с
Аудио: AAC, 205 Кбит/с, 48.0 КГц, 16 бит, 2 канала





M.I.
Общее
Идентификатор : 1 (0x1)
Полное имя : G:\K-Pop\TWICE\181121 MBC Show Champion TWICE - TT + KNOCK KNOCK + SIGNAL + LIKEY + What is Love + Dance The Night Away + YES or YES.ts
Формат : MPEG-TS
Размер файла : 2,04 Гбайт
Продолжительность : 26 м. 28 с.
Режим общего битрейта : Переменный
Общий поток : 11,0 Мбит/сек
Видео
Идентификатор : 256 (0x100)
Идентификатор меню : 1 (0x1)
Формат : AVC
Формат/Информация : Advanced Video Codec
Профиль формата : High@L4
Параметр CABAC формата : Да
Параметр RefFrames формата : 2 кадра
Параметр GOP формата : M=1, N=15
Идентификатор кодека : 27
Продолжительность : 26 м. 28 с.
Вид битрейта : Постоянный
Номинальный битрейт : 20,0 Мбит/сек
Ширина : 1920 пикселей
Высота : 1080 пикселей
Соотношение сторон : 16:9
Частота кадров : 29,970 (30000/1001) кадров/сек
Цветовое пространство : YUV
Субдискретизация насыщенности : 4:2:0
Битовая глубина : 8 бит
Тип развёртки : MBAFF
Метод сохранения типа развёртки : Раздельные поля
Порядок развёртки : Верхнее поле первое
Бит/(Пиксели*Кадры) : 0.322
Цветовой диапазон : Limited
Основные цвета : BT.709
Характеристики трансфера : BT.709
Коэффициенты матрицы : BT.709
Аудио
Идентификатор : 257 (0x101)
Идентификатор меню : 1 (0x1)
Формат : AAC
Формат/Информация : Advanced Audio Codec
Версия формата : Version 2
Профиль формата : LC
Режим смешивания : ADTS
Идентификатор кодека : 15
Продолжительность : 26 м. 28 с.
Вид битрейта : Переменный
Каналы : 2 канала
Расположение каналов : Front: L R
Частота : 48,0 КГц
Частота кадров : 46,875 кадров/сек (1024 SPF)
Метод сжатия : С потерями
Меню
Идентификатор : 4096 (0x1000)
Идентификатор меню : 1 (0x1)
Продолжительность : 26 м. 28 с.
Список : 256 (0x100) (AVC) / 257 (0x101) (AAC)
Название сервиса : Zard
Поставщик сервиса : Zard
Тип сервиса : digital television


TWICE - YES or YES [2018.11.23 KBS Music Bank] (Comeback Stage)
Продолжительность: 00:04:16
Качество: HDTV 1080i | Контейнер: TS
Видео: AVC, 1920x1080 (16:9), 12.3 Мбит/с, 29.97 кадра/с
Аудио: AC-3, 384 Кбит/с, 48.0 КГц, 16 бит, 2 канала




M.I.
Общее
Идентификатор : 1 (0x1)
Полное имя : G:\K-Pop\TWICE\Twice live\181123 KBS Music Bank TWICE - YES or YES (Comeback Stage).ts
Формат : MPEG-TS
Размер файла : 390 Мбайт
Продолжительность : 4 м. 16 с.
Режим общего битрейта : Переменный
Общий поток : 12,7 Мбит/сек
Видео
Идентификатор : 1525 (0x5F5)
Идентификатор меню : 152 (0x98)
Формат : AVC
Формат/Информация : Advanced Video Codec
Профиль формата : High@L4
Параметр CABAC формата : Да
Параметр RefFrames формата : 3 кадра
Идентификатор кодека : 27
Продолжительность : 4 м. 16 с.
Вид битрейта : Постоянный
Битрейт : 12,0 Мбит/сек
Ширина : 1920 пикселей
Высота : 1080 пикселей
Соотношение сторон : 16:9
Частота кадров : 29,970 (30000/1001) кадров/сек
Цветовое пространство : YUV
Субдискретизация насыщенности : 4:2:0
Битовая глубина : 8 бит
Тип развёртки : Чересстрочная
Метод сохранения типа развёртки : Раздельные поля
Порядок развёртки : Верхнее поле первое
Бит/(Пиксели*Кадры) : 0.193
Размер потока : 358 Мбайт (92%)
Цветовой диапазон : Limited
Основные цвета : BT.709
Характеристики трансфера : BT.709
Коэффициенты матрицы : BT.709
Аудио
Идентификатор : 1526 (0x5F6)
Идентификатор меню : 152 (0x98)
Формат : AC-3
Формат/Информация : Audio Coding 3
Параметр Endianness формата : Big
Идентификатор кодека : 129
Продолжительность : 4 м. 16 с.
Вид битрейта : Постоянный
Битрейт : 384 Кбит/сек
Каналы : 2 канала
Расположение каналов : Front: L R
Частота : 48,0 КГц
Частота кадров : 31,250 кадров/сек (1536 SPF)
Битовая глубина : 16 бит
Метод сжатия : С потерями
Размер потока : 11,7 Мбайт (3%)
Язык : Korean
ServiceKind/String : Complete Main
Текст
Идентификатор : 1525 (0x5F5)-1
Идентификатор меню : 152 (0x98)
Формат : EIA-708
Режим смешивания : SCTE 128 / DTVCC Transport
Режим смешивания, доп. информация : Muxed in Video #1
Продолжительность : 4 м. 16 с.
Вид битрейта : Постоянный
Размер потока : 0,00 байт (0%)


TWICE - Intro (Breakthrough) + FANCY + Dance The Night Away [2019.08.01 Mnet 2019 MGMA]
Продолжительность: 00:08:08
Качество: HDTV 1080i | Контейнер: TS
Видео: AVC, 1920x1080 (16:9), 13.0 Мбит/с, 29.97 кадра/с
Аудио: AAC, 192 Кбит/с, 48.0 КГц, 2 канала




M.I.
Общее
Идентификатор : 1 (0x1)
Полное имя : G:\K-Pop\TWICE\Twice live\190801 Mnet 2019 MGMA TWICE - Intro (Breakthrough) + FANCY + Dance The Night Away.ts
Формат : MPEG-TS
Размер файла : 769 Мбайт
Продолжительность : 8 м. 8 с.
Режим общего битрейта : Переменный
Общий поток : 13,2 Мбит/сек
Ограничение по возрасту : N/A
Видео
Идентификатор : 256 (0x100)
Идентификатор меню : 1 (0x1)
Формат : AVC
Формат/Информация : Advanced Video Codec
Профиль формата : High@L4
Параметр CABAC формата : Да
Параметр RefFrames формата : 2 кадра
Параметр GOP формата : M=1, N=15
Идентификатор кодека : 27
Продолжительность : 8 м. 8 с.
Вид битрейта : Постоянный
Номинальный битрейт : 20,0 Мбит/сек
Ширина : 1920 пикселей
Высота : 1080 пикселей
Соотношение сторон : 16:9
Частота кадров : 29,970 (30000/1001) кадров/сек
Цветовое пространство : YUV
Субдискретизация насыщенности : 4:2:0
Битовая глубина : 8 бит
Тип развёртки : MBAFF
Метод сохранения типа развёртки : Раздельные поля
Порядок развёртки : Верхнее поле первое
Бит/(Пиксели*Кадры) : 0.322
Цветовой диапазон : Limited
Основные цвета : BT.709
Характеристики трансфера : BT.709
Коэффициенты матрицы : BT.709
Аудио
Идентификатор : 257 (0x101)
Идентификатор меню : 1 (0x1)
Формат : AAC
Формат/Информация : Advanced Audio Codec
Версия формата : Version 2
Профиль формата : LC
Режим смешивания : ADTS
Идентификатор кодека : 15
Продолжительность : 8 м. 9 с.
Вид битрейта : Переменный
Каналы : 2 канала
Расположение каналов : Front: L R
Частота : 48,0 КГц
Частота кадров : 46,875 кадров/сек (1024 SPF)
Метод сжатия : С потерями
Задержка видео : -485 мс.
Меню
Идентификатор : 4096 (0x1000)
Идентификатор меню : 1 (0x1)
Продолжительность : 8 м. 8 с.
Список : 256 (0x100) (AVC) / 257 (0x101) (AAC)
Название сервиса : Service01
Поставщик сервиса : FFmpeg
Тип сервиса : digital television
Ограничение по возрасту : N/A


TWICE - Fancy [2019.08.22 SBS 2019 SORIBADA BEST K-MUSIC AWARDS]
Продолжительность: 00:03:36
Качество: HDTV 1080i | Контейнер: TS
Видео: AVC, 1920x1080 (16:9), 13.0 Мбит/с, 29.97 кадра/с
Аудио: AAC, 192 Кбит/с, 48.0 КГц, 2 канала




M.I.
Общее
Идентификатор : 1 (0x1)
Полное имя : G:\K-Pop\TWICE\Twice live\190822 SBS 2019 SORIBADA BEST K-MUSIC AWARDS TWICE - FANCY.ts
Формат : MPEG-TS
Размер файла : 342 Мбайт
Продолжительность : 3 м. 36 с.
Режим общего битрейта : Переменный
Общий поток : 13,2 Мбит/сек
Видео
Идентификатор : 256 (0x100)
Идентификатор меню : 1 (0x1)
Формат : AVC
Формат/Информация : Advanced Video Codec
Профиль формата : High@L4
Параметр CABAC формата : Да
Параметр RefFrames формата : 2 кадра
Параметр GOP формата : M=1, N=15
Идентификатор кодека : 27
Продолжительность : 3 м. 36 с.
Вид битрейта : Постоянный
Номинальный битрейт : 20,0 Мбит/сек
Ширина : 1920 пикселей
Высота : 1080 пикселей
Соотношение сторон : 16:9
Частота кадров : 29,970 (30000/1001) кадров/сек
Цветовое пространство : YUV
Субдискретизация насыщенности : 4:2:0
Битовая глубина : 8 бит
Тип развёртки : MBAFF
Метод сохранения типа развёртки : Чередующиеся поля
Порядок развёртки : Верхнее поле первое
Бит/(Пиксели*Кадры) : 0.322
Цветовой диапазон : Limited
Основные цвета : BT.709
Характеристики трансфера : BT.709
Коэффициенты матрицы : BT.709
Аудио
Идентификатор : 257 (0x101)
Идентификатор меню : 1 (0x1)
Формат : AAC
Формат/Информация : Advanced Audio Codec
Версия формата : Version 2
Профиль формата : LC
Режим смешивания : ADTS
Идентификатор кодека : 15
Продолжительность : 3 м. 37 с.
Вид битрейта : Переменный
Каналы : 2 канала
Расположение каналов : Front: L R
Частота : 48,0 КГц
Частота кадров : 46,875 кадров/сек (1024 SPF)
Метод сжатия : С потерями
Задержка видео : -276 мс.
Меню
Идентификатор : 4096 (0x1000)
Идентификатор меню : 1 (0x1)
Продолжительность : 3 м. 36 с.
Список : 256 (0x100) (AVC) / 257 (0x101) (AAC)
Название сервиса : Service01
Поставщик сервиса : FFmpeg
Тип сервиса : digital television


TWICE - Fake & True [2019.11.22 tv asahi Music Station]
Продолжительность: 00:02:52
Качество: HDTV 1080i | Контейнер: TS
Видео: MPEG-2, 1440x1080 (16:9), 14.9 Мбит/с, 29.97 кадра/с
Аудио: AAC, 192 Кбит/с, 48.0 КГц, 2 канала




M.I.
Общее
Идентификатор : 1 (0x1)
Полное имя : G:\K-Pop\TWICE\Twice live\191122 tv asahi Music Station TWICE - Fake & True.ts
Формат : MPEG-TS
Размер файла : 310 Мбайт
Продолжительность : 2 м. 52 с.
Режим общего битрейта : Переменный
Общий поток : 15,1 Мбит/сек
Видео
Идентификатор : 256 (0x100)
Идентификатор меню : 1 (0x1)
Формат : MPEG Video
Версия формата : Version 2
Профиль формата : Main@High
Параметр BVOP формата : Да
Параметр матрицы формата : Выборочная
Параметр GOP формата : M=3, N=15
Структура изображения : Frame
Идентификатор кодека : 2
Продолжительность : 2 м. 52 с.
Вид битрейта : Переменный
Максимальный битрейт : 20,0 Мбит/сек
Ширина : 1440 пикселей
Высота : 1080 пикселей
Соотношение сторон : 16:9
Частота кадров : 29,970 (30000/1001) кадров/сек
Цветовое пространство : YUV
Субдискретизация насыщенности : 4:2:0
Битовая глубина : 8 бит
Тип развёртки : Чересстрочная
Порядок развёртки : Верхнее поле первое
Метод сжатия : С потерями
Временной код первого кадра : 01:05:13:17
Оригинал временного кода : Group of pictures header
GOP, открыто/закрыто : Открыто
Основные цвета : BT.709
Характеристики трансфера : BT.709
Коэффициенты матрицы : BT.709
Аудио
Идентификатор : 257 (0x101)
Идентификатор меню : 1 (0x1)
Формат : AAC
Формат/Информация : Advanced Audio Codec
Версия формата : Version 2
Профиль формата : LC
Режим смешивания : ADTS
Идентификатор кодека : 15
Продолжительность : 2 м. 52 с.
Вид битрейта : Переменный
Каналы : 2 канала
Расположение каналов : Front: L R
Частота : 48,0 КГц
Частота кадров : 46,875 кадров/сек (1024 SPF)
Метод сжатия : С потерями
Задержка видео : -573 мс.
Меню
Идентификатор : 4096 (0x1000)
Идентификатор меню : 1 (0x1)
Продолжительность : 2 м. 52 с.
Список : 256 (0x100) (MPEG Video) / 257 (0x101) (AAC)
Название сервиса : Service01
Поставщик сервиса : FFmpeg
Тип сервиса : digital television


TWICE - More and More [2020.06.07 SBS Inkigayo]
Продолжительность: 00:03:36
Качество: HDTV 1080i | Контейнер: TS
Видео: AVC, 1920x1080 (16:9), 12.1 Мбит/с, 29.97 кадра/с
Аудио: AC-3, 384 Кбит/с, 48.0 КГц, 16 бит, 2 канала




M.I.
Общее
Идентификатор : 1 (0x1)
Полное имя : G:\K-Pop\TWICE\Twice live\200607 SBS Inkigayo TWICE - More and More.ts
Формат : MPEG-TS
Размер файла : 338 Мбайт
Продолжительность : 3 м. 36 с.
Режим общего битрейта : Переменный
Общий поток : 13,1 Мбит/сек
Видео
Идентификатор : 256 (0x100)
Идентификатор меню : 1 (0x1)
Формат : AVC
Формат/Информация : Advanced Video Codec
Профиль формата : High@L4
Параметр CABAC формата : Да
Параметр RefFrames формата : 4 кадра
Параметр GOP формата : M=1, N=15
Идентификатор кодека : 27
Продолжительность : 3 м. 36 с.
Битрейт : 12,1 Мбит/сек
Ширина : 1920 пикселей
Высота : 1080 пикселей
Соотношение сторон : 16:9
Частота кадров : 29,970 (30000/1001) кадров/сек
Цветовое пространство : YUV
Субдискретизация насыщенности : 4:2:0
Битовая глубина : 8 бит
Тип развёртки : Чересстрочная
Метод сохранения типа развёртки : Раздельные поля
Порядок развёртки : Верхнее поле первое
Бит/(Пиксели*Кадры) : 0.194
Размер потока : 311 Мбайт (92%)
Цветовой диапазон : Limited
Основные цвета : BT.709
Характеристики трансфера : BT.709
Коэффициенты матрицы : BT.709
Аудио
Идентификатор : 257 (0x101)
Идентификатор меню : 1 (0x1)
Формат : AC-3
Формат/Информация : Audio Coding 3
Параметр Endianness формата : Big
Идентификатор кодека : 129
Продолжительность : 3 м. 36 с.
Вид битрейта : Постоянный
Битрейт : 384 Кбит/сек
Каналы : 2 канала
Расположение каналов : Front: L R
Частота : 48,0 КГц
Частота кадров : 31,250 кадров/сек (1536 SPF)
Битовая глубина : 16 бит
Метод сжатия : С потерями
Задержка видео : -146 мс.
Размер потока : 9,91 Мбайт (3%)
Язык : English
ServiceKind/String : Complete Main
Текст
Идентификатор : 256 (0x100)-1
Идентификатор меню : 1 (0x1)
Формат : EIA-708
Режим смешивания : SCTE 128 / DTVCC Transport
Режим смешивания, доп. информация : Muxed in Video #1
Продолжительность : 3 м. 36 с.
Вид битрейта : Постоянный
Размер потока : 0,00 байт (0%)
Меню
Идентификатор : 4096 (0x1000)
Идентификатор меню : 1 (0x1)
Продолжительность : 3 м. 36 с.
Список : 256 (0x100) (AVC) / 257 (0x101) (AC-3, English)
Язык : / English
Название сервиса : Service01
Поставщик сервиса : FFmpeg
Тип сервиса : digital television


TWICE - Dance The Night Away + INTRO (Feel Special) + MORE & MORE [2020.06.26 KBS Music Bank]
Продолжительность: 00:07:31
Качество: HDTV 1080i | Контейнер: TS
Видео: AVC, 1920x1080 (16:9), 12.1 Мбит/с, 29.97 кадра/с
Аудио: AC-3, 384 Кбит/с, 48.0 КГц, 16 бит, 2 канала




M.I.
Общее
Идентификатор : 1 (0x1)
Полное имя : G:\K-Pop\TWICE\Twice live\200626 KBS Music Bank TWICE - Dance The Night Away + INTRO (Feel Special) + MORE & MORE.ts
Формат : MPEG-TS
Размер файла : 706 Мбайт
Продолжительность : 7 м. 31 с.
Режим общего битрейта : Переменный
Общий поток : 13,1 Мбит/сек
Видео
Идентификатор : 256 (0x100)
Идентификатор меню : 1 (0x1)
Формат : AVC
Формат/Информация : Advanced Video Codec
Профиль формата : High@L4
Параметр CABAC формата : Да
Параметр RefFrames формата : 4 кадра
Параметр GOP формата : M=1, N=15
Идентификатор кодека : 27
Продолжительность : 7 м. 31 с.
Битрейт : 12,1 Мбит/сек
Ширина : 1920 пикселей
Высота : 1080 пикселей
Соотношение сторон : 16:9
Частота кадров : 29,970 (30000/1001) кадров/сек
Цветовое пространство : YUV
Субдискретизация насыщенности : 4:2:0
Битовая глубина : 8 бит
Тип развёртки : Чересстрочная
Метод сохранения типа развёртки : Раздельные поля
Порядок развёртки : Верхнее поле первое
Бит/(Пиксели*Кадры) : 0.194
Размер потока : 650 Мбайт (92%)
Цветовой диапазон : Limited
Основные цвета : BT.709
Характеристики трансфера : BT.709
Коэффициенты матрицы : BT.709
Аудио
Идентификатор : 257 (0x101)
Идентификатор меню : 1 (0x1)
Формат : AC-3
Формат/Информация : Audio Coding 3
Параметр Endianness формата : Big
Идентификатор кодека : 129
Продолжительность : 7 м. 32 с.
Вид битрейта : Постоянный
Битрейт : 384 Кбит/сек
Каналы : 2 канала
Расположение каналов : Front: L R
Частота : 48,0 КГц
Частота кадров : 31,250 кадров/сек (1536 SPF)
Битовая глубина : 16 бит
Метод сжатия : С потерями
Задержка видео : -307 мс.
Размер потока : 20,7 Мбайт (3%)
Язык : English
ServiceKind/String : Complete Main
Текст
Идентификатор : 256 (0x100)-1
Идентификатор меню : 1 (0x1)
Формат : EIA-708
Режим смешивания : SCTE 128 / DTVCC Transport
Режим смешивания, доп. информация : Muxed in Video #1
Продолжительность : 7 м. 31 с.
Вид битрейта : Постоянный
Размер потока : 0,00 байт (0%)
Меню
Идентификатор : 4096 (0x1000)
Идентификатор меню : 1 (0x1)
Продолжительность : 7 м. 31 с.
Список : 256 (0x100) (AVC) / 257 (0x101) (AC-3, English)
Язык : / English
Название сервиса : Service01
Поставщик сервиса : FFmpeg
Тип сервиса : digital television


TWICE - I Cant Stop Me [2020.10.28 MBC Radio Star]
Продолжительность: 00:03:26
Качество: HDTV 1080i | Контейнер: TS
Видео: AVC, 1920x1080 (16:9), 12.1 Мбит/с, 29.97 кадра/с
Аудио: AC-3, 448 Кбит/с, 48.0 КГц, 16 бит, 2 канала




M.I.
Общее
Идентификатор : 1 (0x1)
Полное имя : G:\K-Pop\TWICE\Twice live\201028 MBC Radio Star TWICE - I Cant Stop Me.ts
Формат : MPEG-TS
Размер файла : 324 Мбайт
Продолжительность : 3 м. 26 с.
Режим общего битрейта : Переменный
Общий поток : 13,2 Мбит/сек
Видео
Идентификатор : 256 (0x100)
Идентификатор меню : 1 (0x1)
Формат : AVC
Формат/Информация : Advanced Video Codec
Профиль формата : High@L4
Параметр CABAC формата : Да
Параметр RefFrames формата : 4 кадра
Параметр GOP формата : M=1, N=15
Идентификатор кодека : 27
Продолжительность : 3 м. 26 с.
Битрейт : 12,1 Мбит/сек
Ширина : 1920 пикселей
Высота : 1080 пикселей
Соотношение сторон : 16:9
Частота кадров : 29,970 (30000/1001) кадров/сек
Цветовое пространство : YUV
Субдискретизация насыщенности : 4:2:0
Битовая глубина : 8 бит
Тип развёртки : Чересстрочная
Метод сохранения типа развёртки : Раздельные поля
Порядок развёртки : Верхнее поле первое
Бит/(Пиксели*Кадры) : 0.194
Размер потока : 297 Мбайт (92%)
Цветовой диапазон : Limited
Основные цвета : BT.709
Характеристики трансфера : BT.709
Коэффициенты матрицы : BT.709
Аудио
Идентификатор : 257 (0x101)
Идентификатор меню : 1 (0x1)
Формат : AC-3
Формат/Информация : Audio Coding 3
Параметр Endianness формата : Big
Идентификатор кодека : 129
Продолжительность : 3 м. 27 с.
Вид битрейта : Постоянный
Битрейт : 448 Кбит/сек
Каналы : 2 канала
Расположение каналов : Front: L R
Частота : 48,0 КГц
Частота кадров : 31,250 кадров/сек (1536 SPF)
Битовая глубина : 16 бит
Метод сжатия : С потерями
Задержка видео : -589 мс.
Размер потока : 11,1 Мбайт (3%)
Язык : Korean
ServiceKind/String : Complete Main
Текст
Идентификатор : 256 (0x100)-1
Идентификатор меню : 1 (0x1)
Формат : EIA-708
Режим смешивания : SCTE 128 / DTVCC Transport
Режим смешивания, доп. информация : Muxed in Video #1
Продолжительность : 3 м. 26 с.
Вид битрейта : Постоянный
Размер потока : 0,00 байт (0%)
Меню
Идентификатор : 4096 (0x1000)
Идентификатор меню : 1 (0x1)
Продолжительность : 3 м. 26 с.
Список : 256 (0x100) (AVC) / 257 (0x101) (AC-3, Korean)
Язык : / Korean
Название сервиса : Service01
Поставщик сервиса : FFmpeg
Тип сервиса : digital television


                                                                                       
                       
                       
                       
                       
                       
                                磁力下载:
                                                               
                                       
游客,本主题需向作者支付 7音乐币 才能浏览,金币充值, 免回复、免金币,直接查看内容请开通VIP支付

                                               
  • 7.99 GB
  • 温馨提示

    记得善用社区搜索功能,那里可能会有你想要的资源;论坛站内搜索

    如果你有什么需要的资源可以去资源求档发帖,求助社区的网友,我们会在第一时间给你回复哦;资源求档

    对于本社区网盘链接失效密码错误各种报错请在反馈板块反馈报错发帖,您的支持,是我们发展的最大动力;投诉建议

    回复

    使用道具 举报

    您需要登录后才可以回帖 登录 | 立即注册 微信登录

    本版积分规则

    关注0

    粉丝4

    帖子51182

    发布主题
    阅读排行更多+
    关闭

    站长推荐上一条 /1 下一条

    收藏帖子 返回列表 这是一个自定义按钮
    音乐分享,音乐下载。
    微信公众号
    微信号:hires_
    意见反馈:admin@maomicd.com

    加入我们的官方QQ群和微信群

    Powered by Discuz! X3.4 Archiver|手机版|小黑屋|捌零音乐论坛 ( 苏ICP备20015413号 )|( 苏公网安备 32030502000272号) 繁體

    GMT+8, 2021-5-6 09:34