自购原抓音乐圈:只有自购、合购、原抓级高解析(hires、sacd、dsd)正版音乐资源分享!【点我打开
极速无线网卡:千兆无线网卡、服务器网卡、USB接口台式机笔记本网卡 硬盘代考无损音乐!【点我打开
广告

[日韩音乐] 橙色焦糖 - 10个视频片段[2010-2011,KPOP,舞蹈,HDTV 720P]

[复制链接]
全球搬运 发表于 2021-4-13 15:37:43 | 显示全部楼层 |阅读模式 打印 上一主题 下一主题
Orange Caramel - 10 видео-клипов
Жанр: KPOP, Dance
Страна: Корея (Korean)
Продолжительность: ~38 минут
Год выпуска: 2010-2011Описание:
Группа «Оранжевая карамель» является производной от популярного гёрлз-бэнда «After School (Афтер скул)». Три самые молодые участницы при поддержке продюсеров решили открыть свой проект. В нём акцент делается на молодость, свежесть и невинность девушек, в то время как в «After School (Афтер скул)» они представали в более сексуальном образе.
Проект будет международным – девушки намерены помимо Кореи выступать и в других азиатских странах.
18 июня 2010 года они впервые появились на телеэкранах в рамках передачи «Музыкальный банк» (Music Bank) на канале KBS, а их первый альбом появился в продаже днём раньше – 17 июня.Список клипов:
01. Orange Caramel-A~ing [HD720p]
02. Orange Caramel-A~ing (Dance Ver.) [HD720p]
03. Orange Caramel-Bangkok City [HD-720p]
04. Orange Caramel-Bangkok City (GomTV HD)
05. Orange Caramel-Magic Girl [HD720p]
06. Orange Caramel-Because Of You (MBC Icon Concert) [HD720p] (LiVE-выступление)
07. Orange Caramel-Shanghai Romance (HD720p)
08. Orange Caramel-Funny Hunny (HD-720p)
09. Orange Caramel-Funny Hunny [STUDIO-Klip 720p]
10. Happy Pledis-Love Letter [MV-720p]Релиз: Kawaii-ClubКачество: HDTV
Контейнер: MP4
Видео кодек: H.264
Аудио кодек: AAC
Видео: MPEG4 Video (H264) 1280x720 23.97fps 12Mb\s
Аудио: AAC 48000Hz stereo 165kbps
Тех.Данные:

Orange Caramel-A~ing [HD720p]
General
Complete name : F:\MUSIC\Klips\Orange Caramel [HD]\Orange Caramel-A~ing [HD720p].mp4
Format : MPEG-4
Format profile : Base Media
Codec ID : isom
File size : 324 MiB
Duration : 3mn 44s
Overall bit rate : 12.1 Mbps
Encoded date : UTC 2011-10-02 15:29:48
Tagged date : UTC 2011-10-02 15:29:48
Writing application : Lavf51.12.1
Video #1
Format : AVC
Format/Info : Advanced Video Codec
Format profile : Baseline@L4.0
Format settings, CABAC : No
Format settings, ReFrames : 1 frame
Codec ID : avc1
Codec ID/Info : Advanced Video Coding
Duration : 3mn 44s
Bit rate mode : Variable
Bit rate : 11.9 Mbps
Width : 1 280 pixels
Height : 720 pixels
Display aspect ratio : 16/9
Frame rate mode : Constant
Frame rate : 23.970 fps
Resolution : 24 bits
Colorimetry : 4:2:0
Scan type : Progressive
Bits/(Pixel*Frame) : 0.540
Stream size : 319 MiB (99%)
Encoded date : UTC 2011-10-02 15:29:48
Tagged date : UTC 2011-10-02 15:29:48
Audio #2
Format : AAC
Format/Info : Advanced Audio Codec
Format version : Version 4
Format profile : LC
Format settings, SBR : No
Codec ID : 40
Duration : 3mn 43s
Bit rate mode : Variable
Bit rate : 165 Kbps
Channel(s) : 2 channels
Channel positions : L R
Sampling rate : 48.0 KHz
Resolution : 16 bits
Stream size : 4.40 MiB (1%)
Language : Korean
Encoded date : UTC 2011-10-02 15:29:48
Tagged date : UTC 2011-10-02 15:29:48

Orange Caramel-A~ing (Dance Ver.) [HD720p]
General
Complete name : F:\MUSIC\Klips\Orange Caramel [HD]\Orange Caramel-A~ing (Dance Ver.) [HD720p].mp4
Format : MPEG-4
Format profile : Base Media
Codec ID : isom
File size : 304 MiB
Duration : 3mn 29s
Overall bit rate : 12.1 Mbps
Encoded date : UTC 2011-10-06 20:18:02
Tagged date : UTC 2011-10-06 20:18:02
Writing application : Lavf51.12.1
Video #1
Format : AVC
Format/Info : Advanced Video Codec
Format profile : Baseline@L4.0
Format settings, CABAC : No
Format settings, ReFrames : 1 frame
Codec ID : avc1
Codec ID/Info : Advanced Video Coding
Duration : 3mn 29s
Bit rate mode : Variable
Bit rate : 12.0 Mbps
Width : 1 280 pixels
Height : 720 pixels
Display aspect ratio : 16/9
Frame rate mode : Constant
Frame rate : 23.970 fps
Resolution : 24 bits
Colorimetry : 4:2:0
Scan type : Progressive
Bits/(Pixel*Frame) : 0.544
Stream size : 301 MiB (99%)
Language : English
Encoded date : UTC 2011-10-06 20:18:02
Tagged date : UTC 2011-10-06 20:18:02
Audio #2
Format : AAC
Format/Info : Advanced Audio Codec
Format version : Version 4
Format profile : LC
Format settings, SBR : No
Codec ID : 40
Duration : 3mn 29s
Bit rate mode : Variable
Bit rate : 113 Kbps
Channel(s) : 2 channels
Channel positions : L R
Sampling rate : 48.0 KHz
Resolution : 16 bits
Stream size : 2.82 MiB (1%)
Language : English
Encoded date : UTC 2011-10-06 20:18:02
Tagged date : UTC 2011-10-06 20:18:02

Orange Caramel-Bangkok City [HD-720p]
General
Complete name : F:\MUSIC\Klips\Orange Caramel [HD]\Orange Caramel-Bangkok City [HD-720p].mp4
Format : MPEG-4
Format profile : Base Media
Codec ID : isom
File size : 270 MiB
Duration : 3mn 6s
Overall bit rate : 12.1 Mbps
Encoded date : UTC 2011-10-05 06:28:32
Tagged date : UTC 2011-10-05 06:28:32
Writing application : Lavf51.12.1
Video #1
Format : AVC
Format/Info : Advanced Video Codec
Format profile : Baseline@L4.0
Format settings, CABAC : No
Format settings, ReFrames : 1 frame
Codec ID : avc1
Codec ID/Info : Advanced Video Coding
Duration : 3mn 6s
Bit rate mode : Variable
Bit rate : 12.0 Mbps
Width : 1 280 pixels
Height : 720 pixels
Display aspect ratio : 16/9
Frame rate mode : Constant
Frame rate : 23.970 fps
Resolution : 24 bits
Colorimetry : 4:2:0
Scan type : Progressive
Bits/(Pixel*Frame) : 0.542
Stream size : 266 MiB (99%)
Encoded date : UTC 2011-10-05 06:28:32
Tagged date : UTC 2011-10-05 06:28:32
Audio #2
Format : AAC
Format/Info : Advanced Audio Codec
Format version : Version 4
Format profile : LC
Format settings, SBR : No
Codec ID : 40
Duration : 3mn 6s
Bit rate mode : Variable
Bit rate : 165 Kbps
Channel(s) : 2 channels
Channel positions : L R
Sampling rate : 48.0 KHz
Resolution : 16 bits
Stream size : 3.68 MiB (1%)
Encoded date : UTC 2011-10-05 06:28:32
Tagged date : UTC 2011-10-05 06:28:32

Orange Caramel-Bangkok City (GomTV HD)
General
Complete name : F:\MUSIC\Klips\Orange Caramel [HD]\Orange Caramel-Bangkok City (GomTV HD).mp4
Format : MPEG-4
Format profile : Base Media
Codec ID : isom
File size : 270 MiB
Duration : 3mn 6s
Overall bit rate : 12.1 Mbps
Encoded date : UTC 2011-10-05 06:28:31
Tagged date : UTC 2011-10-05 06:28:31
Writing application : Lavf51.12.1
Video #1
Format : AVC
Format/Info : Advanced Video Codec
Format profile : Baseline@L4.0
Format settings, CABAC : No
Format settings, ReFrames : 1 frame
Codec ID : avc1
Codec ID/Info : Advanced Video Coding
Duration : 3mn 6s
Bit rate mode : Variable
Bit rate : 12.0 Mbps
Width : 1 280 pixels
Height : 720 pixels
Display aspect ratio : 16/9
Frame rate mode : Constant
Frame rate : 23.970 fps
Resolution : 24 bits
Colorimetry : 4:2:0
Scan type : Progressive
Bits/(Pixel*Frame) : 0.542
Stream size : 267 MiB (99%)
Encoded date : UTC 2011-10-05 06:28:31
Tagged date : UTC 2011-10-05 06:28:31
Audio #2
Format : AAC
Format/Info : Advanced Audio Codec
Format version : Version 4
Format profile : LC
Format settings, SBR : No
Codec ID : 40
Duration : 3mn 6s
Bit rate mode : Variable
Bit rate : 165 Kbps
Channel(s) : 2 channels
Channel positions : L R
Sampling rate : 48.0 KHz
Resolution : 16 bits
Stream size : 3.68 MiB (1%)
Encoded date : UTC 2011-10-05 06:28:31
Tagged date : UTC 2011-10-05 06:28:31

Orange Caramel-Magic Girl [HD720p]
General
Complete name : F:\MUSIC\Klips\Orange Caramel [HD]\Orange Caramel-Magic Girl [HD720p].mp4
Format : MPEG-4
Format profile : Base Media
Codec ID : isom
File size : 303 MiB
Duration : 3mn 28s
Overall bit rate : 12.2 Mbps
Encoded date : UTC 2011-10-05 06:28:33
Tagged date : UTC 2011-10-05 06:28:33
Writing application : Lavf51.12.1
Video #1
Format : AVC
Format/Info : Advanced Video Codec
Format profile : Baseline@L4.0
Format settings, CABAC : No
Format settings, ReFrames : 1 frame
Codec ID : avc1
Codec ID/Info : Advanced Video Coding
Duration : 3mn 28s
Bit rate mode : Variable
Bit rate : 12.0 Mbps
Width : 1 280 pixels
Height : 720 pixels
Display aspect ratio : 16/9
Frame rate mode : Constant
Frame rate : 23.970 fps
Resolution : 24 bits
Colorimetry : 4:2:0
Scan type : Progressive
Bits/(Pixel*Frame) : 0.544
Stream size : 299 MiB (99%)
Encoded date : UTC 2011-10-05 06:28:33
Tagged date : UTC 2011-10-05 06:28:33
Audio #2
Format : AAC
Format/Info : Advanced Audio Codec
Format version : Version 4
Format profile : LC
Format settings, SBR : No
Codec ID : 40
Duration : 3mn 28s
Bit rate mode : Variable
Bit rate : 163 Kbps
Channel(s) : 2 channels
Channel positions : L R
Sampling rate : 48.0 KHz
Resolution : 16 bits
Stream size : 4.05 MiB (1%)
Encoded date : UTC 2011-10-05 06:28:33
Tagged date : UTC 2011-10-05 06:28:33

Orange Caramel-Because Of You (MBC Icon Concert) [HD720p]
General
Complete name : F:\MUSIC\Klips\Orange Caramel [HD]\Orange Caramel-Because Of You (MBC Icon Concert) [HD720p].mkv
Format : Matroska
File size : 149 MiB
Duration : 3mn 49s
Overall bit rate : 5 454 Kbps
Encoded date : UTC 2010-12-28 12:26:32
Writing application : mkvmerge v4.0.0 ('The Stars were mine') built on Jun 6 2010 16:18:42
Writing library : libebml v1.0.0 + libmatroska v1.0.0
Video #1
Format : AVC
Format/Info : Advanced Video Codec
Format profile : High@L4.1
Format settings, CABAC : Yes
Format settings, ReFrames : 4 frames
Muxing mode : Container profile=Unknown@4.1
Codec ID : V_MPEG4/ISO/AVC
Duration : 3mn 48s
Bit rate : 4 781 Kbps
Nominal bit rate : 5 000 Kbps
Width : 1 280 pixels
Height : 720 pixels
Display aspect ratio : 16/9
Frame rate : 29.970 fps
Resolution : 24 bits
Colorimetry : 4:2:0
Scan type : Progressive
Bits/(Pixel*Frame) : 0.181
Title : Tellu - Orange Caramel - Because Of You (101225 MBC Icon Concert)
Writing library : x264 core 112 r1834 a51816a
Encoding settings : cabac=1 / ref=4 / deblock=1:0:0 / analyse=0x3:0x133 / me=umh / subme=7 / psy=1 / psy_rd=1.00:0.00 / mixed_ref=1 / me_range=16 / chroma_me=1 / trellis=2 / 8x8dct=1 / cqm=0 / deadzone=21,11 / fast_pskip=0 / chroma_qp_offset=-2 / threads=6 / sliced_threads=0 / nr=0 / decimate=1 / interlaced=0 / constrained_intra=0 / bframes=4 / b_pyramid=2 / b_adapt=1 / b_bias=0 / direct=1 / weightb=1 / open_gop=0 / weightp=2 / keyint=250 / keyint_min=25 / scenecut=40 / intra_refresh=0 / rc_lookahead=40 / rc=2pass / mbtree=1 / bitrate=5000 / ratetol=1.0 / qcomp=0.60 / qpmin=0 / qpmax=51 / qpstep=4 / cplxblur=20.0 / qblur=0.5 / ip_ratio=1.40 / aq=1:1.00
Audio #2
Format : AC-3
Format/Info : Audio Coding 3
Codec ID : A_AC3
Duration : 3mn 49s
Bit rate mode : Constant
Bit rate : 448 Kbps
Channel(s) : 2 channels
Channel positions : L R
Sampling rate : 48.0 KHz
Title : Tellu - Orange Caramel - Because Of You (101225 MBC Icon Concert)

Orange Caramel-Shanghai Romance (HD720p):
General
Complete name : F:\MUSIC\Klips\Orange Caramel [HD]\Orange Caramel-Shanghai Romance (HD720p).mp4
Format : MPEG-4
Format profile : Base Media
Codec ID : isom
File size : 329 MiB
Duration : 3mn 48s
Overall bit rate : 12.1 Mbps
Encoded date : UTC 2011-10-15 09:02:01
Tagged date : UTC 2011-10-15 09:02:01
Writing application : Lavf51.12.1
Video #1
Format : AVC
Format/Info : Advanced Video Codec
Format profile : Baseline@L4.0
Format settings, CABAC : No
Format settings, ReFrames : 1 frame
Codec ID : avc1
Codec ID/Info : Advanced Video Coding
Duration : 3mn 48s
Bit rate mode : Variable
Bit rate : 11.9 Mbps
Width : 1 280 pixels
Height : 720 pixels
Display aspect ratio : 16/9
Frame rate mode : Constant
Frame rate : 23.970 fps
Resolution : 24 bits
Colorimetry : 4:2:0
Scan type : Progressive
Bits/(Pixel*Frame) : 0.538
Stream size : 324 MiB (99%)
Language : English
Encoded date : UTC 2011-10-15 09:02:01
Tagged date : UTC 2011-10-15 09:02:01
Audio #2
Format : AAC
Format/Info : Advanced Audio Codec
Format version : Version 4
Format profile : LC
Format settings, SBR : No
Codec ID : 40
Duration : 3mn 48s
Bit rate mode : Variable
Bit rate : 164 Kbps
Channel(s) : 2 channels
Channel positions : L R
Sampling rate : 48.0 KHz
Resolution : 16 bits
Stream size : 4.46 MiB (1%)
Language : English
Encoded date : UTC 2011-10-15 09:02:01
Tagged date : UTC 2011-10-15 09:02:01

Orange Caramel-Funny Hunny (HD-720p)
F:\MUSIC\Klips\Orange Caramel [HD]\Orange Caramel-Funny Hunny (HD-720p).mp4
General
Complete name : F:\MUSIC\Klips\Orange Caramel [HD]\Orange Caramel-Funny Hunny (HD-720p).mp4
Format : MPEG-4
Format profile : Base Media
Codec ID : isom
File size : 287 MiB
Duration : 3mn 14s
Overall bit rate : 12.4 Mbps
Encoded date : UTC 2011-12-17 07:25:49
Tagged date : UTC 2011-12-17 07:25:49
Video #1
Format : AVC
Format/Info : Advanced Video Codec
Format profile : Baseline@L3.1
Format settings, CABAC : No
Format settings, ReFrames : 1 frame
Codec ID : avc1
Codec ID/Info : Advanced Video Coding
Duration : 3mn 14s
Bit rate mode : Variable
Bit rate : 12.0 Mbps
Width : 1 280 pixels
Height : 720 pixels
Display aspect ratio : 16/9
Frame rate mode : Constant
Frame rate : 23.976 fps
Standard : NTSC
Resolution : 24 bits
Colorimetry : 4:2:0
Scan type : Progressive
Bits/(Pixel*Frame) : 0.543
Stream size : 279 MiB (97%)
Language : English
Encoded date : UTC 2011-12-17 07:25:49
Tagged date : UTC 2011-12-17 07:25:49
Audio #2
Format : AAC
Format/Info : Advanced Audio Codec
Format version : Version 4
Format profile : LC
Format settings, SBR : No
Codec ID : 40
Duration : 3mn 14s
Bit rate mode : Constant
Bit rate : 369 Kbps
Channel(s) : 2 channels
Channel positions : L R
Sampling rate : 48.0 KHz
Resolution : 16 bits
Stream size : 8.57 MiB (3%)
Language : English
Encoded date : UTC 2011-12-17 07:25:49
Tagged date : UTC 2011-12-17 07:25:49

Orange Caramel-Funny Hunny [STUDIO-Klip 720p]
General
Complete name : F:\MUSIC\Klips\Orange Caramel [HD720p]\Orange Caramel-Funny Hunny [STUDIO-Klip 720p].mp4
Format : MPEG-4
Format profile : Base Media
Codec ID : isom
File size : 278 MiB
Duration : 3mn 9s
Overall bit rate : 12.3 Mbps
Encoded date : UTC 2011-12-28 19:58:34
Tagged date : UTC 2011-12-28 19:58:34
Video #1
Format : AVC
Format/Info : Advanced Video Codec
Format profile : Baseline@L3.1
Format settings, CABAC : No
Format settings, ReFrames : 1 frame
Codec ID : avc1
Codec ID/Info : Advanced Video Coding
Duration : 3mn 9s
Bit rate mode : Variable
Bit rate : 12.0 Mbps
Width : 1 280 pixels
Height : 720 pixels
Display aspect ratio : 16/9
Frame rate mode : Constant
Frame rate : 23.976 fps
Standard : NTSC
Resolution : 24 bits
Colorimetry : 4:2:0
Scan type : Progressive
Bits/(Pixel*Frame) : 0.543
Stream size : 271 MiB (97%)
Language : English
Encoded date : UTC 2011-12-28 19:58:34
Tagged date : UTC 2011-12-28 19:58:34
Audio #2
Format : AAC
Format/Info : Advanced Audio Codec
Format version : Version 4
Format profile : LC
Format settings, SBR : No
Codec ID : 40
Duration : 3mn 9s
Bit rate mode : Constant
Bit rate : 325 Kbps
Channel(s) : 2 channels
Channel positions : L R
Sampling rate : 48.0 KHz
Resolution : 16 bits
Stream size : 7.33 MiB (3%)
Language : English
Encoded date : UTC 2011-12-28 19:58:34
Tagged date : UTC 2011-12-28 19:58:34

Happy Pledis-Love Letter [MV-720p]
General
Complete name : F:\MUSIC\Klips\Orange Caramel [HD720p]\Happy Pledis-Love Letter [MV-720p].mp4
Format : MPEG-4
Format profile : Base Media
Codec ID : isom
File size : 313 MiB
Duration : 3mn 31s
Overall bit rate : 12.4 Mbps
Encoded date : UTC 2012-01-19 19:38:40
Tagged date : UTC 2012-01-19 19:38:40
Video #1
Format : AVC
Format/Info : Advanced Video Codec
Format profile : Baseline@L3.1
Format settings, CABAC : No
Format settings, ReFrames : 1 frame
Codec ID : avc1
Codec ID/Info : Advanced Video Coding
Duration : 3mn 31s
Bit rate mode : Variable
Bit rate : 12.0 Mbps
Width : 1 280 pixels
Height : 720 pixels
Display aspect ratio : 16/9
Frame rate mode : Constant
Frame rate : 23.976 fps
Standard : NTSC
Resolution : 24 bits
Colorimetry : 4:2:0
Scan type : Progressive
Bits/(Pixel*Frame) : 0.542
Stream size : 303 MiB (97%)
Language : English
Encoded date : UTC 2012-01-19 19:38:40
Tagged date : UTC 2012-01-19 19:38:40
Audio #2
Format : AAC
Format/Info : Advanced Audio Codec
Format version : Version 4
Format profile : LC
Format settings, SBR : No
Codec ID : 40
Duration : 3mn 31s
Bit rate mode : Constant
Bit rate : 396 Kbps
Channel(s) : 2 channels
Channel positions : L R
Sampling rate : 48.0 KHz
Resolution : 16 bits
Stream size : 10.0 MiB (3%)
Language : English
Encoded date : UTC 2012-01-19 19:38:40
Tagged date : UTC 2012-01-19 19:38:40


Скрин-листы:







Скриншоты
Orange Caramel-A~ing [HD720p]









Orange Caramel-A~ing (Dance Ver.) [HD720p]







Orange Caramel-Bangkok City [HD-720p]









Orange Caramel-Bangkok City (GomTV HD)








Orange Caramel-Magic Girl [HD720p]










Orange Caramel-Because Of You (MBC Icon Concert) [HD720p]








Orange Caramel-Shanghai Romance (HD720p):










Orange Caramel-Funny Hunny (HD-720p)










Orange Caramel - 2 Видео-клипа [HD 1080p]



Дискография во FLAC

                                                                                       
                       
                       
                       
                       
                       
                                磁力下载:(论坛代下载服务)
                                                               
                                       
游客,本主题需向作者支付 7音乐币 才能浏览,金币充值, 免回复、免金币,直接查看内容请开通VIP支付

                                               
  • 2.76 GB
  • 温馨提示

    记得善用社区搜索功能,那里可能会有你想要的资源;论坛站内搜索

    如果你有什么需要的资源可以去资源求档发帖,求助社区的网友,我们会在第一时间给你回复哦;资源求档

    对于本社区网盘链接失效密码错误各种报错请在反馈板块反馈报错发帖,您的支持,是我们发展的最大动力;投诉建议

    回复

    使用道具 举报

    您需要登录后才可以回帖 登录 | 立即注册 微信登录

    本版积分规则

    关注0

    粉丝12

    帖子69802

    发布主题
    阅读排行更多+
    关闭

    站长推荐上一条 /1 下一条

    收藏帖子 返回列表 这是一个自定义按钮
    音乐分享,音乐下载。
    微信公众号
    微信号:hires_
    意见反馈:admin@maomicd.com

    加入我们的官方QQ群和微信群

    Powered by Discuz! X3.4 Archiver|手机版|小黑屋|捌零音乐论坛 ( 苏ICP备20015413号 )|( 苏公网安备 32030502000272号) 繁體

    GMT+8, 2021-5-18 19:52