自购原抓音乐圈:只有自购、合购、原抓级高解析(hires、sacd、dsd)正版音乐资源分享!【点我打开
极速无线网卡:千兆无线网卡、服务器网卡、USB接口台式机笔记本网卡 硬盘代考无损音乐!【点我打开
广告

[日韩音乐] bc•它是u2020,to-pop,web,1080pch

[复制链接]
10086 发表于 2021-4-13 15:37:43 | 显示全部楼层 |阅读模式 打印 上一主题 下一主题
BTS
On

Жанр: K-Pop
Продолжительность: 00:05:45
Год выпуска: 2020
Качество: Web-DL
Разрешение видео/развертка: 1080p
Контейнер: MP4
Видео кодек: H.264
Аудио кодек: AAC
Видео: MPEG4 Video (H264) 1920x1080 23.976fps 9 949 kb/s
Аудио: AAC 48000Hz stereo 317kbps
Отчёт MediaInfo / BDInfo

General
Complete name                  : E:\HDTV\клипы mov\BTS - On.mp4
Format                         : MPEG-4
Format profile                 : Base Media / Version 2
Codec ID                       : mp42 (mp42/mp41)
File size                      : 423 MiB
Duration                       : 5 min 45 s
Overall bit rate mode          : Variable
Overall bit rate               : 10.3 Mb/s
Encoded date                   : UTC 2020-08-24 18:30:48
Tagged date                    : UTC 2020-08-24 18:31:47
TIM                            : 00:00:00:00
TSC                            : 24000
TSZ                            : 1001
Video
ID                             : 1
Format                         : AVC
Format/Info                    : Advanced Video Codec
Format profile                 : Main@L4.1
Format settings                : CABAC / 2 Ref Frames
Format settings, CABAC         : Yes
Format settings, Reference fra : 2 frames
Format settings, GOP           : M=2, N=47
Codec ID                       : avc1
Codec ID/Info                  : Advanced Video Coding
Duration                       : 5 min 45 s
Bit rate mode                  : Variable
Bit rate                       : 9 949 kb/s
Maximum bit rate               : 768 kb/s
Width                          : 1 920 pixels
Height                         : 1 080 pixels
Display aspect ratio           : 16:9
Frame rate mode                : Constant
Frame rate                     : 23.976 (24000/1001) FPS
Color space                    : YUV
Chroma subsampling             : 4:2:0
Bit depth                      : 8 bits
Scan type                      : Progressive
Bits/(Pixel*Frame)             : 0.200
Stream size                    : 410 MiB (97%)
Language                       : English
Encoded date                   : UTC 2020-08-24 18:30:48
Tagged date                    : UTC 2020-08-24 18:30:48
Color range                    : Limited
Color primaries                : BT.709
Transfer characteristics       : BT.709
Matrix coefficients            : BT.709
Codec configuration box        : avcC
Audio
ID                             : 2
Format                         : AAC LC
Format/Info                    : Advanced Audio Codec Low Complexity
Codec ID                       : mp4a-40-2
Duration                       : 5 min 45 s
Source duration                : 5 min 45 s
Bit rate mode                  : Variable
Bit rate                       : 317 kb/s
Maximum bit rate               : 461 kb/s
Channel(s)                     : 2 channels
Channel layout                 : L R
Sampling rate                  : 48.0 kHz
Frame rate                     : 46.875 FPS (1024 SPF)
Compression mode               : Lossy
Stream size                    : 13.1 MiB (3%)
Source stream size             : 13.1 MiB (3%)
Language                       : English
Encoded date                   : UTC 2020-08-24 18:30:48
Tagged date                    : UTC 2020-08-24 18:30:48


Скриншоты







Мои раздачи ®
https://rutracker.org/forum/https://rutracker.net/forum/tracker.php?rid=9539252

5 дней на раздаче!


                                                                                       
                       
                       
                       
                       
                       
                                磁力下载:(论坛代下载服务)
                                                               
                                       
游客,本主题需向作者支付 7音乐币 才能浏览,金币充值, 免回复、免金币,直接查看内容请开通VIP支付

                                               
  • 423.4 MB
  • 温馨提示

    记得善用社区搜索功能,那里可能会有你想要的资源;论坛站内搜索

    如果你有什么需要的资源可以去资源求档发帖,求助社区的网友,我们会在第一时间给你回复哦;资源求档

    对于本社区网盘链接失效密码错误各种报错请在反馈板块反馈报错发帖,您的支持,是我们发展的最大动力;投诉建议

    回复

    使用道具 举报

    您需要登录后才可以回帖 登录 | 立即注册 微信登录

    本版积分规则

    关注0

    粉丝4

    帖子51182

    发布主题
    阅读排行更多+
    关闭

    站长推荐上一条 /1 下一条

    收藏帖子 返回列表 这是一个自定义按钮
    音乐分享,音乐下载。
    微信公众号
    微信号:hires_
    意见反馈:admin@maomicd.com

    加入我们的官方QQ群和微信群

    Powered by Discuz! X3.4 Archiver|手机版|小黑屋|捌零音乐论坛 ( 苏ICP备20015413号 )|( 苏公网安备 32030502000272号) 繁體

    GMT+8, 2021-5-9 01:00