自购原抓音乐圈:只有自购、合购、原抓级高解析(hires、sacd、dsd)正版音乐资源分享!【点我打开
极速无线网卡:千兆无线网卡、服务器网卡、USB接口台式机笔记本网卡 硬盘代考无损音乐!【点我打开
广告

[日韩音乐] Berryz [Berryz Koubou] - 音乐视频[2011,JPOP,BDRIP 1080p]

[复制链接]
elmisy 发表于 2021-4-13 15:37:42 | 显示全部楼层 |阅读模式 打印 上一主题 下一主题
Berryz工房 [ Berryz Koubou ] Клипы
Страна: Japan
Жанр: jpop
Продолжительность: 2:03:00
Год выпуска: 2011 г.
Треклист: 1«Anata Nashi de wa Ikite Yukenai»
2«Fighting Pose wa Date ja Nai!»
3«Piriri to Yukou!»
4«Happiness (Koufuku Kangei!)»
5«Koi no Jubaku»
6«Special Generation»
7«Nanchuu Koi o Yatteruu YOU KNOW?»
8«21ji made no Cinderella»
9«Gag 100kaibun Aishite Kudasai»
10«Jiriri Kiteru»
11«Waracchaou yo BOYFRIEND»
12«Munasawagi Scarlet»
13«VERY BEAUTY»
14«Kokuhaku no Funsui Hiroba»
15«Tsukiatteru no ni Kataomoi»
16«Dschinghis Khan»
17«Yuke Yuke Monkey Dance»
18«MADAYADE»
19«Dakishimete Dakishimete»
20«Seishun Bus Guide»
21«Rival»
22«Watashi no Mirai no Danna-sama»
23«Ryuusei Boy»
24«Otakebi Boy WAO!»
25«Tomodachi wa Tomodachi Nanda!»
26«Maji Bomber!!»
27«Shining Power»
28«Heroine ni Narou ka!»
29«Ai no Dangan»
30«Aa, Yo ga Akeru»
Доп. информация: Клипы высокого разрешения, отличного качества
Источник: собственный рип
Качество: BDRip
Контейнер: MKV
Видео кодек: H.264
Аудио кодек: MP3
Видео: H264 1920x1080 16:9 11.9 Mbps 29.970 fps
Аудио: mp3 320kbps 48000kHz 2ch
Mediainfo
General
Unique ID : 168348648403719580577546155723716462494 (0x7EA6C532C2870C1E037BA147C20E879E)
Complete name : F:\Berryz_Koubou_clips1080\01 Anata Nashi de wa Ikite Yukenai.mkv
Format : Matroska
Format version : Version 2
File size : 373 MiB
Duration : 4mn 11s
Overall bit rate : 12.4 Mbps
Writing application : Lavf51.12.1
Writing library : Lavf51.12.1
Video
ID : 1
Format : AVC
Format/Info : Advanced Video Codec
Format profile : Baseline@L1.3
Format settings, CABAC : No
Format settings, ReFrames : 1 frame
Format settings, GOP : M=1, N=12
Codec ID : V_MPEG4/ISO/AVC
Duration : 4mn 11s
Bit rate : 11.9 Mbps
Width : 1 920 pixels
Height : 1 080 pixels
Display aspect ratio : 16:9
Frame rate : 29.970 fps
Color space : YUV
Chroma subsampling : 4:2:0
Bit depth : 8 bits
Scan type : Progressive
Bits/(Pixel*Frame) : 0.191
Stream size : 356 MiB (95%)
Default : Yes
Forced : No
Audio
ID : 2
Format : MPEG Audio
Format version : Version 1
Format profile : Layer 3
Mode : Joint stereo
Codec ID : A_MPEG/L3
Codec ID/Hint : MP3
Duration : 4mn 11s
Bit rate mode : Constant
Bit rate : 320 Kbps
Channel(s) : 2 channels
Sampling rate : 48.0 KHz
Compression mode : Lossy
Stream size : 9.59 MiB (3%)
Writing library : LAME3.97ЄЄ`
Default : Yes
Forced : No

Скриншоты





                                                                                       
                       
                       
                       
                       
                       
                                磁力下载:(论坛代下载服务)
                                                               
                                       
游客,本主题需向作者支付 7音乐币 才能浏览,金币充值, 免回复、免金币,直接查看内容请开通VIP支付

                                               
  • 10.64 GB
  • 温馨提示

    记得善用社区搜索功能,那里可能会有你想要的资源;论坛站内搜索

    如果你有什么需要的资源可以去资源求档发帖,求助社区的网友,我们会在第一时间给你回复哦;资源求档

    对于本社区网盘链接失效密码错误各种报错请在反馈板块反馈报错发帖,您的支持,是我们发展的最大动力;投诉建议

    回复

    使用道具 举报

    您需要登录后才可以回帖 登录 | 立即注册 微信登录

    本版积分规则

    关注0

    粉丝2

    帖子29564

    发布主题
    阅读排行更多+
    关闭

    站长推荐上一条 /1 下一条

    收藏帖子 返回列表 这是一个自定义按钮
    音乐分享,音乐下载。
    微信公众号
    微信号:hires_
    意见反馈:admin@maomicd.com

    加入我们的官方QQ群和微信群

    Powered by Discuz! X3.4 Archiver|手机版|小黑屋|捌零音乐论坛 ( 苏ICP备20015413号 )|( 苏公网安备 32030502000272号) 繁體

    GMT+8, 2021-5-18 19:26