自购原抓音乐圈:只有自购、合购、原抓级高解析(hires、sacd、dsd)正版音乐资源分享!【点我打开
极速无线网卡:千兆无线网卡、服务器网卡、USB接口台式机笔记本网卡 硬盘代考无损音乐!【点我打开
广告

[日韩音乐] Yui Ogra•Cherry Passport [2017,日本Pop,Bdremux,1080i]

[复制链接]
tikus75 发表于 2021-4-13 15:37:41 | 显示全部楼层 |阅读模式 打印 上一主题 下一主题
Yui Ogura
Cherry Passport
Жанр: Japan Pop
Продолжительность: 01:00:20
Год выпуска: 201701. Honey□Come!! (MUSIC VIDEO) / 小倉唯
02. ハイタッチ☆メモリー (MUSIC VIDEO) / 小倉唯
03. Future Strike (MUSIC VIDEO) / 小倉唯
04. プラチナ・パスポート (MUSIC VIDEO) / 小倉唯
05. エンジョイ! (MUSIC VIDEO “スマホ ビュー”) / 小倉唯
06. Happy Strawberry (Dance ver.)
07. Honey□Come!! (Dance ver.) / 小倉唯
08. ハイタッチ☆メモリー (Dance ver.) / 小倉唯
09. Future Strike (Lip ver.) / 小倉唯
10. プラチナ・パスポート (Dance ver.) / 小倉唯
11. Making of Cherry PassportКачество: BD Remux
Разрешение видео/развертка: 1080i
Контейнер: MKV
Видео кодек: H.264
Аудио кодек: DTS, AC3
Видео: MPEG4 Video (H264) 1920x1080 29.97fps 29.9 Mb/s
Аудио 1: DTS 48000Hz stereo 2 425 kb/s / 1 509 kb/s
Аудио 2: Dolby AC3 48000Hz stereo 640kbps
Отчёт MediaInfo / BDInfo

General
Unique ID                      : 144640712625996120122322410190874707567 (0x6CD0C9B7E73DEA2CE7DB1B752FB5866F)
Complete name                  : F:\Yui Ogura - Cherry Passport (2017).mkv
Format                         : Matroska
Format version                 : Version 4 / Version 2
File size                      : 13.9 GiB
Duration                       : 1 h 0 min
Overall bit rate mode          : Variable
Overall bit rate               : 32.9 Mb/s
Encoded date                   : UTC 2018-02-24 08:41:49
Writing application            : mkvmerge v20.0.0 ('I Am The Sun') 64-bit
Writing library                : libebml v1.3.5 + libmatroska v1.4.8
Video
ID                             : 1
Format                         : AVC
Format/Info                    : Advanced Video Codec
Format profile                 : High@L4.1
Format settings, CABAC         : Yes
Format settings, RefFrames     : 4 frames
Format settings, picture struc : Frame
Codec ID                       : V_MPEG4/ISO/AVC
Duration                       : 1 h 0 min
Bit rate mode                  : Variable
Bit rate                       : 29.9 Mb/s
Maximum bit rate               : 38.0 Mb/s
Width                          : 1 920 pixels
Height                         : 1 080 pixels
Display aspect ratio           : 16:9
Frame rate mode                : Variable
Frame rate                     : 23.976 (23976/1000) FPS
Original frame rate            : 29.970 (30000/1001) FPS
Color space                    : YUV
Chroma subsampling             : 4:2:0
Bit depth                      : 8 bits
Scan type                      : Interlaced
Scan type, store method        : Interleaved fields
Scan order                     : Bottom Field First
Bits/(Pixel*Frame)             : 0.601
Stream size                    : 12.6 GiB (91%)
Language                       : Japanese
Default                        : Yes
Forced                         : No
Audio #1
ID                             : 2
Format                         : DTS
Format/Info                    : Digital Theater Systems
Format profile                 : MA / Core
Mode                           : 16
Format settings, Endianness    : Big
Codec ID                       : A_DTS
Duration                       : 1 h 0 min
Bit rate mode                  : Variable / Constant
Bit rate                       : 2 425 kb/s / 1 509 kb/s
Channel(s)                     : 2 channels
Channel positions              : Front: L R
Sampling rate                  : 48.0 kHz
Frame rate                     : 93.750 FPS (512 SPF)
Bit depth                      : 24 bits
Compression mode               : Lossless / Lossy
Stream size                    : 1.02 GiB (7%)
Language                       : Japanese
Default                        : Yes
Forced                         : No
Audio #2
ID                             : 3
Format                         : AC-3
Format/Info                    : Audio Coding 3
Format settings, Endianness    : Big
Codec ID                       : A_AC3
Duration                       : 1 h 0 min
Bit rate mode                  : Constant
Bit rate                       : 640 kb/s
Channel(s)                     : 2 channels
Channel positions              : Front: L R
Sampling rate                  : 48.0 kHz
Frame rate                     : 31.250 FPS (1536 SPF)
Bit depth                      : 16 bits
Compression mode               : Lossy
Stream size                    : 276 MiB (2%)
Language                       : Japanese
Service kind                   : Complete Main
Default                        : No
Forced                         : No
Menu
00:00:00.000                   : : Honey □ Come!!
00:04:25.265                   : : ハイタッチ☆メモリ
00:09:06.546                   : : Future Strike
00:13:44.824                   : : プラチナ・パスポート
00:19:15.154                   : : エンジョイ!
00:23:25.404                   : : Happy Strawberry
00:27:18.637                   : : Honey□Come!! [Dance Ver.]
00:31:28.887                   : : ハイタッチ☆メモリ [Dance Ver.]
00:35:47.145                   : : Future Strike [Lip Ver.]
00:40:11.409                   : : プラチナ・パスポート [Dance Ver.]
00:45:12.710                   : : Making Cherry Passport [DAY 1]
00:52:19.069                   : : Making Cherry Passport [DAY 2]


Скриншоты


















Мои раздачи ®
https://rutracker.org/forum/https://rutracker.net/forum/tracker.php?rid=9539252


                                                                                       
                       
                       
                       
                       
                       
                                磁力下载:(论坛代下载服务)
                                                               
                                       
游客,本主题需向作者支付 7音乐币 才能浏览,金币充值, 免回复、免金币,直接查看内容请开通VIP支付

                                               
  • 13.88 GB
  • 温馨提示

    记得善用社区搜索功能,那里可能会有你想要的资源;论坛站内搜索

    如果你有什么需要的资源可以去资源求档发帖,求助社区的网友,我们会在第一时间给你回复哦;资源求档

    对于本社区网盘链接失效密码错误各种报错请在反馈板块反馈报错发帖,您的支持,是我们发展的最大动力;投诉建议

    回复

    使用道具 举报

    您需要登录后才可以回帖 登录 | 立即注册 微信登录

    本版积分规则

    关注0

    粉丝0

    帖子29919

    发布主题
    阅读排行更多+
    关闭

    站长推荐上一条 /1 下一条

    收藏帖子 返回列表 这是一个自定义按钮
    音乐分享,音乐下载。
    微信公众号
    微信号:hires_
    意见反馈:admin@maomicd.com

    加入我们的官方QQ群和微信群

    Powered by Discuz! X3.4 Archiver|手机版|小黑屋|捌零音乐论坛 ( 苏ICP备20015413号 )|( 苏公网安备 32030502000272号) 繁體

    GMT+8, 2021-5-18 18:53