自购原抓音乐圈:只有自购、合购、原抓级高解析(hires、sacd、dsd)正版音乐资源分享!【点我打开
极速无线网卡:千兆无线网卡、服务器网卡、USB接口台式机笔记本网卡 硬盘代考无损音乐!【点我打开
广告

[日韩音乐] Mizuki Nana - Nana Clips 5 [2010,JPOP,BDRIP]

[复制链接]
如果有神 发表于 2021-4-13 15:37:41 | 显示全部楼层 |阅读模式 打印 上一主题 下一主题
Mizuki Nana - Nana Clips 5
Жанр: JPop
Продолжительность: 00:35:45
Год выпуска: 2010
Доп. информация: Рип с последнего Диска, только клипы (без бонусов)
Качество: BDRip
Контейнер: MKV
Видео кодек: H.264
Аудио кодек: AC3
Видео: 1280x720, 7 049 Kbps, 29.970 fps
Аудио: AC-3, 48.0 KHz, 448 Kbps, 2 channels
Tracklist
01.Trickster
02. DISCOTHEQUE
03. 深愛
04. 悦楽カメリア
05. 夢幻
06. PHANTOM MINDS
07. Silent Bible
08. ミュステリオン

Скриншоты







Mediainfo
General
Complete name : D:\PV, Lives, TVrips\Nana Mizuki - NANA CLIPS 5.mkv
Format : Matroska
File size : 1.91 GiB
Duration : 35mn 45s
Overall bit rate : 7 650 Kbps
Encoded date : UTC 2010-10-31 08:21:12
Writing application : mkvmerge v4.3.0 ('Escape from the Island') built on Sep 5 2010 10:30:51
Writing library : libebml v1.0.0 + libmatroska v1.0.0
Video
ID : 1
Format : AVC
Format/Info : Advanced Video Codec
Format profile : High@L4.1
Format settings, CABAC : Yes
Format settings, ReFrames : 4 frames
Muxing mode : Container profile=Unknown@4.1
Codec ID : V_MPEG4/ISO/AVC
Duration : 35mn 45s
Bit rate : 7 049 Kbps
Width : 1 280 pixels
Height : 720 pixels
Display aspect ratio : 16:9
Frame rate : 29.970 fps
Color space : YUV
Chroma subsampling : 4:2:0
Bit depth : 8 bits
Scan type : Progressive
Bits/(Pixel*Frame) : 0.255
Stream size : 1.76 GiB (92%)
Writing library : x264 core 107 r1745+311 2317302
Encoding settings : cabac=1 / ref=3 / deblock=1:-1:-1 / analyse=0x3:0x113 / me=hex / subme=7 / psy=1 / fade_compensate=0.00 / psy_rd=1.00:0.00 / mixed_ref=1 / me_range=16 / chroma_me=1 / trellis=1 / 8x8dct=1 / cqm=0 / deadzone=21,11 / fast_pskip=0 / chroma_qp_offset=-2 / threads=6 / sliced_threads=0 / nr=0 / decimate=1 / interlaced=0 / constrained_intra=0 / fgo=0 / bframes=3 / b_pyramid=2 / b_adapt=1 / b_bias=0 / direct=1 / weightb=1 / open_gop=0 / weightp=2 / keyint=250 / keyint_min=25 / scenecut=40 / intra_refresh=0 / rc=cqp / mbtree=0 / qp=20 / ip_ratio=1.40 / pb_ratio=1.30 / aq=0
Language : English
Audio
ID : 2
Format : AC-3
Format/Info : Audio Coding 3
Mode extension : CM (complete main)
Codec ID : A_AC3
Duration : 35mn 45s
Bit rate mode : Constant
Bit rate : 448 Kbps
Channel(s) : 2 channels
Channel positions : Front: L R
Sampling rate : 48.0 KHz
Bit depth : 16 bits
Stream size : 115 MiB (6%)
Language : Japanese
Menu
00:00:00.000 : en:Trickster
00:04:03.243 : en:DISCOTHEQUE
00:08:22.502 : en:曆길꽋
00:13:51.831 : en:
00:17:45.064 : en:鸚℡뭘
00:22:49.368 : en:PHANTOM MINDS
00:27:07.626 : en:Silent Bible
00:31:25.884 : en:
                                                                                       
                       
                       
                       
                       
                       
                                磁力下载:(论坛代下载服务)
                                                               
                                       
游客,本主题需向作者支付 7音乐币 才能浏览,金币充值, 免回复、免金币,直接查看内容请开通VIP支付

                                               
  • 1.91 GB
  • 温馨提示

    记得善用社区搜索功能,那里可能会有你想要的资源;论坛站内搜索

    如果你有什么需要的资源可以去资源求档发帖,求助社区的网友,我们会在第一时间给你回复哦;资源求档

    对于本社区网盘链接失效密码错误各种报错请在反馈板块反馈报错发帖,您的支持,是我们发展的最大动力;投诉建议

    回复

    使用道具 举报

    您需要登录后才可以回帖 登录 | 立即注册 微信登录

    本版积分规则

    发布主题
    阅读排行更多+
    关闭

    站长推荐上一条 /1 下一条

    收藏帖子 返回列表 这是一个自定义按钮
    音乐分享,音乐下载。
    微信公众号
    微信号:hires_
    意见反馈:admin@maomicd.com

    加入我们的官方QQ群和微信群

    Powered by Discuz! X3.4 Archiver|手机版|小黑屋|捌零音乐论坛 ( 苏ICP备20015413号 )|( 苏公网安备 32030502000272号) 繁體

    GMT+8, 2021-5-18 18:40