自购原抓音乐圈:只有自购、合购、原抓级高解析(hires、sacd、dsd)正版音乐资源分享!【点我打开
极速无线网卡:千兆无线网卡、服务器网卡、USB接口台式机笔记本网卡 硬盘代考无损音乐!【点我打开
广告

[日韩音乐] [MV]勇敢的女孩 - 音乐剪辑[2012,2016-2018,KPOP,HD 1080p]

[复制链接]
全球搬运 发表于 2021-4-13 15:37:41 | 显示全部楼层 |阅读模式 打印 上一主题 下一主题
Brave Girls – музыкальные клипы

Жанр: KPop | Релизы: 2012, 2016-2018

Brave Girls - Deepened [Bugs! HD 1080p]
Релиз: 2016.02.15 | Продолжительность: 00:03:22
Качество: HD 1080p | Контейнер: MP4
Видео: AVC, 1920x1080 (16:9), 29.6 Мбит/с, 23.976 кадра/с
Аудио: AAC, 128 Кбит/с, 44.1 КГц, stereo




MediaInfo
Общее
Полное имя : G:\K-Pop\Bugs!\Brave Girls [Bugs!]\Brave Girls - Deepened [Bugs! 1080p].mp4
Формат : MPEG-4
Профиль формата : Base Media / Version 2
Идентификатор кодека : mp42 (mp41/mp42/isom)
Размер файла : 717 Мбайт
Продолжительность : 3 м. 22 с.
Режим общего битрейта : Переменный
Общий поток : 29,7 Мбит/сек
Дата кодирования : UTC 2016-02-14 12:22:14
Дата пометки : UTC 2016-02-14 12:22:47
Видео
Идентификатор : 2
Формат : AVC
Формат/Информация : Advanced Video Codec
Профиль формата : Main@L4.1
Параметр CABAC формата : Нет
Параметр RefFrames формата : 2 кадра
Идентификатор кодека : avc1
Идентификатор кодека/Информация : Advanced Video Coding
Продолжительность : 3 м. 22 с.
Вид битрейта : Переменный
Битрейт : 29,6 Мбит/сек
Максимальный битрейт : 768 Кбит/сек
Ширина : 1920 пикселей
Высота : 1080 пикселей
Соотношение сторон : 16:9
Режим частоты кадров : Постоянный
Частота кадров : 23,976 (24000/1001) кадра/сек
Частота кадров в оригинале : 25,000 кадров/сек
Цветовое пространство : YUV
Субдискретизация насыщенности : 4:2:0
Битовая глубина : 8 бит
Тип развёртки : Прогрессивная
Бит/(Пиксели*Кадры) : 0.595
Размер потока : 713 Мбайт (100%)
Заголовок : Core Media Video
Дата кодирования : UTC 2016-02-14 12:22:14
Дата пометки : UTC 2016-02-14 12:22:47
Цветовой диапазон : Limited
Основные цвета : BT.709
Характеристики трансфера : BT.709
Коэффициенты матрицы : BT.709
Аудио
Идентификатор : 1
Формат : AAC
Формат/Информация : Advanced Audio Codec
Профиль формата : LC
Идентификатор кодека : 40
Продолжительность : 3 м. 22 с.
Продолжительность оригинала : 3 м. 22 с.
Вид битрейта : Постоянный
Битрейт : 128 Кбит/сек
Каналы : 2 канала
Расположение каналов : Front: L R
Частота : 44,1 КГц
Частота кадров : 43,066 кадра/сек (1024 SPF)
Метод сжатия : С потерями
Размер потока : 3,01 Мбайт (0%)
Размер потока оригинала : 3,01 Мбайт (0%)
Заголовок : Core Media Audio
Язык : Korean
Дата кодирования : UTC 2016-02-14 12:22:14
Дата пометки : UTC 2016-02-14 12:22:47


Brave Girls - High Heels [Bugs! HD 1080p]
Релиз: 2016.06.22 | Продолжительность: 00:03:17
Качество: HD 1080p | Контейнер: MP4
Видео: AVC, 1920x1080 (16:9), 62.5 Мбит/с, 29.97 кадра/с
Аудио: AAC, 151 Кбит/с, 44.1 КГц, stereo





MediaInfo
Общее
Полное имя : E:\Torrents\Brave Girls - High Heels (Bugs! HD 1080p).mp4
Формат : MPEG-4
Профиль формата : Base Media
Идентификатор кодека : isom (mp41)
Размер файла : 1,44 Гбайт
Продолжительность : 3 м. 17 с.
Режим общего битрейта : Переменный
Общий поток : 62,7 Мбит/сек
Дата кодирования : UTC 1970-01-01 00:00:00
Дата пометки : UTC 1970-01-01 00:00:00
Программа кодирования : PotEncoder
Видео
Идентификатор : 1
Формат : AVC
Формат/Информация : Advanced Video Codec
Профиль формата : Baseline@L4
Параметр CABAC формата : Нет
Параметр ReFrames формата : 1 кадр
Идентификатор кодека : avc1
Идентификатор кодека/Информация : Advanced Video Coding
Продолжительность : 3 м. 17 с.
Битрейт : 62,5 Мбит/сек
Ширина : 1920 пикселей
Высота : 1080 пикселей
Соотношение сторон : 16:9
Режим частоты кадров : Постоянный
Частота кадров : 29,970 (29970/1000) кадров/сек
Цветовое пространство : YUV
Субдискретизация насыщенности : 4:2:0
Битовая глубина : 8 бит
Тип развёртки : Прогрессивная
Бит/(Пиксели*Кадры) : 1.006
Размер потока : 1,44 Гбайт (100%)
Дата кодирования : UTC 1970-01-01 00:00:00
Дата пометки : UTC 1970-01-01 00:00:00
Аудио
Идентификатор : 2
Формат : AAC
Формат/Информация : Advanced Audio Codec
Профиль формата : LC
Идентификатор кодека : 40
Продолжительность : 3 м. 17 с.
Вид битрейта : Переменный
Битрейт : 151 Кбит/сек
Каналы : 2 канала
Расположение каналов : Front: L R
Частота : 44,1 КГц
Частота кадров : 43,066 кадра/сек (1024 spf)
Метод сжатия : С потерями
Размер потока : 3,56 Мбайт (0%)
Дата кодирования : UTC 1970-01-01 00:00:00
Дата пометки : UTC 1970-01-01 00:00:00


Brave Girls - High Heels  [Bugs! HD 1080p]
Релиз: 2016.06.22 | Продолжительность: 00:03:00
Качество: HD 1080p Контейнер: MP4
Видео: AVC, 1920x1080 (16:9), 58.8 Мбит/с, 29.97 кадра/с
Аудио: AAC, 152 Кбит/с, 44.1 КГц, stereo






MediaInfo
Общее
Полное имя : E:\Torrents\Brave Girls - High Heels (Dance ver.) [Bugs! HD 1080p].mp4
Формат : MPEG-4
Профиль формата : Base Media
Идентификатор кодека : isom (isom/iso2/avc1/mp41)
Размер файла : 1,24 Гбайт
Продолжительность : 3 м. 0 с.
Общий поток : 59,0 Мбит/сек
Программа кодирования : Lavf57.29.100
Видео
Идентификатор : 1
Формат : AVC
Формат/Информация : Advanced Video Codec
Профиль формата : Baseline@L4
Параметр CABAC формата : Нет
Параметр ReFrames формата : 1 кадр
Идентификатор кодека : avc1
Идентификатор кодека/Информация : Advanced Video Coding
Продолжительность : 3 м. 0 с.
Битрейт : 58,8 Мбит/сек
Ширина : 1920 пикселей
Высота : 1080 пикселей
Соотношение сторон : 16:9
Режим частоты кадров : Постоянный
Частота кадров : 29,970 (29970/1000) кадров/сек
Цветовое пространство : YUV
Субдискретизация насыщенности : 4:2:0
Битовая глубина : 8 бит
Тип развёртки : Прогрессивная
Бит/(Пиксели*Кадры) : 0.947
Размер потока : 1,24 Гбайт (100%)
Аудио
Идентификатор : 2
Формат : AAC
Формат/Информация : Advanced Audio Codec
Профиль формата : LC
Идентификатор кодека : 40
Продолжительность : 3 м. 0 с.
Вид битрейта : Постоянный
Битрейт : 152 Кбит/сек
Каналы : 2 канала
Расположение каналов : Front: L R
Частота : 44,1 КГц
Частота кадров : 43,066 кадра/сек (1024 spf)
Метод сжатия : С потерями
Размер потока : 3,28 Мбайт (0%)
Default : Да
AlternateGroup/String : 1


Brave Girls - Nowadays You [Bugs! 1080p] | Новинка!
Релиз: 2012 г. | Продолжительность: 00:03:09
Качество: HD 1080p Контейнер: MP4
Видео: AVC, 1920x1080 (16:9), 10.0 Мбит/с, 29.976 кадра/с
Аудио: AAC, 317 Кбит/с, 48.0 КГц, 2 канала




MediaInfo
Общее
Полное имя : G:\K-Pop\Bugs!\Brave Girls [Bugs!]\Brave Girls - Nowadays You [Bugs! 1080p].mp4
Формат : MPEG-4
Профиль формата : Base Media / Version 2
Идентификатор кодека : mp42 (mp42/mp41)
Размер файла : 224 Мбайт
Продолжительность : 3 м. 9 с.
Режим общего битрейта : Переменный
Общий поток : 9917 Кбит/сек
Дата кодирования : UTC 2012-02-02 21:32:41
Дата пометки : UTC 2012-02-02 21:32:41
©TIM : 00:00:01:08
©TSC : 24000
©TSZ : 1001
Видео
Идентификатор : 1
Формат : AVC
Формат/Информация : Advanced Video Codec
Профиль формата : High@L5.1
Параметр CABAC формата : Да
Параметр RefFrames формата : 3 кадра
Идентификатор кодека : avc1
Идентификатор кодека/Информация : Advanced Video Coding
Продолжительность : 3 м. 9 с.
Вид битрейта : Постоянный
Битрейт : 10000 Кбит/сек
Ширина : 1920 пикселей
Высота : 1080 пикселей
Соотношение сторон : 16:9
Режим частоты кадров : Постоянный
Частота кадров : 23,976 (23976/1000) кадра/сек
Частота кадров в оригинале : 23,976 (24000/1001) кадра/сек
Стандарт вещания : NTSC
Цветовое пространство : YUV
Субдискретизация насыщенности : 4:2:0
Битовая глубина : 8 бит
Тип развёртки : Прогрессивная
Бит/(Пиксели*Кадры) : 0.201
Размер потока : 216 Мбайт (97%)
Язык : English
Дата кодирования : UTC 2012-02-02 21:32:41
Дата пометки : UTC 2012-02-02 21:32:41
Цветовой диапазон : Limited
Основные цвета : BT.709
Характеристики трансфера : BT.709
Коэффициенты матрицы : BT.709
Аудио
Идентификатор : 2
Формат : AAC
Формат/Информация : Advanced Audio Codec
Профиль формата : LC
Идентификатор кодека : 40
Продолжительность : 3 м. 9 с.
Продолжительность оригинала : 3 м. 9 с.
Вид битрейта : Переменный
Битрейт : 317 Кбит/сек
Максимальный битрейт : 403 Кбит/сек
Каналы : 2 канала
Расположение каналов : Front: L R
Частота : 48,0 КГц
Частота кадров : 46,875 кадров/сек (1024 SPF)
Метод сжатия : С потерями
Размер потока : 7,16 Мбайт (3%)
Размер потока оригинала : 7,16 Мбайт (3%)
Язык : English
Дата кодирования : UTC 2012-02-02 21:32:41
Дата пометки : UTC 2012-02-02 21:32:41


Brave Girls - Rollin' [Bugs! HD 1080p]
Релиз: 2017.03.02 | Продолжительность: 00:03:37
Качество: HD 1080p | Контейнер: MP4
Видео: AVC, 1920x1080 (16:9), 18.0 Мбит/с, 29.97 кадра/с
Аудио: AAC, 384 Кбит/с, 48.0 КГц, stereo




MediaInfo
Общее
Полное имя : E:\Torrents\Brave Girls (Bugs! HD)\Brave Girls - Rollin [Bugs! HD 1080p].mp4
Формат : MPEG-4
Профиль формата : JVT
Идентификатор кодека : avc1 (avc1/mp42)
Размер файла : 475 Мбайт
Продолжительность : 3 м. 37 с.
Режим общего битрейта : Постоянный
Общий поток : 18,4 Мбит/сек
Дата кодирования : UTC 2017-03-02 02:31:48
Дата пометки : UTC 2017-03-02 02:31:48
Видео
Идентификатор : 1
Формат : AVC
Формат/Информация : Advanced Video Codec
Профиль формата : High@L4
Параметр CABAC формата : Да
Параметр ReFrames формата : 2 кадра
Параметр GOP формата : M=3, N=30
Идентификатор кодека : avc1
Идентификатор кодека/Информация : Advanced Video Coding
Продолжительность : 3 м. 37 с.
Вид битрейта : Постоянный
Битрейт : 18,0 Мбит/сек
Ширина : 1920 пикселей
Высота : 1080 пикселей
Соотношение сторон : 16:9
Режим частоты кадров : Постоянный
Частота кадров : 29,970 (30000/1001) кадров/сек
Цветовое пространство : YUV
Субдискретизация насыщенности : 4:2:0
Битовая глубина : 8 бит
Тип развёртки : Прогрессивная
Бит/(Пиксели*Кадры) : 0.290
Размер потока : 465 Мбайт (98%)
Язык : English
Дата кодирования : UTC 2017-03-02 02:31:48
Дата пометки : UTC 2017-03-02 02:31:48
Аудио
Идентификатор : 2
Формат : AAC
Формат/Информация : Advanced Audio Codec
Профиль формата : LC
Идентификатор кодека : 40
Продолжительность : 3 м. 37 с.
Продолжительность оригинала : 3 м. 37 с.
Вид битрейта : Постоянный
Битрейт : 384 Кбит/сек
Каналы : 2 канала
Расположение каналов : Front: L R
Частота : 48,0 КГц
Частота кадров : 46,875 кадров/сек (1024 spf)
Метод сжатия : С потерями
Размер потока : 9,94 Мбайт (2%)
Размер потока оригинала : 9,94 Мбайт (2%)
Язык : English
Дата кодирования : UTC 2017-03-02 02:31:48
Дата пометки : UTC 2017-03-02 02:31:48


Brave Girls - Rollin’  [Bugs! HD 1080p]
Релиз: 2018.08.09 | Продолжительность: 00:03:22
Качество: HD 1080p | Контейнер: MP4
Видео: AVC, 1920x1080 (16:9), 9896 Кбит/с, 23.976 кадра/с
Аудио: AAC, 317 Кбит/с, 48.0 КГц, stereo




MediaInfo
Общее
Полное имя : G:\K-Pop\Bugs!\Brave Girls [Bugs!]\Brave Girls - Rollin’ (New Version) [Bugs! 1080p].mp4
Формат : MPEG-4
Профиль формата : Base Media / Version 2
Идентификатор кодека : mp42 (mp42/mp41)
Размер файла : 246 Мбайт
Продолжительность : 3 м. 22 с.
Режим общего битрейта : Переменный
Общий поток : 10,2 Мбит/сек
Дата кодирования : UTC 2018-08-10 07:11:13
Дата пометки : UTC 2018-08-10 07:11:20
©TIM : 00:12:18:07
©TSC : 24000
©TSZ : 1001
Видео
Идентификатор : 1
Формат : AVC
Формат/Информация : Advanced Video Codec
Профиль формата : Main@L4.1
Параметр CABAC формата : Да
Параметр RefFrames формата : 3 кадра
Идентификатор кодека : avc1
Идентификатор кодека/Информация : Advanced Video Coding
Продолжительность : 3 м. 22 с.
Битрейт : 9896 Кбит/сек
Ширина : 1920 пикселей
Высота : 1080 пикселей
Соотношение сторон : 16:9
Режим частоты кадров : Постоянный
Частота кадров : 23,976 (24000/1001) кадра/сек
Стандарт вещания : NTSC
Цветовое пространство : YUV
Субдискретизация насыщенности : 4:2:0
Битовая глубина : 8 бит
Тип развёртки : Прогрессивная
Бит/(Пиксели*Кадры) : 0.199
Размер потока : 239 Мбайт (97%)
Язык : English
Дата кодирования : UTC 2018-08-10 07:11:13
Дата пометки : UTC 2018-08-10 07:11:13
Цветовой диапазон : Limited
Основные цвета : BT.709
Характеристики трансфера : BT.709
Коэффициенты матрицы : BT.709
Аудио
Идентификатор : 2
Формат : AAC
Формат/Информация : Advanced Audio Codec
Профиль формата : LC
Идентификатор кодека : 40
Продолжительность : 3 м. 22 с.
Продолжительность оригинала : 3 м. 22 с.
Вид битрейта : Переменный
Битрейт : 317 Кбит/сек
Максимальный битрейт : 433 Кбит/сек
Каналы : 2 канала
Расположение каналов : Front: L R
Частота : 48,0 КГц
Частота кадров : 46,875 кадров/сек (1024 SPF)
Метод сжатия : С потерями
Размер потока : 7,65 Мбайт (3%)
Размер потока оригинала : 7,65 Мбайт (3%)
Язык : English
Дата кодирования : UTC 2018-08-10 07:11:13
Дата пометки : UTC 2018-08-10 07:11:13


Brave Girls - Yoo Hoo [Bugs! HD 1080p]
Релиз: 2016.08.31 | Продолжительность: 00:03:42
Качество: HD 1080p | Контейнер: MP4
Видео: AVC, 1920x1080 (16:9), 14.0 Мбит/с, 23.976 кадра/с
Аудио: AAC, 317 Кбит/с, 48.0 КГц, stereo




MediaInfo
Общее
Полное имя : G:\K-Pop\Bugs!\Brave Girls [Bugs!]\Brave Girls - Yoo Hoo [Bugs! 1080p].mp4
Формат : MPEG-4
Профиль формата : Base Media / Version 2
Идентификатор кодека : mp42 (mp42/mp41)
Размер файла : 365 Мбайт
Продолжительность : 3 м. 42 с.
Режим общего битрейта : Переменный
Общий поток : 13,8 Мбит/сек
Дата кодирования : UTC 2016-08-31 10:44:00
Дата пометки : UTC 2016-08-31 10:44:03
©TIM : 00:00:00:00
©TSC : 2997
©TSZ : 125
Видео
Идентификатор : 1
Формат : AVC
Формат/Информация : Advanced Video Codec
Профиль формата : High@L5.1
Параметр CABAC формата : Да
Параметр RefFrames формата : 3 кадра
Идентификатор кодека : avc1
Идентификатор кодека/Информация : Advanced Video Coding
Продолжительность : 3 м. 42 с.
Вид битрейта : Постоянный
Битрейт : 14,0 Мбит/сек
Ширина : 1920 пикселей
Высота : 1080 пикселей
Соотношение сторон : 16:9
Режим частоты кадров : Переменный
Частота кадров : 23,976 (24000/1001) кадра/сек
Минимальная частота кадров : 23,976 кадра/сек
Максимальная частота кадров : 23,988 кадра/сек
Стандарт вещания : NTSC
Цветовое пространство : YUV
Субдискретизация насыщенности : 4:2:0
Битовая глубина : 8 бит
Тип развёртки : Прогрессивная
Бит/(Пиксели*Кадры) : 0.282
Размер потока : 356 Мбайт (98%)
Язык : English
Дата кодирования : UTC 2016-08-31 10:44:00
Дата пометки : UTC 2016-08-31 10:44:00
Цветовой диапазон : Limited
Основные цвета : BT.709
Характеристики трансфера : BT.709
Коэффициенты матрицы : BT.709
Аудио
Идентификатор : 2
Формат : AAC
Формат/Информация : Advanced Audio Codec
Профиль формата : LC
Идентификатор кодека : 40
Продолжительность : 3 м. 42 с.
Продолжительность оригинала : 3 м. 42 с.
Вид битрейта : Переменный
Битрейт : 317 Кбит/сек
Максимальный битрейт : 419 Кбит/сек
Каналы : 2 канала
Расположение каналов : Front: L R
Частота : 48,0 КГц
Частота кадров : 46,875 кадров/сек (1024 SPF)
Метод сжатия : С потерями
Размер потока : 8,41 Мбайт (2%)
Размер потока оригинала : 8,41 Мбайт (2%)
Язык : English
Дата кодирования : UTC 2016-08-31 10:44:00
Дата пометки : UTC 2016-08-31 10:44:00

                                                                                       
                       
                       
                       
                       
                       
                                磁力下载:(论坛代下载服务)
                                                               
                                       
游客,本主题需向作者支付 7音乐币 才能浏览,金币充值, 免回复、免金币,直接查看内容请开通VIP支付

                                               
  • 4.67 GB
  • 温馨提示

    记得善用社区搜索功能,那里可能会有你想要的资源;论坛站内搜索

    如果你有什么需要的资源可以去资源求档发帖,求助社区的网友,我们会在第一时间给你回复哦;资源求档

    对于本社区网盘链接失效密码错误各种报错请在反馈板块反馈报错发帖,您的支持,是我们发展的最大动力;投诉建议

    回复

    使用道具 举报

    您需要登录后才可以回帖 登录 | 立即注册 微信登录

    本版积分规则

    关注0

    粉丝12

    帖子69803

    发布主题
    阅读排行更多+
    关闭

    站长推荐上一条 /1 下一条

    收藏帖子 返回列表 这是一个自定义按钮
    音乐分享,音乐下载。
    微信公众号
    微信号:hires_
    意见反馈:admin@maomicd.com

    加入我们的官方QQ群和微信群

    Powered by Discuz! X3.4 Archiver|手机版|小黑屋|捌零音乐论坛 ( 苏ICP备20015413号 )|( 苏公网安备 32030502000272号) 繁體

    GMT+8, 2021-5-8 23:32