自购原抓音乐圈:只有自购、合购、原抓级高解析(hires、sacd、dsd)正版音乐资源分享!【点我打开
极速无线网卡:千兆无线网卡、服务器网卡、USB接口台式机笔记本网卡 硬盘代考无损音乐!【点我打开
广告

[日韩音乐] [MV]旋律日 - 亲吻嘴唇[2017,KPOP,HD 1080P]

[复制链接]
韬199435 发表于 2021-4-13 15:37:41 | 显示全部楼层 |阅读模式 打印 上一主题 下一主题
.
Melody Day - Kiss On The Lips

Жанр: KPop
Релиз: 2017.02.13

О группе
Melody Day (데이 데이; или MelodyDay) была женской группой из четырех человек из Cre.ker Entertainment.
Они были активны с 2012 года, в основном участвуя в OST, до официального дебюта 25 февраля 2014 года с их первым синглом "Another Parting".
26 декабря 2018 года группа объявила о своем расформировании после того, как приняла решение не продлевать свои контракты с агентством.
Больше информации: https://kpop.fandom.com/wiki/Melody_Day

Melody Day - Kiss On The Lips [Bugs!]
Продолжительность: 00:03:12
Качество: HD 1080p | Контейнер: MP4
Видео: AVC, 1920x1080 (16:9), 16.8 Мбит/сек, 23.976 кадра/с
Аудио: AAC, 317 Кбит/с, 48.0 КГц, stereo





MediaInfo
Общее
Полное имя : G:\K-Pop\Bugs!\Melody Day - Kiss On The Lips [Bugs! 1080p].mp4
Формат : MPEG-4
Профиль формата : Base Media / Version 2
Идентификатор кодека : mp42 (mp42/mp41)
Размер файла : 431 Мбайт
Продолжительность : 3 м. 12 с.
Режим общего битрейта : Переменный
Общий поток : 18,8 Мбит/сек
Дата кодирования : UTC 2017-02-13 07:37:00
Дата пометки : UTC 2017-02-13 07:37:21
©TIM : 00:00:00:00
©TSC : 24000
©TSZ : 1001
Видео
Идентификатор : 1
Формат : AVC
Формат/Информация : Advanced Video Codec
Профиль формата : Main@L4.1
Параметр CABAC формата : Да
Параметр RefFrames формата : 3 кадра
Идентификатор кодека : avc1
Идентификатор кодека/Информация : Advanced Video Coding
Продолжительность : 3 м. 12 с.
Битрейт : 16,8 Мбит/сек
Ширина : 1920 пикселей
Высота : 1080 пикселей
Соотношение сторон : 16:9
Режим частоты кадров : Постоянный
Частота кадров : 23,976 (24000/1001) кадра/сек
Стандарт вещания : NTSC
Цветовое пространство : YUV
Субдискретизация насыщенности : 4:2:0
Битовая глубина : 8 бит
Тип развёртки : Прогрессивная
Бит/(Пиксели*Кадры) : 0.337
Размер потока : 385 Мбайт (89%)
Язык : English
Дата кодирования : UTC 2017-02-13 07:37:00
Дата пометки : UTC 2017-02-13 07:37:00
Цветовой диапазон : Limited
Основные цвета : BT.709
Характеристики трансфера : BT.709
Коэффициенты матрицы : BT.709
Аудио
Идентификатор : 2
Формат : AAC
Формат/Информация : Advanced Audio Codec
Профиль формата : LC
Идентификатор кодека : 40
Продолжительность : 3 м. 12 с.
Продолжительность оригинала : 3 м. 12 с.
Вид битрейта : Переменный
Битрейт : 317 Кбит/сек
Максимальный битрейт : 409 Кбит/сек
Каналы : 2 канала
Расположение каналов : Front: L R
Частота : 48,0 КГц
Частота кадров : 46,875 кадров/сек (1024 SPF)
Метод сжатия : С потерями
Размер потока : 7,29 Мбайт (2%)
Размер потока оригинала : 7,29 Мбайт (2%)
Язык : English
Дата кодирования : UTC 2017-02-13 07:37:00
Дата пометки : UTC 2017-02-13 07:37:00

                                                                                       
                       
                       
                       
                       
                       
                                磁力下载:(论坛代下载服务)
                                                               
                                       
游客,本主题需向作者支付 7音乐币 才能浏览,金币充值, 免回复、免金币,直接查看内容请开通VIP支付

                                               
  • 431.2 MB
  • 温馨提示

    记得善用社区搜索功能,那里可能会有你想要的资源;论坛站内搜索

    如果你有什么需要的资源可以去资源求档发帖,求助社区的网友,我们会在第一时间给你回复哦;资源求档

    对于本社区网盘链接失效密码错误各种报错请在反馈板块反馈报错发帖,您的支持,是我们发展的最大动力;投诉建议

    回复

    使用道具 举报

    您需要登录后才可以回帖 登录 | 立即注册 微信登录

    本版积分规则

    关注0

    粉丝0

    帖子30176

    发布主题
    阅读排行更多+
    关闭

    站长推荐上一条 /1 下一条

    收藏帖子 返回列表 这是一个自定义按钮
    音乐分享,音乐下载。
    微信公众号
    微信号:hires_
    意见反馈:admin@maomicd.com

    加入我们的官方QQ群和微信群

    Powered by Discuz! X3.4 Archiver|手机版|小黑屋|捌零音乐论坛 ( 苏ICP备20015413号 )|( 苏公网安备 32030502000272号) 繁體

    GMT+8, 2021-5-9 06:28