自购原抓音乐圈:只有自购、合购、原抓级高解析(hires、sacd、dsd)正版音乐资源分享!【点我打开
极速无线网卡:千兆无线网卡、服务器网卡、USB接口台式机笔记本网卡 硬盘代考无损音乐!【点我打开
广告

[日韩音乐] BC•偶像Y2018,K-POP,Web,1080ps

[复制链接]
tikus75 发表于 2021-4-13 15:37:41 | 显示全部楼层 |阅读模式 打印 上一主题 下一主题
BTS

Жанр: K-Pop
Продолжительность: 00:03:43
Год выпуска: 2018
Качество: Web-DL
Разрешение видео/развертка: 1080p
Контейнер: MOV
Видео кодек: H.264
Аудио кодек: PCM
Видео: MPEG4 Video (H264) 1920x1080 23.976fps 36.5 Mb/s
Аудио: PCM 48000Hz stereo 1536kbps
Отчёт MediaInfo / BDInfo

General
Complete name                  : E:\HDTV\клипы mov\BTS - Idol.mov
Format                         : MPEG-4
Format profile                 : QuickTime
Codec ID                       : qt   2005.03 (qt  )
File size                      : 1 010 MiB
Duration                       : 3 min 43 s
Overall bit rate mode          : Variable
Overall bit rate               : 38.0 Mb/s
Encoded date                   : UTC 2018-08-22 06:21:04
Tagged date                    : UTC 2018-08-22 06:27:46
Writing library                : Apple QuickTime
TIM                            : 00:00:00:00
TSC                            : 24000
TSZ                            : 1001
Video
ID                             : 1
Format                         : AVC
Format/Info                    : Advanced Video Codec
Format profile                 : Main@L4.1
Format settings                : 2 Ref Frames
Format settings, CABAC         : No
Format settings, Reference fra : 2 frames
Format settings, GOP           : N=1
Codec ID                       : avc1
Codec ID/Info                  : Advanced Video Coding
Duration                       : 3 min 43 s
Bit rate mode                  : Variable
Bit rate                       : 36.5 Mb/s
Width                          : 1 920 pixels
Height                         : 1 080 pixels
Display aspect ratio           : 16:9
Frame rate mode                : Constant
Frame rate                     : 23.976 (24000/1001) FPS
Color space                    : YUV
Chroma subsampling             : 4:2:0
Bit depth                      : 8 bits
Scan type                      : Progressive
Bits/(Pixel*Frame)             : 0.733
Stream size                    : 969 MiB (96%)
Language                       : English
Encoded date                   : UTC 2018-08-22 06:21:04
Tagged date                    : UTC 2018-08-22 06:27:46
Color range                    : Limited
Color primaries                : BT.709
Transfer characteristics       : BT.709
Matrix coefficients            : BT.709
Codec configuration box        : avcC
Audio
ID                             : 2
Format                         : PCM
Format settings                : Little / Signed
Codec ID                       : sowt
Duration                       : 3 min 43 s
Bit rate mode                  : Constant
Bit rate                       : 1 536 kb/s
Channel(s)                     : 2 channels
Channel layout                 : L R
Sampling rate                  : 48.0 kHz
Bit depth                      : 16 bits
Stream size                    : 40.8 MiB (4%)
Language                       : English
Encoded date                   : UTC 2018-08-22 06:21:04
Tagged date                    : UTC 2018-08-22 06:27:46
Other
ID                             : 3
Type                           : Time code
Format                         : QuickTime TC
Duration                       : 3 min 43 s
Frame rate                     : 23.976 (24000/1001) FPS
Time code of first frame       : 00:00:00:00
Time code, striped             : Yes
Language                       : English
Encoded date                   : UTC 2018-08-22 06:27:46
Tagged date                    : UTC 2018-08-22 06:27:46


Скриншоты







Мои раздачи ®
https://rutracker.org/forum/https://rutracker.net/forum/tracker.php?rid=9539252

5 дней на раздаче!


                                                                                       
                       
                       
                       
                       
                       
                                磁力下载:
                                                               
                                       
游客,本主题需向作者支付 7音乐币 才能浏览,金币充值, 免回复、免金币,直接查看内容请开通VIP支付

                                               
  • 1010.2 MB
  • 温馨提示

    记得善用社区搜索功能,那里可能会有你想要的资源;论坛站内搜索

    如果你有什么需要的资源可以去资源求档发帖,求助社区的网友,我们会在第一时间给你回复哦;资源求档

    对于本社区网盘链接失效密码错误各种报错请在反馈板块反馈报错发帖,您的支持,是我们发展的最大动力;投诉建议

    回复

    使用道具 举报

    您需要登录后才可以回帖 登录 | 立即注册 微信登录

    本版积分规则

    关注0

    粉丝0

    帖子29919

    发布主题
    阅读排行更多+
    关闭

    站长推荐上一条 /1 下一条

    收藏帖子 返回列表 这是一个自定义按钮
    音乐分享,音乐下载。
    微信公众号
    微信号:hires_
    意见反馈:admin@maomicd.com

    加入我们的官方QQ群和微信群

    Powered by Discuz! X3.4 Archiver|手机版|小黑屋|捌零音乐论坛 ( 苏ICP备20015413号 )|( 苏公网安备 32030502000272号) 繁體

    GMT+8, 2021-5-6 23:50