自购原抓音乐圈:只有自购、合购、原抓级高解析(hires、sacd、dsd)正版音乐资源分享!【点我打开
极速无线网卡:千兆无线网卡、服务器网卡、USB接口台式机笔记本网卡 硬盘代考无损音乐!【点我打开
广告

[日韩音乐] [mv] k.a.r.d - 音乐剪辑(更新)[2016-2020,KPOP,FHD 1080P]

[复制链接]
kayda 发表于 2021-4-13 15:37:41 | 显示全部楼层 |阅读模式 打印 上一主题 下一主题
K.A.R.D – музыкальные клипы

Жанр: KPop | Релизы: 2016, 2017, 2018, 2019, 2020
Обновление 5 сентября
KARD - Bomb Bomb [Bugs! 1080p]
Релиз: 2019.03.27 | Продолжительность: 00:03:25
Качество: HD 1080p | Контейнер: MP4
Видео: AVC, 1920x1080 (16:9), 25.0 Мбит/с, 23.976 кадра/с
Аудио: AAC, 157 Кбит/с, 48.0 КГц, stereo




Отчёт MediaInfo
Общее
Полное имя : G:\K-Pop\Bugs!\K.A.R.D\KARD - Bomb Bomb [Bugs! 1080p].mp4
Формат : MPEG-4
Профиль формата : Base Media
Идентификатор кодека : isom (isom/iso2/avc1/mp41)
Размер файла : 616 Мбайт
Продолжительность : 3 м. 25 с.
Режим общего битрейта : Переменный
Общий поток : 25,2 Мбит/сек
Программа кодирования : Lavf55.12.100
Видео
Идентификатор : 2
Формат : AVC
Формат/Информация : Advanced Video Codec
Профиль формата : High@L4
Параметр CABAC формата : Нет
Параметр RefFrames формата : 2 кадра
Идентификатор кодека : avc1
Идентификатор кодека/Информация : Advanced Video Coding
Продолжительность : 3 м. 25 с.
Битрейт : 25,0 Мбит/сек
Ширина : 1920 пикселей
Высота : 1080 пикселей
Соотношение сторон : 16:9
Режим частоты кадров : Переменный
Частота кадров : 23,976 (24000/1001) кадра/сек
Минимальная частота кадров : 23,786 кадра/сек
Максимальная частота кадров : 24,405 кадра/сек
Стандарт вещания : NTSC
Цветовое пространство : YUV
Субдискретизация насыщенности : 4:2:0
Битовая глубина : 8 бит
Тип развёртки : Прогрессивная
Бит/(Пиксели*Кадры) : 0.503
Размер потока : 612 Мбайт (99%)
Язык : English
Цветовой диапазон : Limited
Основные цвета : BT.709
Характеристики трансфера : BT.709
Коэффициенты матрицы : BT.709
Аудио
Идентификатор : 1
Формат : AAC
Формат/Информация : Advanced Audio Codec
Профиль формата : LC
Идентификатор кодека : 40
Продолжительность : 3 м. 25 с.
Вид битрейта : Переменный
Битрейт : 157 Кбит/сек
Максимальный битрейт : 256 Кбит/сек
Каналы : 2 канала
Расположение каналов : Front: L R
Частота : 48,0 КГц
Частота кадров : 46,875 кадров/сек (1024 SPF)
Метод сжатия : С потерями
Размер потока : 3,85 Мбайт (1%)
Язык : English
Default : Да
AlternateGroup/String : 1


KARD - Don’t Recall (Hidden Ver.) [Bugs! 1080p]
Релиз: 2017.02.28 | Продолжительность: 00:03:33
Качество: HD 1080p | Контейнер: MP4
Видео: AVC, 1920x1080 (16:9), 38.0 Мбит/с, 23.976 кадра/с
Аудио: AAC, 317 Кбит/с, 48.0 КГц, 2 канала




Отчёт MediaInfo
Общее
Полное имя : G:\K-Pop\Bugs!\K.A.R.D\KARD – Don’t Recall (Hidden Ver.) [Bugs! 1080p].mp4
Формат : MPEG-4
Профиль формата : Base Media / Version 2
Идентификатор кодека : mp42 (mp42/mp41)
Размер файла : 975 Мбайт
Продолжительность : 3 м. 33 с.
Режим общего битрейта : Переменный
Общий поток : 38,3 Мбит/сек
Дата кодирования : UTC 2017-02-28 15:04:26
Дата пометки : UTC 2017-02-28 15:04:36
©TIM : 00:00:00:00
©TSC : 24000
©TSZ : 1001
Видео
Идентификатор : 1
Формат : AVC
Формат/Информация : Advanced Video Codec
Профиль формата : Main@L4.1
Параметр CABAC формата : Да
Параметр RefFrames формата : 3 кадра
Идентификатор кодека : avc1
Идентификатор кодека/Информация : Advanced Video Coding
Продолжительность : 3 м. 33 с.
Битрейт : 38,0 Мбит/сек
Ширина : 1920 пикселей
Высота : 1080 пикселей
Соотношение сторон : 16:9
Режим частоты кадров : Постоянный
Частота кадров : 23,976 (24000/1001) кадра/сек
Стандарт вещания : NTSC
Цветовое пространство : YUV
Субдискретизация насыщенности : 4:2:0
Битовая глубина : 8 бит
Тип развёртки : Прогрессивная
Бит/(Пиксели*Кадры) : 0.763
Размер потока : 967 Мбайт (99%)
Язык : English
Дата кодирования : UTC 2017-02-28 15:04:26
Дата пометки : UTC 2017-02-28 15:04:26
Цветовой диапазон : Limited
Основные цвета : BT.709
Характеристики трансфера : BT.709
Коэффициенты матрицы : BT.709
Аудио
Идентификатор : 2
Формат : AAC
Формат/Информация : Advanced Audio Codec
Профиль формата : LC
Идентификатор кодека : 40
Продолжительность : 3 м. 33 с.
Продолжительность оригинала : 3 м. 33 с.
Вид битрейта : Переменный
Битрейт : 317 Кбит/сек
Максимальный битрейт : 431 Кбит/сек
Каналы : 2 канала
Расположение каналов : Front: L R
Частота : 48,0 КГц
Частота кадров : 46,875 кадров/сек (1024 SPF)
Метод сжатия : С потерями
Размер потока : 8,09 Мбайт (1%)
Размер потока оригинала : 8,09 Мбайт (1%)
Язык : English
Дата кодирования : UTC 2017-02-28 15:04:26
Дата пометки : UTC 2017-02-28 15:04:26


KARD - Don't Recall [Bugs! 1080p]
Релиз: 2017.02.15 | Продолжительность: 00:03:29
Качество: HD 1080p | Контейнер: MP4
Видео: AVC, 1920x1080 (16:9), 47.5 Мбит/с, 23.976 кадра/с
Аудио: AAC, 317 Кбит/с, 48.0 КГц, 2 канала




Отчёт MediaInfo
Общее
Полное имя : G:\K-Pop\Bugs!\K.A.R.D\KARD - Don't Recall [Bugs! 1080p].mp4
Формат : MPEG-4
Профиль формата : Base Media / Version 2
Идентификатор кодека : mp42 (mp42/mp41)
Размер файла : 1,17 Гбайт
Продолжительность : 3 м. 29 с.
Режим общего битрейта : Переменный
Общий поток : 47,9 Мбит/сек
Дата кодирования : UTC 2017-02-15 07:32:21
Дата пометки : UTC 2017-02-15 07:32:47
©TIM : 00:00:00:00
©TSC : 24000
©TSZ : 1001
Видео
Идентификатор : 1
Формат : AVC
Формат/Информация : Advanced Video Codec
Профиль формата : Main@L4.1
Параметр CABAC формата : Да
Параметр RefFrames формата : 3 кадра
Идентификатор кодека : avc1
Идентификатор кодека/Информация : Advanced Video Coding
Продолжительность : 3 м. 29 с.
Битрейт : 47,5 Мбит/сек
Ширина : 1920 пикселей
Высота : 1080 пикселей
Соотношение сторон : 16:9
Режим частоты кадров : Постоянный
Частота кадров : 23,976 (24000/1001) кадра/сек
Стандарт вещания : NTSC
Цветовое пространство : YUV
Субдискретизация насыщенности : 4:2:0
Битовая глубина : 8 бит
Тип развёртки : Прогрессивная
Бит/(Пиксели*Кадры) : 0.956
Размер потока : 1,16 Гбайт (99%)
Язык : English
Дата кодирования : UTC 2017-02-15 07:32:21
Дата пометки : UTC 2017-02-15 07:32:21
Цветовой диапазон : Limited
Основные цвета : BT.709
Характеристики трансфера : BT.709
Коэффициенты матрицы : BT.709
Аудио
Идентификатор : 2
Формат : AAC
Формат/Информация : Advanced Audio Codec
Профиль формата : LC
Идентификатор кодека : 40
Продолжительность : 3 м. 29 с.
Продолжительность оригинала : 3 м. 29 с.
Вид битрейта : Переменный
Битрейт : 317 Кбит/сек
Максимальный битрейт : 424 Кбит/сек
Каналы : 2 канала
Расположение каналов : Front: L R
Частота : 48,0 КГц
Частота кадров : 46,875 кадров/сек (1024 SPF)
Метод сжатия : С потерями
Размер потока : 7,93 Мбайт (1%)
Размер потока оригинала : 7,93 Мбайт (1%)
Язык : English
Дата кодирования : UTC 2017-02-15 07:32:21
Дата пометки : UTC 2017-02-15 07:32:21


KARD - Dumb Litty [Bugs! 1080p]
Релиз: 2019.09.20 | Продолжительность: 00:03:17
Качество: HD 1080p | Контейнер: MP4
Видео: AVC, 1920x1080 (16:9), 30.0 Мбит/с, 23.976 кадра/с
Аудио: AAC, 157 Кбит/с, 48.0 КГц, 2 канала




Отчёт MediaInfo
Общее
Полное имя : G:\K-Pop\Bugs!\K.A.R.D\KARD - Dumb Litty [Bugs! 1080p].mp4
Формат : MPEG-4
Профиль формата : Base Media / Version 2
Идентификатор кодека : mp42 (mp42/isom)
Размер файла : 707 Мбайт
Продолжительность : 3 м. 17 с.
Режим общего битрейта : Переменный
Общий поток : 30,1 Мбит/сек
Видео
Идентификатор : 1
Формат : AVC
Формат/Информация : Advanced Video Codec
Профиль формата : High@L4
Параметр CABAC формата : Да
Параметр RefFrames формата : 4 кадра
Идентификатор кодека : avc1
Идентификатор кодека/Информация : Advanced Video Coding
Продолжительность : 3 м. 16 с.
Продолжительность оригинала : 3 м. 17 с.
Битрейт : 30,0 Мбит/сек
Ширина : 1920 пикселей
Высота : 1080 пикселей
Соотношение сторон : 16:9
Режим частоты кадров : Переменный
Частота кадров : 23,976 кадра/сек
Минимальная частота кадров : 23,810 кадра/сек
Максимальная частота кадров : 24,390 кадра/сек
Цветовое пространство : YUV
Субдискретизация насыщенности : 4:2:0
Битовая глубина : 8 бит
Тип развёртки : Прогрессивная
Бит/(Пиксели*Кадры) : 0.602
Размер потока : 703 Мбайт (99%)
Размер потока оригинала : 703 Мбайт (99%)
Библиотека кодирования : x264 core 157 r2935 545de2f
Настройки программы : cabac=1 / ref=3 / deblock=1:0:0 / analyse=0x3:0x113 / me=hex / subme=7 / psy=1 / psy_rd=1.00:0.00 / mixed_ref=1 / me_range=16 / chroma_me=1 / trellis=1 / 8x8dct=1 / cqm=0 / deadzone=21,11 / fast_pskip=1 / chroma_qp_offset=-2 / threads=6 / lookahead_threads=1 / sliced_threads=0 / nr=0 / decimate=1 / interlaced=0 / bluray_compat=0 / constrained_intra=0 / bframes=3 / b_pyramid=2 / b_adapt=1 / b_bias=0 / direct=1 / weightb=1 / open_gop=0 / weightp=2 / keyint=250 / keyint_min=23 / scenecut=40 / intra_refresh=0 / rc_lookahead=40 / rc=crf / mbtree=1 / crf=12.0 / qcomp=0.60 / qpmin=0 / qpmax=69 / qpstep=4 / ip_ratio=1.40 / aq=1:1.00
Язык : English
mdhd_Duration : 196989
Аудио
Идентификатор : 2
Формат : AAC
Формат/Информация : Advanced Audio Codec
Профиль формата : LC
Идентификатор кодека : 40
Продолжительность : 3 м. 17 с.
Вид битрейта : Переменный
Битрейт : 157 Кбит/сек
Каналы : 2 канала
Расположение каналов : Front: L R
Частота : 48,0 КГц
Частота кадров : 46,875 кадров/сек (1024 SPF)
Метод сжатия : С потерями
Размер потока : 3,70 Мбайт (1%)
Язык : English


KARD - GO BABY (Choreography Video) [Naver 1080p]
Релиз: 2020.03.26 | Продолжительность: 00:03:14
Качество: HD 1080p | Контейнер: MP4
Видео: AVC, 1920x1080 (16:9), 4206 Кбит/с, 23.976 кадра/с
Аудио: AAC, 192 Кбит/с, 48.0 КГц, 2 канала




Отчёт MediaInfo
Общее
Полное имя : G:\K-Pop\Bugs!\K.A.R.D\KARD - GO BABY (Choreography Video) [Naver 1080p].mp4
Формат : MPEG-4
Профиль формата : Base Media
Идентификатор кодека : isom (isom/iso2/avc1/mp41)
Размер файла : 102 Мбайт
Продолжительность : 3 м. 14 с.
Общий поток : 4401 Кбит/сек
Программа кодирования : Lavf58.12.100
exvr : EX1.6.0(C1.0.9)
Видео
Идентификатор : 1
Формат : AVC
Формат/Информация : Advanced Video Codec
Профиль формата : High@L4
Параметр CABAC формата : Да
Параметр RefFrames формата : 3 кадра
Идентификатор кодека : avc1
Идентификатор кодека/Информация : Advanced Video Coding
Продолжительность : 3 м. 14 с.
Битрейт : 4206 Кбит/сек
Ширина : 1920 пикселей
Высота : 1080 пикселей
Соотношение сторон : 16:9
Режим частоты кадров : Постоянный
Частота кадров : 23,976 (23976/1000) кадра/сек
Цветовое пространство : YUV
Субдискретизация насыщенности : 4:2:0
Битовая глубина : 8 бит
Тип развёртки : Прогрессивная
Бит/(Пиксели*Кадры) : 0.085
Размер потока : 97,4 Мбайт (96%)
Цветовой диапазон : Limited
Основные цвета : BT.709
Характеристики трансфера : BT.709
Коэффициенты матрицы : BT.709
Аудио
Идентификатор : 2
Формат : AAC
Формат/Информация : Advanced Audio Codec
Профиль формата : LC
Идентификатор кодека : 40
Продолжительность : 3 м. 14 с.
Вид битрейта : Постоянный
Битрейт : 192 Кбит/сек
Каналы : 2 канала
Расположение каналов : Front: L R
Частота : 48,0 КГц
Частота кадров : 46,875 кадров/сек (1024 SPF)
Метод сжатия : С потерями
Размер потока : 4,45 Мбайт (4%)
Default : Да
AlternateGroup/String : 1


KARD - Gunshot [Bugs! 1080p] | Новинка!
Продолжительность: 0:03:51 | Релиз: 2020.08.21
Качество: HD 1080p | Контейнер: MP4
Видео: AVC, 1920x1080 (16:9) 43.0 Мбит/с, 23.976 кадра/с
Аудио: AAC, 317 Кбит/с, 48.0 КГц, 2 канала




Отчёт MediaInfo
Общее
Полное имя : G:\K-Pop\Bugs!\K.A.R.D\KARD – Gunshot [Bugs! 1080p].mp4
Формат : MPEG-4
Профиль формата : Base Media
Идентификатор кодека : isom (isom/iso2/avc1/mp41)
Размер файла : 1,17 Гбайт
Продолжительность : 3 м. 51 с.
Общий поток : 43,3 Мбит/сек
Программа кодирования : Lavf55.12.100
Видео
Идентификатор : 2
Формат : AVC
Формат/Информация : Advanced Video Codec
Профиль формата : High@L4
Параметр CABAC формата : Да
Параметр RefFrames формата : 4 кадра
Идентификатор кодека : avc1
Идентификатор кодека/Информация : Advanced Video Coding
Продолжительность : 3 м. 51 с.
Битрейт : 43,0 Мбит/сек
Ширина : 1920 пикселей
Высота : 1080 пикселей
Соотношение сторон : 16:9
Режим частоты кадров : Переменный
Частота кадров : 23,976 кадра/сек
Минимальная частота кадров : 23,807 кадра/сек
Максимальная частота кадров : 24,409 кадра/сек
Цветовое пространство : YUV
Субдискретизация насыщенности : 4:2:0
Битовая глубина : 8 бит
Тип развёртки : Прогрессивная
Бит/(Пиксели*Кадры) : 0.864
Размер потока : 1,16 Гбайт (99%)
Библиотека кодирования : x264 core 157 r2970 5493be8
Настройки программы : cabac=1 / ref=3 / deblock=1:0:0 / analyse=0x3:0x113 / me=hex / subme=7 / psy=1 / psy_rd=1.00:0.00 / mixed_ref=1 / me_range=16 / chroma_me=1 / trellis=1 / 8x8dct=1 / cqm=0 / deadzone=21,11 / fast_pskip=1 / chroma_qp_offset=-2 / threads=24 / lookahead_threads=4 / sliced_threads=0 / nr=0 / decimate=1 / interlaced=0 / bluray_compat=0 / constrained_intra=0 / bframes=3 / b_pyramid=2 / b_adapt=1 / b_bias=0 / direct=1 / weightb=1 / open_gop=0 / weightp=2 / keyint=250 / keyint_min=23 / scenecut=40 / intra_refresh=0 / rc_lookahead=40 / rc=crf / mbtree=1 / crf=10.0 / qcomp=0.60 / qpmin=0 / qpmax=69 / qpstep=4 / ip_ratio=1.40 / aq=1:1.00
Язык : English
Аудио
Идентификатор : 1
Формат : AAC
Формат/Информация : Advanced Audio Codec
Профиль формата : LC
Идентификатор кодека : 40
Продолжительность : 3 м. 51 с.
Вид битрейта : Постоянный
Битрейт : 317 Кбит/сек
Каналы : 2 канала
Расположение каналов : Front: L R
Частота : 48,0 КГц
Частота кадров : 46,875 кадров/сек (1024 SPF)
Метод сжатия : С потерями
Размер потока : 8,77 Мбайт (1%)
Язык : English
Default : Да
AlternateGroup/String : 1


KARD - Hola Hola [Bugs! 1080p]
Продолжительность: 0:03:23 | Релиз: 2017.07.17
Качество: HD 1080p | Контейнер: MP4
Видео: AVC, 1920x1080 (16:9) 60.0 Мбит/с, 23.976 кадра/с
Аудио: AAC, 317 Кбит/с, 48.0 КГц, 2 канала




Отчёт MediaInfo
Общее
Полное имя : E:\Torrents\K.A.R.D\K.A.R.D - Hola Hola (Bugs! HD 1080p).mp4
Формат : MPEG-4
Профиль формата : Base Media / Version 2
Идентификатор кодека : mp42 (mp42/mp41)
Размер файла : 1,43 Гбайт
Продолжительность : 3 м. 23 с.
Режим общего битрейта : Переменный
Общий поток : 60,3 Мбит/сек
Дата кодирования : UTC 2017-07-18 07:16:06
Дата пометки : UTC 2017-07-18 07:16:25
©TIM : 00:00:08:03
©TSC : 24000
©TSZ : 1001
Видео
Идентификатор : 1
Формат : AVC
Формат/Информация : Advanced Video Codec
Профиль формата : Main@L5.2
Параметр CABAC формата : Да
Параметр ReFrames формата : 3 кадра
Идентификатор кодека : avc1
Идентификатор кодека/Информация : Advanced Video Coding
Продолжительность : 3 м. 23 с.
Битрейт : 60,0 Мбит/сек
Ширина : 1920 пикселей
Высота : 1080 пикселей
Соотношение сторон : 16:9
Режим частоты кадров : Постоянный
Частота кадров : 23,976 (24000/1001) кадра/сек
Стандарт вещания : NTSC
Цветовое пространство : YUV
Субдискретизация насыщенности : 4:2:0
Битовая глубина : 8 бит
Тип развёртки : Прогрессивная
Бит/(Пиксели*Кадры) : 1.207
Размер потока : 1,42 Гбайт (99%)
Язык : English
Дата кодирования : UTC 2017-07-18 07:16:06
Дата пометки : UTC 2017-07-18 07:16:06
Цветовой диапазон : Limited
Основные цвета : BT.709
Характеристики трансфера : BT.709
Коэффициенты матрицы : BT.709
Аудио
Идентификатор : 2
Формат : AAC
Формат/Информация : Advanced Audio Codec
Профиль формата : LC
Идентификатор кодека : 40
Продолжительность : 3 м. 23 с.
Продолжительность оригинала : 3 м. 23 с.
Вид битрейта : Переменный
Битрейт : 317 Кбит/сек
Максимальный битрейт : 414 Кбит/сек
Каналы : 2 канала
Расположение каналов : Front: L R
Частота : 48,0 КГц
Частота кадров : 46,875 кадров/сек (1024 spf)
Метод сжатия : С потерями
Размер потока : 7,69 Мбайт (1%)
Размер потока оригинала : 7,69 Мбайт (1%)
Язык : English
Дата кодирования : UTC 2017-07-18 07:16:06
Дата пометки : UTC 2017-07-18 07:16:06


KARD - Oh NaNa [Bugs! 1080p]
Продолжительность: 0:03:32 | Релиз: 2016.12.09
Качество: HD 1080p | Контейнер: MP4
Видео: AVC, 1920x1080 (16:9) 34.2 Мбит/с, 23.98 кадра/с
Аудио: AAC, 317 Кбит/с, 48.0 КГц, 2 канала




Отчёт MediaInfo
Общее
Полное имя : E:\Torrents\K.A.R.D\K.A.R.D – Oh NaNa (Bugs!HD 1080p).mp4
Формат : MPEG-4
Профиль формата : Base Media / Version 2
Идентификатор кодека : mp42
Размер файла : 876 Мбайт
Продолжительность : 3 м. 32 с.
Режим общего битрейта : Переменный
Общий поток : 34,6 Мбит/сек
Дата кодирования : UTC 2016-12-12 04:12:30
Дата пометки : UTC 2016-12-12 04:12:43
©TIM : 00:00:00:00
©TSC : 24000
©TSZ : 1001
Видео
Идентификатор : 1
Формат : AVC
Формат/Информация : Advanced Video Codec
Профиль формата : Main@L4.1
Параметр CABAC формата : Да
Параметр ReFrames формата : 3 кадра
Параметр GOP формата : M=4, N=23
Идентификатор кодека : avc1
Идентификатор кодека/Информация : Advanced Video Coding
Продолжительность : 3 м. 32 с.
Битрейт : 34,2 Мбит/сек
Ширина : 1920 пикселей
Высота : 1080 пикселей
Соотношение сторон : 16:9
Режим частоты кадров : Постоянный
Частота кадров : 23,976 кадра/сек
Стандарт вещания : NTSC
Цветовое пространство : YUV
Субдискретизация насыщенности : 4:2:0
Битовая глубина : 8 бит
Тип развёртки : Прогрессивная
Бит/(Пиксели*Кадры) : 0.688
Размер потока : 867 Мбайт (99%)
Язык : English
Дата кодирования : UTC 2016-12-12 04:12:30
Дата пометки : UTC 2016-12-12 04:12:30
Цветовой диапазон : Limited
Основные цвета : BT.709
Характеристики трансфера : BT.709
Коэффициенты матрицы : BT.709
Аудио
Идентификатор : 2
Формат : AAC
Формат/Информация : Advanced Audio Codec
Профиль формата : LC
Идентификатор кодека : 40
Продолжительность : 3 м. 32 с.
Продолжительность оригинала : 3 м. 32 с.
Вид битрейта : Переменный
Битрейт : 317 Кбит/сек
Максимальный битрейт : 411 Кбит/сек
Каналы : 2 канала
Расположение каналов : Front: L R
Частота : 48,0 КГц
Метод сжатия : С потерями
Размер потока : 8,04 Мбайт (1%)
Размер потока оригинала : 8,04 Мбайт (1%)
Язык : English
Дата кодирования : UTC 2016-12-12 04:12:30
Дата пометки : UTC 2016-12-12 04:12:30


KARD - RED MOON [Bugs! 1080p]
Релиз: 2020.02.10 | Продолжительность: 00:02:59
Качество: HD 1080p | Контейнер: MP4
Видео: AVC, 1920x1080 (16:9), 25.0 Мбит/с, 23.976 кадра/с
Аудио: AAC, 157 Кбит/с, 48.0 КГц, 2 канала




Отчёт MediaInfo
Общее
Полное имя : G:\K-Pop\Bugs!\K.A.R.D\KARD - RED MOON [Bugs! 1080p].mp4
Формат : MPEG-4
Идентификатор кодека : M4V (M4V /mp42/isom)
Размер файла : 538 Мбайт
Продолжительность : 2 м. 59 с.
Режим общего битрейта : Переменный
Общий поток : 25,2 Мбит/сек
Дата кодирования : UTC 2020-02-10 16:42:09
Дата пометки : UTC 2020-02-10 16:42:19
©TIM : 01:04:42:11
©TSC : 24000
©TSZ : 1001
Видео
Идентификатор : 1
Формат : AVC
Формат/Информация : Advanced Video Codec
Профиль формата : High@L4
Параметр CABAC формата : Нет
Параметр RefFrames формата : 2 кадра
Идентификатор кодека : avc1
Идентификатор кодека/Информация : Advanced Video Coding
Продолжительность : 2 м. 59 с.
Продолжительность оригинала : 2 м. 59 с.
Битрейт : 25,0 Мбит/сек
Ширина : 1920 пикселей
Высота : 1080 пикселей
Соотношение сторон : 16:9
Режим частоты кадров : Переменный
Частота кадров : 23,976 (24000/1001) кадра/сек
Минимальная частота кадров : 23,976 кадра/сек
Максимальная частота кадров : 24,000 кадра/сек
Стандарт вещания : NTSC
Цветовое пространство : YUV
Субдискретизация насыщенности : 4:2:0
Битовая глубина : 8 бит
Тип развёртки : Прогрессивная
Бит/(Пиксели*Кадры) : 0.503
Размер потока : 534 Мбайт (99%)
Размер потока оригинала : 534 Мбайт (99%)
Язык : English
Дата кодирования : UTC 2020-02-10 16:42:09
Дата пометки : UTC 2020-02-10 16:42:09
Цветовой диапазон : Limited
Основные цвета : BT.709
Характеристики трансфера : BT.709
Коэффициенты матрицы : BT.709
mdhd_Duration : 179262
Аудио
Идентификатор : 2
Формат : AAC
Формат/Информация : Advanced Audio Codec
Профиль формата : LC
Идентификатор кодека : 40
Продолжительность : 2 м. 59 с.
Продолжительность оригинала : 2 м. 59 с.
Вид битрейта : Переменный
Битрейт : 157 Кбит/сек
Максимальный битрейт : 236 Кбит/сек
Каналы : 2 канала
Расположение каналов : Front: L R
Частота : 48,0 КГц
Частота кадров : 46,875 кадров/сек (1024 SPF)
Метод сжатия : С потерями
Размер потока : 3,36 Мбайт (1%)
Размер потока оригинала : 3,36 Мбайт (1%)
Язык : English
Дата кодирования : UTC 2020-02-10 16:42:09
Дата пометки : UTC 2020-02-10 16:42:09
mdhd_Duration : 179307


KARD - Ride On The Wind [Master 1080p]
Релиз: 2018.07.30 | Продолжительность: 00:02:56
Качество: HD 1080p | Контейнер: MP4
Видео: VC-3, 1920x1080 (16:9), 176 Мбит/с, 24.0 кадра/с
Аудио: PCM, 1536 Кбит/с, 48.0 КГц, 16 бит, stereo




Отчёт MediaInfo
Общее
Полное имя : E:\Torrents\K.A.R.D\KARD - Ride on the wind [Master 1080p].mp4
Формат : MPEG-4
Коммерческое название : DNxHD 175
Профиль формата : QuickTime
Идентификатор кодека : qt 2005.03 (qt )
Размер файла : 3,64 Гбайт
Продолжительность : 2 м. 56 с.
Общий поток : 178 Мбит/сек
Дата кодирования : UTC 2018-07-30 23:23:48
Дата пометки : UTC 2018-07-30 23:24:46
Библиотека кодирования : Apple QuickTime
©TIM : 00:00:00:00
©TSC : 24000
©TSZ : 1001
Видео
Идентификатор : 1
Формат : VC-3
Коммерческое название : DNxHD 175
Версия формата : Version 1
Профиль формата : HD@HQ
Идентификатор кодека : AVdn
Идентификатор кодека/Информация : Avid DNxHD
Продолжительность : 2 м. 56 с.
Вид битрейта : Постоянный
Битрейт : 176 Мбит/сек
Ширина : 1920 пикселей
Высота : 1080 пикселей
Соотношение сторон : 16:9
Режим частоты кадров : Постоянный
Частота кадров : 23,976 (24000/1001) кадра/сек
Цветовое пространство : YUV
Субдискретизация насыщенности : 4:2:2
Битовая глубина : 8 бит
Тип развёртки : Прогрессивная
Бит/(Пиксели*Кадры) : 3.540
Размер потока : 3,61 Гбайт (99%)
Язык : English
Дата кодирования : UTC 2018-07-30 23:23:48
Дата пометки : UTC 2018-07-30 23:23:48
Основные цвета : BT.709
Характеристики трансфера : BT.709
Коэффициенты матрицы : BT.709
Аудио
Идентификатор : 2
Формат : PCM
Параметр Endianness формата : Little
Параметр Sign формата : Signed
Идентификатор кодека : sowt
Продолжительность : 2 м. 56 с.
Вид битрейта : Постоянный
Битрейт : 1536 Кбит/сек
Каналы : 2 канала
Расположение каналов : Front: L R
Частота : 48,0 КГц
Битовая глубина : 16 бит
Размер потока : 32,3 Мбайт (1%)
Язык : English
Дата кодирования : UTC 2018-07-30 23:23:48
Дата пометки : UTC 2018-07-30 23:23:48
Прочее
Идентификатор : 3
Тип : Time code
Формат : QuickTime TC
Продолжительность : 2 м. 56 с.
Временной код первого кадра : 00:00:00:00
Временной код, чередующийся : Да
Язык : English
Дата кодирования : UTC 2018-07-30 23:23:48
Дата пометки : UTC 2018-07-30 23:23:48


KARD - Trust Me [Bugs! 1080p]
Релиз: 2017.12.05 | Продолжительность: 00:02:46
Качество: HD 1080p | Контейнер: MP4
Видео: AVC, 1920x1080 (16:9), 51.6 Мбит/с, 24.0 кадра/с
Аудио: AAC, 256 Кбит/с, 48.0 КГц, stereo




Отчёт MediaInfo
Общее
Полное имя : E:\Torrents\K.A.R.D\KARD - Trust Me (Bugs! 1080p).mp4
Формат : MPEG-4
Профиль формата : Base Media / Version 2
Идентификатор кодека : mp42 (mp42/mp41)
Размер файла : 1,01 Гбайт
Продолжительность : 2 м. 46 с.
Общий поток : 51,9 Мбит/сек
Дата кодирования : UTC 2017-12-06 06:26:07
Дата пометки : UTC 2017-12-06 06:26:19
Видео
Идентификатор : 1
Формат : AVC
Формат/Информация : Advanced Video Codec
Профиль формата : Baseline@L5.1
Параметр CABAC формата : Нет
Параметр RefFrames формата : 2 кадра
Параметр GOP формата : M=1, N=48
Идентификатор кодека : avc1
Идентификатор кодека/Информация : Advanced Video Coding
Продолжительность : 2 м. 46 с.
Битрейт : 51,6 Мбит/сек
Ширина : 1920 пикселей
Высота : 1080 пикселей
Соотношение сторон : 16:9
Режим частоты кадров : Постоянный
Частота кадров : 23,976 (23976/1000) кадра/сек
Цветовое пространство : YUV
Субдискретизация насыщенности : 4:2:0
Битовая глубина : 8 бит
Тип развёртки : Прогрессивная
Бит/(Пиксели*Кадры) : 1.039
Размер потока : 1,00 Гбайт (99%)
Язык : English
Дата кодирования : UTC 2017-12-06 06:26:07
Дата пометки : UTC 2017-12-06 06:26:19
Цветовой диапазон : Limited
Основные цвета : BT.709
Характеристики трансфера : BT.709
Коэффициенты матрицы : BT.709
Аудио
Идентификатор : 2
Формат : AAC
Формат/Информация : Advanced Audio Codec
Профиль формата : LC
Идентификатор кодека : 40
Продолжительность : 2 м. 46 с.
Вид битрейта : Постоянный
Битрейт : 256 Кбит/сек
Каналы : 2 канала
Расположение каналов : Front: L R
Частота : 48,0 КГц
Частота кадров : 46,875 кадров/сек (1024 SPF)
Метод сжатия : С потерями
Размер потока : 5,09 Мбайт (0%)
Язык : English
Дата кодирования : UTC 2017-12-06 06:26:07
Дата пометки : UTC 2017-12-06 06:26:19


KARD - You In Me [Bugs! 1080p]
Релиз: 2017.11.20 | Продолжительность: 00:03:29
Качество: HD 1080p | Контейнер: MP4
Видео: AVC, 1920x1080 (16:9), 20.5 Мбит/с, 24.0 кадра/с
Аудио: AAC, 317 Кбит/с, 48.0 КГц, stereo




Отчёт MediaInfo
Общее
Полное имя : E:\Torrents\K.A.R.D\KARD - You In Me (Bugs! 1080p).mp4
Формат : MPEG-4
Профиль формата : Base Media / Version 2
Идентификатор кодека : mp42 (mp42/mp41)
Размер файла : 520 Мбайт
Продолжительность : 3 м. 29 с.
Режим общего битрейта : Переменный
Общий поток : 20,8 Мбит/сек
Дата кодирования : UTC 2017-11-20 09:58:47
Дата пометки : UTC 2017-11-20 09:58:51
©TIM : 00:00:06:19
©TSC : 24000
©TSZ : 1001
Видео
Идентификатор : 1
Формат : AVC
Формат/Информация : Advanced Video Codec
Профиль формата : Main@L4.1
Параметр CABAC формата : Да
Параметр RefFrames формата : 3 кадра
Идентификатор кодека : avc1
Идентификатор кодека/Информация : Advanced Video Coding
Продолжительность : 3 м. 29 с.
Битрейт : 20,5 Мбит/сек
Ширина : 1920 пикселей
Высота : 1080 пикселей
Соотношение сторон : 16:9
Режим частоты кадров : Постоянный
Частота кадров : 23,976 (24000/1001) кадра/сек
Стандарт вещания : NTSC
Цветовое пространство : YUV
Субдискретизация насыщенности : 4:2:0
Битовая глубина : 8 бит
Тип развёртки : Прогрессивная
Бит/(Пиксели*Кадры) : 0.412
Размер потока : 512 Мбайт (98%)
Язык : English
Дата кодирования : UTC 2017-11-20 09:58:47
Дата пометки : UTC 2017-11-20 09:58:47
Цветовой диапазон : Limited
Основные цвета : BT.709
Характеристики трансфера : BT.709
Коэффициенты матрицы : BT.709
Аудио
Идентификатор : 2
Формат : AAC
Формат/Информация : Advanced Audio Codec
Профиль формата : LC
Идентификатор кодека : 40
Продолжительность : 3 м. 29 с.
Продолжительность оригинала : 3 м. 29 с.
Вид битрейта : Переменный
Битрейт : 317 Кбит/сек
Максимальный битрейт : 411 Кбит/сек
Каналы : 2 канала
Расположение каналов : Front: L R
Частота : 48,0 КГц
Частота кадров : 46,875 кадров/сек (1024 SPF)
Метод сжатия : С потерями
Размер потока : 7,93 Мбайт (2%)
Размер потока оригинала : 7,93 Мбайт (2%)
Язык : English
Дата кодирования : UTC 2017-11-20 09:58:47
Дата пометки : UTC 2017-11-20 09:58:47

                                                                                       
                       
                       
                       
                       
                       
                                磁力下载:(论坛代下载服务)
                                                               
                                       
游客,本主题需向作者支付 7音乐币 才能浏览,金币充值, 免回复、免金币,直接查看内容请开通VIP支付

                                               
  • 12.65 GB
  • 温馨提示

    记得善用社区搜索功能,那里可能会有你想要的资源;论坛站内搜索

    如果你有什么需要的资源可以去资源求档发帖,求助社区的网友,我们会在第一时间给你回复哦;资源求档

    对于本社区网盘链接失效密码错误各种报错请在反馈板块反馈报错发帖,您的支持,是我们发展的最大动力;投诉建议

    回复

    使用道具 举报

    您需要登录后才可以回帖 登录 | 立即注册 微信登录

    本版积分规则

    关注0

    粉丝0

    帖子30073

    发布主题
    阅读排行更多+
    关闭

    站长推荐上一条 /1 下一条

    收藏帖子 返回列表 这是一个自定义按钮
    音乐分享,音乐下载。
    微信公众号
    微信号:hires_
    意见反馈:admin@maomicd.com

    加入我们的官方QQ群和微信群

    Powered by Discuz! X3.4 Archiver|手机版|小黑屋|捌零音乐论坛 ( 苏ICP备20015413号 )|( 苏公网安备 32030502000272号) 繁體

    GMT+8, 2021-5-10 06:14