自购原抓音乐圈:只有自购、合购、原抓级高解析(hires、sacd、dsd)正版音乐资源分享!【点我打开
极速无线网卡:千兆无线网卡、服务器网卡、USB接口台式机笔记本网卡 硬盘代考无损音乐!【点我打开
广告

[日韩音乐] [Show] BlackPink 2019-2020世界巡回赛您的地区 - Tokyo Dome- [Live,2020,KPOP,BDRemux 1080p]

[复制链接]
全球搬运 发表于 2021-4-13 15:37:40 | 显示全部楼层 |阅读模式 打印 上一主题 下一主题
.
BLΛƆKPIИK 2019-2020 World Tour in Your Area -TOKYO DOME-

Жанр: KPop
Релиз: 2020.05.14
Продолжительность: 01:31:11
.

Мировое турне 'BLACKPINK 2019-2020 World Tour in Your Area' началось в январе 2019 года.
Турне из 30 шоу в 22 городах 16 стран на четырех континентах!
Японское выступление, украсившее последний концерт тура,
было единственным в туре под куполом, собравшим 200 000 человек
на 4-х выступлениях в 3-х городах по всей стране.
BLACKPINK: Light Up the Sky
Содержание оригинального источника
BLACKPINK 2019-2020 WORLD TOUR IN YOUR AREA -TOKYO DOME- [2020.05.14]
''''''''''''''''''''''''''''''''''''''''''''''''''''''''''''''''''''''''''''''''''''''''''''''''''''''''''''''''''''''''''''''''''''''''''''''''''''''''''''
▶Disc1:
●BLACKPINK 2019-2020 WORLD TOUR IN YOUR AREA -TOKYO DOME-
1.DDU-DU DDU-DU -JP Ver.-
2.FOREVER YOUNG -JP Ver.-
3.STAY (Remix) -JP Ver.-
4.WHISTLE -JP Ver.-
5.Kill This Love -JP Ver.-
6.Don't Know What To Do -JP Ver.-
7.Kiss and Make Up
8.REALLY -JP Ver.-
9.SEE U LATER -JP Ver.-
10.PLAYING WITH FIRE -JP Ver.-
11.Kick It -JP Ver.-
12.BOOMBAYAH -JP Ver.-
13.AS IF IT'S YOUR LAST -JP Ver.-
14.DDU-DU DDU-DU (Remix) -JP Ver.-
15.WHISTLE (Acoustic Ver.) -JP Ver.-
16.Hope Not -KR Ver.-
▶Disc2:
●BLACKPINK 2019-2020 WORLD TOUR IN YOUR AREA -TOKYO DOME- [MULTI ANGLE]
・Kill This Love -JP Ver.- [JENNIE / LISA / JISOO / ROSÉ]
・Don't Know What To Do -JP Ver.- [JENNIE / LISA / JISOO / ROSÉ]
・Kick It -JP Ver.- [JENNIE / LISA / JISOO / ROSÉ]
●BEST MOMENT of Kill This Love -JP Ver.-
●After Talk
●Making Movie
Выделены концертные номера содержащиеся в раздаваемом видео

BLACKPINK 2019-2020 World Tour in Your Area -TOKYO DOME-
Качество: BDRemux 1080p | Контейнер: MKV
Видео: AVC, 1920x1080 (16:9), 35.1 Мбит/с, 23.976 кадра/с
Аудио: PCM, 2304 Кбит/с, 48.0 КГц, 2 канала





Отчёт MediaInfo
Общее
Уникальный идентификатор : 177394921612317300854324574531805004859 (0x857504E71D80F3E3A18B9911AF78443B)
Полное имя : G:\K-Pop\[SHOW]\BLACKPINK 2019 World Tour in Your Area -TOKYO DOME BDRemux 1080p.mkv
Формат : Matroska
Версия формата : Version 4 / Version 2
Размер файла : 23,8 Гбайт
Продолжительность : 1 ч. 31 м.
Режим общего битрейта : Переменный
Общий поток : 37,4 Мбит/сек
Дата кодирования : UTC 2020-07-02 19:21:16
Программа кодирования : mkvmerge v11.0.0 ('Alive') 64bit
Библиотека кодирования : libebml v1.3.4 + libmatroska v1.4.5
Видео
Идентификатор : 1
Формат : AVC
Формат/Информация : Advanced Video Codec
Профиль формата : High@L4.1
Параметр CABAC формата : Да
Параметр RefFrames формата : 4 кадра
Идентификатор кодека : V_MPEG4/ISO/AVC
Продолжительность : 1 ч. 31 м.
Вид битрейта : Переменный
Битрейт : 35,1 Мбит/сек
Максимальный битрейт : 37,0 Мбит/сек
Ширина : 1920 пикселей
Высота : 1080 пикселей
Соотношение сторон : 16:9
Режим частоты кадров : Постоянный
Частота кадров : 23,976 (24000/1001) кадра/сек
Цветовое пространство : YUV
Субдискретизация насыщенности : 4:2:0
Битовая глубина : 8 бит
Тип развёртки : Прогрессивная
Бит/(Пиксели*Кадры) : 0.706
Размер потока : 22,4 Гбайт (94%)
Default : Да
Forced : Нет
Аудио
Идентификатор : 2
Формат : PCM
Идентификатор кодека : A_PCM/INT/LIT
Продолжительность : 1 ч. 31 м.
Вид битрейта : Постоянный
Битрейт : 2304 Кбит/сек
Каналы : 2 канала
Частота : 48,0 КГц
Частота кадров : 200,000 кадров/сек (240 SPF)
Битовая глубина : 24 бит
Размер потока : 1,47 Гбайт (6%)
Язык : Japanese
Default : Да
Forced : Нет

                                                                                       
                       
                       
                       
                       
                       
                                磁力下载:(论坛代下载服务)
                                                               
                                       
游客,本主题需向作者支付 7音乐币 才能浏览,金币充值, 免回复、免金币,直接查看内容请开通VIP支付

                                               
  • 23.84 GB
  • 温馨提示

    记得善用社区搜索功能,那里可能会有你想要的资源;论坛站内搜索

    如果你有什么需要的资源可以去资源求档发帖,求助社区的网友,我们会在第一时间给你回复哦;资源求档

    对于本社区网盘链接失效密码错误各种报错请在反馈板块反馈报错发帖,您的支持,是我们发展的最大动力;投诉建议

    回复

    使用道具 举报

    您需要登录后才可以回帖 登录 | 立即注册 微信登录

    本版积分规则

    关注0

    粉丝12

    帖子69803

    发布主题
    阅读排行更多+
    关闭

    站长推荐上一条 /1 下一条

    收藏帖子 返回列表 这是一个自定义按钮
    音乐分享,音乐下载。
    微信公众号
    微信号:hires_
    意见反馈:admin@maomicd.com

    加入我们的官方QQ群和微信群

    Powered by Discuz! X3.4 Archiver|手机版|小黑屋|捌零音乐论坛 ( 苏ICP备20015413号 )|( 苏公网安备 32030502000272号) 繁體

    GMT+8, 2021-5-8 23:43