自购原抓音乐圈:只有自购、合购、原抓级高解析(hires、sacd、dsd)正版音乐资源分享!【点我打开
极速无线网卡:千兆无线网卡、服务器网卡、USB接口台式机笔记本网卡 硬盘代考无损音乐!【点我打开
广告

[日韩音乐] 黑色粉红色(BlackPink) - 视频视频[2016,KPOP,HDTVRIP 1080P]

[复制链接]
lz189 发表于 2021-4-13 15:37:39 | 显示全部楼层 |阅读模式 打印 上一主题 下一主题
Black Pink (BLACKPINK) - Видеография [2016, Kpop, HDTVRip 1080p]
Страна: Южная Корея
Жанр: Kpop
Продолжительность: ~03:28-04:03
Год выпуска: 2016
Описание: Black Pink / BLΛƆKPIИK / 블랙 핑크 — женская группа 2016 г. от YG Entertainment
Состав группы:
Jisoo | Джису (03.01.1995) - вокалист
Jennie | Дженни (16.01.1996) - рэпер, вокалист
Rose | Розэ (11.02.1997) - вокалист
Lisa | Лиса (27.03.1997) - рэпер, танцор
Качество: HDTVRip
Разрешение видео/развертка: 1080p
Контейнер: MP4
Видео кодек: H.264
Аудио кодек: AAC
Видео: H.264/AVC, 1920x1080, ~16.2-32.7 Mbps, 23.976 fps
Аудио: KR, AAC, ~253-317 kbps, 48000 Hz, 2 ch
Отчёт MediaInfo / BDInfo


BLACKPINK - BOOMBAYAH (1080p).mp4
General
Complete name : BLACKPINK - BOOMBAYAH (1080p).mp4
Format : MPEG-4
Format profile : Base Media / Version 2
Codec ID : mp42 (mp42/mp41)
File size : 885 MiB
Duration : 4mn 3s
Overall bit rate mode : Variable
Overall bit rate : 30.4 Mbps
Encoded date : UTC 2016-08-08 10:53:24
Tagged date : UTC 2016-08-08 10:53:32
©TIM : 23:58:16:18
©TSC : 24000
©TSZ : 1001
Video
ID : 1
Format : AVC
Format/Info : Advanced Video Codec
Format profile : Main@L4.1
Format settings, CABAC : Yes
Format settings, ReFrames : 3 frames
Codec ID : avc1
Codec ID/Info : Advanced Video Coding
Duration : 4mn 3s
Bit rate : 30.2 Mbps
Width : 1 920 pixels
Height : 1 080 pixels
Display aspect ratio : 16:9
Frame rate mode : Constant
Frame rate : 23.976 (24000/1001) fps
Standard : NTSC
Color space : YUV
Chroma subsampling : 4:2:0
Bit depth : 8 bits
Scan type : Progressive
Bits/(Pixel*Frame) : 0.607
Stream size : 878 MiB (99%)
Language : English
Encoded date : UTC 2016-08-08 10:53:24
Tagged date : UTC 2016-08-08 10:53:24
Color range : Limited
Color primaries : BT.709
Transfer characteristics : BT.709
Matrix coefficients : BT.709
Audio
ID : 2
Format : AAC
Format/Info : Advanced Audio Codec
Format profile : LC
Codec ID : 40
Duration : 4mn 3s
Source duration : 4mn 3s
Bit rate mode : Variable
Bit rate : 253 Kbps
Maximum bit rate : 377 Kbps
Channel(s) : 2 channels
Channel positions : Front: L R
Sampling rate : 48.0 KHz
Frame rate : 46.875 fps (1024 spf)
Compression mode : Lossy
Stream size : 7.37 MiB (1%)
Source stream size : 7.37 MiB (1%)
Language : English
Encoded date : UTC 2016-08-08 10:53:24
Tagged date : UTC 2016-08-08 10:53:24

BLACKPINK - PLAYING WITH FIRE (1080p).mp4
General
Complete name : BLACKPINK - PLAYING WITH FIRE (1080p).mp4
Format : MPEG-4
Format profile : Base Media / Version 2
Codec ID : mp42 (mp42/mp41)
File size : 410 MiB
Duration : 3mn 28s
Overall bit rate mode : Variable
Overall bit rate : 16.5 Mbps
Encoded date : UTC 2016-10-31 14:33:11
Tagged date : UTC 2016-10-31 14:33:14
©TIM : 23:58:32:06
©TSC : 24000
©TSZ : 1001
Video
ID : 1
Format : AVC
Format/Info : Advanced Video Codec
Format profile : Main@L4.1
Format settings, CABAC : Yes
Format settings, ReFrames : 3 frames
Codec ID : avc1
Codec ID/Info : Advanced Video Coding
Duration : 3mn 28s
Bit rate : 16.2 Mbps
Width : 1 920 pixels
Height : 1 080 pixels
Display aspect ratio : 16:9
Frame rate mode : Constant
Frame rate : 23.976 (24000/1001) fps
Standard : NTSC
Color space : YUV
Chroma subsampling : 4:2:0
Bit depth : 8 bits
Scan type : Progressive
Bits/(Pixel*Frame) : 0.327
Stream size : 404 MiB (98%)
Language : English
Encoded date : UTC 2016-10-31 14:33:11
Tagged date : UTC 2016-10-31 14:33:11
Color range : Limited
Color primaries : BT.709
Transfer characteristics : BT.709
Matrix coefficients : BT.709
Audio
ID : 2
Format : AAC
Format/Info : Advanced Audio Codec
Format profile : LC
Codec ID : 40
Duration : 3mn 28s
Source duration : 3mn 28s
Bit rate mode : Variable
Bit rate : 253 Kbps
Maximum bit rate : 400 Kbps
Channel(s) : 2 channels
Channel positions : Front: L R
Sampling rate : 48.0 KHz
Frame rate : 46.875 fps (1024 spf)
Compression mode : Lossy
Stream size : 6.30 MiB (2%)
Source stream size : 6.30 MiB (2%)
Language : English
Encoded date : UTC 2016-10-31 14:33:11
Tagged date : UTC 2016-10-31 14:33:11

BLACKPINK - STAY (1080p).mp4
General
Complete name : BLACKPINK - STAY (1080p).mp4
Format : MPEG-4
Format profile : Base Media / Version 2
Codec ID : mp42 (mp42/mp41)
File size : 981 MiB
Duration : 3mn 55s
Overall bit rate mode : Variable
Overall bit rate : 34.9 Mbps
Encoded date : UTC 2016-10-31 01:30:14
Tagged date : UTC 2016-10-31 01:30:53
©TIM : 00:00:00:00
©TSC : 24000
©TSZ : 1001
Video
ID : 1
Format : AVC
Format/Info : Advanced Video Codec
Format profile : Main@L4.1
Format settings, CABAC : Yes
Format settings, ReFrames : 3 frames
Codec ID : avc1
Codec ID/Info : Advanced Video Coding
Duration : 3mn 55s
Bit rate : 34.6 Mbps
Width : 1 920 pixels
Height : 1 080 pixels
Display aspect ratio : 16:9
Frame rate mode : Variable
Frame rate : 23.976 (24000/1001) fps
Minimum frame rate : 23.976 fps
Maximum frame rate : 24.000 fps
Standard : NTSC
Color space : YUV
Chroma subsampling : 4:2:0
Bit depth : 8 bits
Scan type : Progressive
Bits/(Pixel*Frame) : 0.696
Stream size : 972 MiB (99%)
Language : English
Encoded date : UTC 2016-10-31 01:30:14
Tagged date : UTC 2016-10-31 01:30:14
Color range : Limited
Color primaries : BT.709
Transfer characteristics : BT.709
Matrix coefficients : BT.709
Audio
ID : 2
Format : AAC
Format/Info : Advanced Audio Codec
Format profile : LC
Codec ID : 40
Duration : 3mn 55s
Source duration : 3mn 55s
Bit rate mode : Variable
Bit rate : 317 Kbps
Maximum bit rate : 415 Kbps
Channel(s) : 2 channels
Channel positions : Front: L R
Sampling rate : 48.0 KHz
Frame rate : 46.875 fps (1024 spf)
Compression mode : Lossy
Stream size : 8.91 MiB (1%)
Source stream size : 8.91 MiB (1%)
Language : English
Encoded date : UTC 2016-10-31 01:30:14
Tagged date : UTC 2016-10-31 01:30:14

BLACKPINK - WHISTLE (1080p).mp4
General
Complete name : BLACKPINK - WHISTLE (1080p).mp4
Format : MPEG-4
Format profile : Base Media / Version 2
Codec ID : mp42 (mp42/mp41)
File size : 903 MiB
Duration : 3mn 49s
Overall bit rate mode : Variable
Overall bit rate : 33.0 Mbps
Encoded date : UTC 2016-08-07 15:22:47
Tagged date : UTC 2016-08-07 15:22:57
©TIM : 00:00:00:00
©TSC : 24000
©TSZ : 1001
Video
ID : 1
Format : AVC
Format/Info : Advanced Video Codec
Format profile : High@L4.2
Format settings, CABAC : Yes
Format settings, ReFrames : 3 frames
Codec ID : avc1
Codec ID/Info : Advanced Video Coding
Duration : 3mn 49s
Bit rate mode : Variable
Bit rate : 32.7 Mbps
Maximum bit rate : 33.0 Mbps
Width : 1 920 pixels
Height : 1 080 pixels
Display aspect ratio : 16:9
Frame rate mode : Constant
Frame rate : 23.976 (24000/1001) fps
Standard : NTSC
Color space : YUV
Chroma subsampling : 4:2:0
Bit depth : 8 bits
Scan type : Progressive
Bits/(Pixel*Frame) : 0.657
Stream size : 894 MiB (99%)
Language : English
Encoded date : UTC 2016-08-07 15:22:47
Tagged date : UTC 2016-08-07 15:22:47
Color range : Limited
Color primaries : BT.709
Transfer characteristics : BT.709
Matrix coefficients : BT.709
Audio
ID : 2
Format : AAC
Format/Info : Advanced Audio Codec
Format profile : LC
Codec ID : 40
Duration : 3mn 49s
Source duration : 3mn 49s
Bit rate mode : Variable
Bit rate : 317 Kbps
Maximum bit rate : 467 Kbps
Channel(s) : 2 channels
Channel positions : Front: L R
Sampling rate : 48.0 KHz
Frame rate : 46.875 fps (1024 spf)
Compression mode : Lossy
Stream size : 8.69 MiB (1%)
Source stream size : 8.69 MiB (1%)
Language : English
Encoded date : UTC 2016-08-07 15:22:47
Tagged date : UTC 2016-08-07 15:22:47


Скриншоты

BLACKPINK - BOOMBAYAH (1080p).mp4











BLACKPINK - PLAYING WITH FIRE (1080p).mp4

















BLACKPINK - STAY (1080p).mp4
















BLACKPINK - WHISTLE (1080p).mp4






                                                                                       
                       
                       
                       
                       
                       
                                磁力下载:
                                                               
                                       
游客,本主题需向作者支付 7音乐币 才能浏览,金币充值, 免回复、免金币,直接查看内容请开通VIP支付

                                               
  • 3.1 GB
  • 温馨提示

    记得善用社区搜索功能,那里可能会有你想要的资源;论坛站内搜索

    如果你有什么需要的资源可以去资源求档发帖,求助社区的网友,我们会在第一时间给你回复哦;资源求档

    对于本社区网盘链接失效密码错误各种报错请在反馈板块反馈报错发帖,您的支持,是我们发展的最大动力;投诉建议

    回复

    使用道具 举报

    您需要登录后才可以回帖 登录 | 立即注册 微信登录

    本版积分规则

    关注0

    粉丝0

    帖子30121

    发布主题
    阅读排行更多+
    关闭

    站长推荐上一条 /1 下一条

    收藏帖子 返回列表 这是一个自定义按钮
    音乐分享,音乐下载。
    微信公众号
    微信号:hires_
    意见反馈:admin@maomicd.com

    加入我们的官方QQ群和微信群

    Powered by Discuz! X3.4 Archiver|手机版|小黑屋|捌零音乐论坛 ( 苏ICP备20015413号 )|( 苏公网安备 32030502000272号) 繁體

    GMT+8, 2021-5-6 09:44