自购原抓音乐圈:只有自购、合购、原抓级高解析(hires、sacd、dsd)正版音乐资源分享!【点我打开
极速无线网卡:千兆无线网卡、服务器网卡、USB接口台式机笔记本网卡 硬盘代考无损音乐!【点我打开
广告

[日韩音乐] Wakana - 2019年Live Tour 2019〜Docue〜在Nakano Sunplaza [2019,JPOP,BDRIP,1080p]

[复制链接]
tikus75 发表于 2021-4-13 15:37:39 | 显示全部楼层 |阅读模式 打印 上一主题 下一主题
Wakana Live Tour 2019 ~VOICE~ at 中野サンプラザ
Страна: Япония
Жанр: J-pop
Общая продолжительность: 01:47:05 + 00:21:21
Навигация по песням: есть
Перевод песен: отсутствует
Год выпуска: 2019Первый записанный сольный концерт Ваканы Оотаки, бывшей участницы групп Kalafina и FictionJunction. Мероприятие состоялось 26 апреля 2019 года в концертном зале Nakano SunPlaza, Токио.
После завершения 10-летней певческой деятельности в Kalafina Вакана начинает сольную карьеру вместе с композитором Сатоси Такэбэ, с которым она была знакома более 15 лет, ещё до своего переезда в Токио. В феврале 2019 года выходит её сольный дебютный сингл "Toki wo Koeru Yoru ni" (時を越える夜に), а уже в марте – первый полноценный альбом Wakana.
Настоящий концерт представляет собой один из лайвов общенационального тура ~VOICE~, проходившего в апреле–мае 2019 года в семи городах Японии. Прозвучали новые песни Ваканы как сольной исполнительницы, а также кавер-версии на произведения известных артистов прошлого и переработанные специально для её одиночного вокала композиции времён калафинского трио. Музыканты: Koji Ueda (электрогитара); Tomoo Tsuruya (ударные); Takashi Adachi (бас-гитара); Kuraaki Hori / Satoshi Takebe (клавишные).
В качестве бонусного видео на диске представлена документальная короткометражка Documentary of Wakana Live Tour 2019 ~VOICE~, повествующая о закулисной подготовке к сольному выступлению и о взаимоотношениях в новом коллективе.
Wakana Live Tour 2019 ~VOICE~ at Nakano SunPlaza
Треклист:
► Yakusoku no Yoake (約束の夜明け, «Обещанный рассвет»)
► Nagareboshi (流れ星, «Падающая звезда»)
MC01
► Ruriiro no Sora (瑠璃色の空, «Ультрамариновое небо»)
► Hard Rain («Ливень»)
MC02
► Kioku no Hito (記憶の人, «Человек в воспоминаниях»)
► Toki no Ne (時の音, «Звук времени»)
MC03
► Kaze ni Naritai (風になりたい, «Желаю стать ветром») ❇Кавер-версия оригинальной песни рок-группы THE BOOM
► Hotaru (ホタル, «Светлячок») ❇Кавер-версия оригинальной песни рок-группы Spitz
► Jidai (時代, «Годы, эпоха») ❇Кавер-версия оригинальной песни Миюки Накадзимы
► Tsubasa (翼, «Крылья»)
► Kimi Dake no Stage (君だけのステージ, «Твоя собственная сцена»)
Band member introduction 01
► Musunde Hiraku (むすんでひらく, «То, что соединяет и раскрывает») ❇Композиция группы Kalafina
► Hanamizuki (ハナミズキ, «Цветущий кизил»)
► oblivious («Забвенно») ❇Композиция группы Kalafina
MC04
► Boku no Kokoro no Tokei (僕の心の時計, «Часы моего сердца»)
► Toki wo Koeru Yoru ni (時を越える夜に, «Ночью, что пересекает время»)
MC05
► Kinmokusei (金木犀, «Душистый османтус»)
~Encore~
► Hikari Furu (ひかりふる, «Падающий свет») ❇Композиция группы Kalafina
► Ai no Hana (愛の花, «Цветок любви»)
Band member introduction 02
► Ato Hitotsu (あとひとつ, «Кое-что ещё»)
MC06 + END ROLL
Продолжительность: 01:47:05
Качество: BDRip 1080p
Контейнер: MKV
Видео кодек: H.264
Аудио кодек: AAC, FLAC
Видео: MPEG4 Video (H264) 1920x1080 (16:9) 23.976 fps 8-bit ~8022 kbps
Аудио #1: AAC 48000 Hz stereo ~336 kbps
Аудио #2: FLAC 48000 Hz stereo 24-bit ~1744 kbps
Отчёт MediaInfo
General
Unique ID : 137586052722696934477405549695854563376 (0x67821C218BB99C83A13EE3D2E141D030)
Complete name : D:\Files\Concerts\Wakana Live Tour 2019 ~VOICE~ at Nakano SunPlaza\Wakana Live Tour 2019 ~VOICE~ at Nakano SunPlaza.mkv
Format : Matroska
Format version : Version 4
File size : 7.56 GiB
Duration : 1 h 47 min
Overall bit rate mode : Variable
Overall bit rate : 10.1 Mb/s
Encoded date : UTC 2019-12-28 02:52:49
Writing application : mkvmerge v41.0.0 ('Smarra') 64-bit
Writing library : libebml v1.3.9 + libmatroska v1.5.2
Cover : Yes
Attachments : cover.jpg
Video
ID : 1
Format : AVC
Format/Info : Advanced Video Codec
Format profile : High@L4
Format settings : CABAC / 4 Ref Frames
Format settings, CABAC : Yes
Format settings, Reference : 4 frames
Codec ID : V_MPEG4/ISO/AVC
Duration : 1 h 47 min
Bit rate : 8 022 kb/s
Width : 1 920 pixels
Height : 1 080 pixels
Display aspect ratio : 16:9
Frame rate mode : Constant
Frame rate : 23.976 (24000/1001) FPS
Color space : YUV
Chroma subsampling : 4:2:0
Bit depth : 8 bits
Scan type : Progressive
Bits/(Pixel*Frame) : 0.161
Stream size : 6.00 GiB (79%)
Writing library : x264 core 157 r2935 545de2f
Encoding settings : cabac=1 / ref=4 / deblock=1:-3:-3 / analyse=0x3:0x133 / me=umh / subme=11 / psy=1 / psy_rd=1.00:0.00 / mixed_ref=1 / me_range=32 / chroma_me=1 / trellis=2 / 8x8dct=1 / cqm=0 / deadzone=21,11 / fast_pskip=0 / chroma_qp_offset=-2 / threads=12 / lookahead_threads=3 / sliced_threads=0 / nr=0 / decimate=1 / interlaced=0 / bluray_compat=0 / constrained_intra=0 / bframes=16 / b_pyramid=2 / b_adapt=2 / b_bias=0 / direct=3 / weightb=1 / open_gop=0 / weightp=2 / keyint=240 / keyint_min=23 / scenecut=40 / intra_refresh=0 / rc_lookahead=200 / rc=crf / mbtree=1 / crf=18.6 / qcomp=0.60 / qpmin=0 / qpmax=69 / qpstep=4 / ip_ratio=1.40 / aq=1:1.00
Language : Japanese
Default : Yes
Forced : No
Color range : Limited
Color primaries : BT.709
Transfer characteristics : BT.709
Matrix coefficients : BT.709
Audio #1
ID : 2
Format : AAC LC
Format/Info : Advanced Audio Codec Low Complexity
Codec ID : A_AAC-2
Duration : 1 h 47 min
Bit rate : 336 kb/s
Channel(s) : 2 channels
Channel layout : L R
Sampling rate : 48.0 kHz
Frame rate : 46.875 FPS (1024 SPF)
Compression mode : Lossy
Delay relative to video : 20 ms
Stream size : 258 MiB (3%)
Title : lossy
Language : Japanese
Default : Yes
Forced : No
Audio #2
ID : 3
Format : FLAC
Format/Info : Free Lossless Audio Codec
Codec ID : A_FLAC
Duration : 1 h 47 min
Bit rate mode : Variable
Bit rate : 1 744 kb/s
Channel(s) : 2 channels
Channel layout : L R
Sampling rate : 48.0 kHz
Frame rate : 11.719 FPS (4096 SPF)
Bit depth : 24 bits
Compression mode : Lossless
Stream size : 1.30 GiB (17%)
Title : lossless
Writing library : libFLAC 1.3.3 (UTC 2019-08-04)
Language : Japanese
Default : No
Forced : No
Menu
00:00:00.000 : ja:約束の夜明け (Yakusoku no Yoake)
00:05:40.190 : ja:流れ星 (Nagareboshi)
00:10:07.050 : ja:MC01
00:11:13.970 : ja:瑠璃色の空 (Ruriiro no Sora)
00:16:38.510 : ja:Hard Rain
00:21:02.920 : ja:MC02
00:21:21.870 : ja:記憶の人 (Kioku no Hito)
00:26:51.360 : ja:時の音 (Toki no Ne)
00:31:05.760 : ja:MC03
00:31:31.150 : ja:風になりたい (Kaze ni Naritai)
00:35:14.640 : ja:ホタル (Hotaru)
00:39:07.430 : ja:時代 (Jidai)
00:44:02.190 : ja:翼 (Tsubasa)
00:48:50.330 : ja:君だけのステージ (Kimi Dake no Stage)
00:54:24.640 : ja:Band member introduction 01
00:55:15.080 : ja:むすんでひらく (Musunde Hiraku)
01:00:34.610 : ja:ハナミズキ (Hanamizuki)
01:05:59.060 : ja:oblivious
01:10:43.440 : ja:MC04
01:12:02.530 : ja:僕の心の時計 (Boku no Kokoro no Tokei)
01:17:19.700 : ja:時を越える夜に (Toki wo Koeru Yoru ni)
01:22:28.590 : ja:MC05
01:23:53.410 : ja:金木犀 (Kinmokusei)
01:29:46.150 : ja:~Encore~
01:30:10.390 : ja:ひかりふる (Hikari Furu)
01:35:34.020 : ja:愛の花 (Ai no Hana)
01:40:32.290 : ja:Band member introduction 02
01:41:31.040 : ja:あとひとつ (Ato Hitotsu)
01:44:33.980 : ja:MC06 + End Roll

Скриншоты



























Резервные скриншоты


























Documentary of Wakana Live Tour 2019 ~VOICE~
Язык: Японский
Перевод: Отсутствует
Продолжительность: 00:21:21
Качество: BDRip 1080p
Контейнер: MKV
Видео кодек: H.264
Аудио кодек: AAC, FLAC
Видео: MPEG4 Video (H264) 1920x1080 (16:9) 23.976 fps 8-bit ~8424 kbps
Аудио #1: AAC 48000 Hz stereo ~162 kbps
Аудио #2: FLAC 48000 Hz stereo 16-bit ~587 kbps
Отчёт MediaInfo
General
Unique ID : 295454240518542030688492497577468650102 (0xDE466ABA078D2A7C30C7391237426276)
Complete name : D:\Files\Concerts\Wakana Live Tour 2019 ~VOICE~ at Nakano SunPlaza\Documentary of Wakana Live Tour 2019 ~VOICE~.mkv
Format : Matroska
Format version : Version 4
File size : 1.37 GiB
Duration : 21 min 21 s
Overall bit rate mode : Variable
Overall bit rate : 9 175 kb/s
Encoded date : UTC 2019-12-28 03:06:13
Writing application : mkvmerge v41.0.0 ('Smarra') 64-bit
Writing library : libebml v1.3.9 + libmatroska v1.5.2
Video
ID : 1
Format : AVC
Format/Info : Advanced Video Codec
Format profile : High@L4
Format settings : CABAC / 4 Ref Frames
Format settings, CABAC : Yes
Format settings, Reference : 4 frames
Codec ID : V_MPEG4/ISO/AVC
Duration : 21 min 21 s
Bit rate : 8 424 kb/s
Width : 1 920 pixels
Height : 1 080 pixels
Display aspect ratio : 16:9
Frame rate mode : Constant
Frame rate : 23.976 (24000/1001) FPS
Color space : YUV
Chroma subsampling : 4:2:0
Bit depth : 8 bits
Scan type : Progressive
Bits/(Pixel*Frame) : 0.169
Stream size : 1.26 GiB (92%)
Writing library : x264 core 157 r2935 545de2f
Encoding settings : cabac=1 / ref=4 / deblock=1:-3:-3 / analyse=0x3:0x133 / me=umh / subme=11 / psy=1 / psy_rd=1.00:0.00 / mixed_ref=1 / me_range=32 / chroma_me=1 / trellis=2 / 8x8dct=1 / cqm=0 / deadzone=21,11 / fast_pskip=0 / chroma_qp_offset=-2 / threads=12 / lookahead_threads=3 / sliced_threads=0 / nr=0 / decimate=1 / interlaced=0 / bluray_compat=0 / constrained_intra=0 / bframes=16 / b_pyramid=2 / b_adapt=2 / b_bias=0 / direct=3 / weightb=1 / open_gop=0 / weightp=2 / keyint=240 / keyint_min=23 / scenecut=40 / intra_refresh=0 / rc_lookahead=200 / rc=crf / mbtree=1 / crf=19.0 / qcomp=0.60 / qpmin=0 / qpmax=69 / qpstep=4 / ip_ratio=1.40 / aq=1:1.00
Language : Japanese
Default : Yes
Forced : No
Color range : Limited
Color primaries : BT.709
Transfer characteristics : BT.709
Matrix coefficients : BT.709
Audio #1
ID : 2
Format : AAC LC
Format/Info : Advanced Audio Codec Low Complexity
Codec ID : A_AAC-2
Duration : 21 min 21 s
Bit rate : 162 kb/s
Channel(s) : 2 channels
Channel layout : L R
Sampling rate : 48.0 kHz
Frame rate : 46.875 FPS (1024 SPF)
Compression mode : Lossy
Delay relative to video : 20 ms
Stream size : 24.7 MiB (2%)
Title : lossy
Language : Japanese
Default : Yes
Forced : No
Audio #2
ID : 3
Format : FLAC
Format/Info : Free Lossless Audio Codec
Codec ID : A_FLAC
Duration : 21 min 21 s
Bit rate mode : Variable
Bit rate : 587 kb/s
Channel(s) : 2 channels
Channel layout : L R
Sampling rate : 48.0 kHz
Frame rate : 11.719 FPS (4096 SPF)
Bit depth : 16 bits
Compression mode : Lossless
Stream size : 89.6 MiB (6%)
Title : lossless
Writing library : libFLAC 1.3.3 (UTC 2019-08-04)
Language : Japanese
Default : No
Forced : No
Menu
00:00:00.000 : ja:rehearsal
00:06:34.644 : ja:飯能市市民会館 ゲネプロ (Hanno City Hall Generalprobe)
00:11:57.258 : ja:4月26日 中野サンプラザ (April 26 Nakano Sun Plaza)

Скриншоты









Резервные скриншоты









                                                                                       
                       
                       
                       
                       
                       
                                磁力下载:(论坛代下载服务)
                                                               
                                       
游客,本主题需向作者支付 7音乐币 才能浏览,金币充值, 免回复、免金币,直接查看内容请开通VIP支付

                                               
  • 8.93 GB
  • 温馨提示

    记得善用社区搜索功能,那里可能会有你想要的资源;论坛站内搜索

    如果你有什么需要的资源可以去资源求档发帖,求助社区的网友,我们会在第一时间给你回复哦;资源求档

    对于本社区网盘链接失效密码错误各种报错请在反馈板块反馈报错发帖,您的支持,是我们发展的最大动力;投诉建议

    回复

    使用道具 举报

    您需要登录后才可以回帖 登录 | 立即注册 微信登录

    本版积分规则

    关注0

    粉丝0

    帖子29919

    发布主题
    阅读排行更多+
    关闭

    站长推荐上一条 /1 下一条

    收藏帖子 返回列表 这是一个自定义按钮
    音乐分享,音乐下载。
    微信公众号
    微信号:hires_
    意见反馈:admin@maomicd.com

    加入我们的官方QQ群和微信群

    Powered by Discuz! X3.4 Archiver|手机版|小黑屋|捌零音乐论坛 ( 苏ICP备20015413号 )|( 苏公网安备 32030502000272号) 繁體

    GMT+8, 2021-5-9 01:19