自购原抓音乐圈:只有自购、合购、原抓级高解析(hires、sacd、dsd)正版音乐资源分享!【点我打开
极速无线网卡:千兆无线网卡、服务器网卡、USB接口台式机笔记本网卡 硬盘代考无损音乐!【点我打开
广告

[摇滚] Marillion - A Sunday Night Above The Rain [2014, Neo-Progressive, 3 x Blu-ray]

[复制链接]
全球搬运 发表于 2021-4-13 15:34:07 | 显示全部楼层 |阅读模式 打印 上一主题 下一主题
Marillion - A Sunday Night Above The Rain
Жанр: Neo-Progressive
Продолжительность: 02:19:24+02:24:50+0:52:30
Год выпуска: 2014
Описание: Вниманию добряков — очередной Марильён. Ничего нового, всё очень профессионально и на уровне. Всем бы так записывать концерты...
На первых двух блюриках Хогарт со товарищи играют CD ‘Sounds That Can’t Be Made’ в Голландии и Монреале в 2013 году. На третьем — запись этого же альбома в high res в вариантах 96kHz 24bit stereo и 5.1 audio плюс демы и джемы. Всё раздаю как есть, качайте выборочно, если чё.
Раздаётся по просьбе добряка chuhonka2010, который, сосно, и дал на водку.
Ура!
BD1: Port Zelande, Netherlands, March 10 2013
Tracklist:
Gaza
Waiting to Happen
Lucky Man
This Strange Engine
Pour My Love
Neverland
Invisible Ink
Montreal
Power
Sounds That Can't Be Made
The King Of Sunset Town
The Sky Above The Rain
Garden Party
Качество: Blu-ray
Контейнер: BDMV
Видео кодек: MPEG-4
Аудио кодек: PCM
Видео: MPEG-4 AVC Video / 27213 kbps / 1080i / 29.970 fps / 16:9 / High Profile 4.1
Аудио: English / LPCM Audio / 2.0 / 96 kHz / 4608 kbps / 24-bit
Аудио 2: English / DTS-HD Master Audio / 5.1 / 96 kHz / 8828 kbps / 24-bit (DTS Core: 5.1 / 48 kHz / 1509 kbps / 24-bit)
Отчёт MediaInfo / BDInfo

Disc Title:     RACKET109BD1
Disc Size:      45,396,496,446 bytes
Protection:     AACS
BD-Java:        No
BDInfo:         0.5.8
Notes:
BDINFO HOME:
  Cinema Squid
    http://www.cinemasquid.com/blu-ray/tools/bdinfo
INCLUDES FORUMS REPORT FOR:
  AVS Forum Blu-ray Audio and Video Specifications Thread
    http://www.avsforum.com/avs-vb/showthread.php?t=1155731
********************
PLAYLIST: 00002.MPLS
********************

Код:

                                                                                Total   Video
Title                                                           Codec   Length  Movie Size      Disc Size       Bitrate Bitrate Main Audio Track                          Secondary Audio Track
-----                                                           ------  ------- --------------  --------------  ------- ------- ------------------                        ---------------------
00002.MPLS                                                      AVC     2:19:23 44,789,901,312  45,396,496,446  42.84   27.21   LPCM 2.0 4608Kbps (96kHz/24-bit)          DTS-HD Master 5.1 8828Kbps (96kHz/24-bit)

Код:
DISC INFO:
Disc Title:     RACKET109BD1
Disc Size:      45,396,496,446 bytes
Protection:     AACS
BD-Java:        No
BDInfo:         0.5.8
PLAYLIST REPORT:
Name:                   00002.MPLS
Length:                 2:19:23.955 (h:m:s.ms)
Size:                   44,789,901,312 bytes
Total Bitrate:          42.84 Mbps
VIDEO:
Codec                   Bitrate             Description
-----                   -------             -----------
MPEG-4 AVC Video        27213 kbps          1080i / 29.970 fps / 16:9 / High Profile 4.1
AUDIO:
Codec                           Language        Bitrate         Description
-----                           --------        -------         -----------
LPCM Audio                      English         4608 kbps       2.0 / 96 kHz / 4608 kbps / 24-bit
DTS-HD Master Audio             English         8828 kbps       5.1 / 96 kHz / 8828 kbps / 24-bit (DTS Core: 5.1 / 48 kHz / 1509 kbps / 24-bit)
FILES:
Name            Time In         Length          Size            Total Bitrate
----            -------         ------          ----            -------------
00001.M2TS      0:00:00.000     2:19:23.955     44,789,901,312  42,841
CHAPTERS:
Number          Time In         Length          Avg Video Rate  Max 1-Sec Rate  Max 1-Sec Time  Max 5-Sec Rate  Max 5-Sec Time  Max 10Sec Rate  Max 10Sec Time  Avg Frame Size  Max Frame Size  Max Frame Time
------          -------         ------          --------------  --------------  --------------  --------------  --------------  --------------  --------------  --------------  --------------  --------------
1               0:00:00.000     0:19:20.659     25,639 kbps     47,776 kbps     00:04:23.162    35,773 kbps     00:13:36.348    32,893 kbps     00:16:31.457    106,932 bytes   779,849 bytes   00:03:16.229
2               0:19:20.659     0:05:37.837     28,044 kbps     45,002 kbps     00:23:24.803    35,731 kbps     00:20:34.066    32,851 kbps     00:21:01.727    116,967 bytes   748,592 bytes   00:21:31.590
3               0:24:58.496     0:07:38.925     28,496 kbps     53,975 kbps     00:29:43.681    35,478 kbps     00:31:35.460    32,852 kbps     00:27:28.780    118,854 bytes   747,912 bytes   00:25:50.115
4               0:32:37.422     0:18:51.663     28,937 kbps     53,194 kbps     00:49:31.568    35,767 kbps     00:49:35.772    32,890 kbps     00:36:30.821    120,691 bytes   758,096 bytes   00:42:36.320
5               0:51:29.085     0:06:27.053     28,505 kbps     43,766 kbps     00:57:02.552    35,423 kbps     00:52:22.906    32,843 kbps     00:54:14.184    118,891 bytes   679,730 bytes   00:54:41.411
6               0:57:56.139     0:11:16.008     29,156 kbps     50,551 kbps     01:00:13.509    35,777 kbps     01:07:46.228    32,884 kbps     01:05:26.989    121,604 bytes   737,986 bytes   01:08:40.916
7               1:09:12.148     0:06:53.412     26,043 kbps     47,358 kbps     01:12:02.017    35,734 kbps     01:11:59.948    32,828 kbps     01:14:01.503    108,622 bytes   740,273 bytes   01:14:42.277
8               1:16:05.561     0:14:46.886     27,741 kbps     47,158 kbps     01:27:17.699    35,653 kbps     01:27:46.995    32,882 kbps     01:27:10.558    115,704 bytes   697,410 bytes   01:19:54.389
9               1:30:52.447     0:06:21.381     29,353 kbps     45,745 kbps     01:36:56.177    35,677 kbps     01:36:56.143    32,866 kbps     01:30:53.581    122,425 bytes   688,932 bytes   01:34:33.267
10              1:37:13.828     0:09:02.775     28,820 kbps     55,035 kbps     01:38:37.444    35,767 kbps     01:42:14.795    32,876 kbps     01:42:14.695    120,204 bytes   694,974 bytes   01:37:25.339
11              1:46:16.603     0:07:59.378     28,215 kbps     44,245 kbps     01:50:55.949    35,007 kbps     01:50:54.481    32,588 kbps     01:52:09.989    117,681 bytes   649,407 bytes   01:47:14.928
12              1:54:15.982     0:12:49.068     27,444 kbps     46,814 kbps     02:02:20.900    35,772 kbps     01:55:50.109    32,836 kbps     01:58:04.844    114,466 bytes   782,064 bytes   01:57:46.092
13              2:07:05.050     0:12:18.904     20,261 kbps     43,334 kbps     02:09:07.239    35,418 kbps     02:08:20.626    32,878 kbps     02:07:29.775    84,509 bytes    679,954 bytes   02:14:54.686
STREAM DIAGNOSTICS:
File            PID             Type            Codec           Language                Seconds                 Bitrate                 Bytes           Packets
----            ---             ----            -----           --------                --------------          --------------          -------------   -----
00001.M2TS      4113 (0x1011)   0x1B            AVC                                     8363.856                27,214                  28,451,261,593  154,773,079
00001.M2TS      4352 (0x1100)   0x80            LPCM            eng (English)           8363.856                4,614                   4,823,778,400   26,761,600
00001.M2TS      4353 (0x1101)   0x86            DTS-HD MA       eng (English)           8363.856                8,828                   9,229,814,472   51,465,868


QUICK SUMMARY:
Disc Title: RACKET109BD1
Disc Size: 45,396,496,446 bytes
Protection: AACS
BD-Java: No
Playlist: 00002.MPLS
Size: 44,789,901,312 bytes
Length: 2:19:23.955
Total Bitrate: 42.84 Mbps
Video: MPEG-4 AVC Video / 27213 kbps / 1080i / 29.970 fps / 16:9 / High Profile 4.1
Audio: English / LPCM Audio / 2.0 / 96 kHz / 4608 kbps / 24-bit
Audio: English / DTS-HD Master Audio / 5.1 / 96 kHz / 8828 kbps / 24-bit (DTS Core: 5.1 / 48 kHz / 1509 kbps / 24-bit)


Скриншоты







BD2: Montreal, Canada, March 24 2013
Tracklist:
Gaza
Waiting to Happen
Lucky Man
This Strange Engine
Pour My Love
Neverland
Invisible Ink
Power
Sounds That Can't Be Made
The King Of Sunset Town
The Sky Above The Rain
Montreal
Garden Party
Качество: Blu-ray
Контейнер: BDMV
Видео кодек: MPEG-4
Аудио кодек: PCM
Видео: MPEG-4 AVC Video / 27013 kbps / 1080p / 23.976 fps / 16:9 / High Profile 4.1
Аудио: English / LPCM Audio / 2.0 / 96 kHz / 4608 kbps / 24-bit
Аудио 2: English / DTS-HD Master Audio / 5.1 / 96 kHz / 8806 kbps / 24-bit (DTS Core: 5.1 / 48 kHz / 1509 kbps / 24-bit)
Отчёт MediaInfo / BDInfo

Disc Title:     MARILLION MONTREAL
Disc Size:      46,855,471,024 bytes
Protection:     AACS
BD-Java:        No
BDInfo:         0.5.8
Notes:
BDINFO HOME:
  Cinema Squid
    http://www.cinemasquid.com/blu-ray/tools/bdinfo
INCLUDES FORUMS REPORT FOR:
  AVS Forum Blu-ray Audio and Video Specifications Thread
    http://www.avsforum.com/avs-vb/showthread.php?t=1155731
********************
PLAYLIST: 00001.MPLS
********************

Код:

                                                                                Total   Video
Title                                                           Codec   Length  Movie Size      Disc Size       Bitrate Bitrate Main Audio Track                          Secondary Audio Track
-----                                                           ------  ------- --------------  --------------  ------- ------- ------------------                        ---------------------
00001.MPLS                                                      AVC     2:24:49 46,278,328,320  46,855,471,024  42.60   27.01   LPCM 2.0 4608Kbps (96kHz/24-bit)          DTS-HD Master 5.1 8806Kbps (96kHz/24-bit)

Код:
DISC INFO:
Disc Title:     MARILLION MONTREAL
Disc Size:      46,855,471,024 bytes
Protection:     AACS
BD-Java:        No
BDInfo:         0.5.8
PLAYLIST REPORT:
Name:                   00001.MPLS
Length:                 2:24:49.972 (h:m:s.ms)
Size:                   46,278,328,320 bytes
Total Bitrate:          42.60 Mbps
VIDEO:
Codec                   Bitrate             Description
-----                   -------             -----------
MPEG-4 AVC Video        27013 kbps          1080p / 23.976 fps / 16:9 / High Profile 4.1
AUDIO:
Codec                           Language        Bitrate         Description
-----                           --------        -------         -----------
LPCM Audio                      English         4608 kbps       2.0 / 96 kHz / 4608 kbps / 24-bit
DTS-HD Master Audio             English         8806 kbps       5.1 / 96 kHz / 8806 kbps / 24-bit (DTS Core: 5.1 / 48 kHz / 1509 kbps / 24-bit)
FILES:
Name            Time In         Length          Size            Total Bitrate
----            -------         ------          ----            -------------
00001.M2TS      0:00:00.000     2:24:49.972     46,278,328,320  42,604
CHAPTERS:
Number          Time In         Length          Avg Video Rate  Max 1-Sec Rate  Max 1-Sec Time  Max 5-Sec Rate  Max 5-Sec Time  Max 10Sec Rate  Max 10Sec Time  Avg Frame Size  Max Frame Size  Max Frame Time
------          -------         ------          --------------  --------------  --------------  --------------  --------------  --------------  --------------  --------------  --------------  --------------
1               0:00:00.000     0:19:21.118     23,929 kbps     54,564 kbps     00:05:34.083    35,475 kbps     00:18:39.243    32,855 kbps     00:07:39.542    124,749 bytes   722,398 bytes   00:12:06.726
2               0:19:21.118     0:06:23.132     26,917 kbps     52,666 kbps     00:23:15.644    35,288 kbps     00:21:31.581    32,793 kbps     00:24:09.030    140,331 bytes   847,780 bytes   00:23:20.941
3               0:25:44.251     0:07:51.304     28,561 kbps     52,408 kbps     00:28:05.975    35,521 kbps     00:28:05.892    32,851 kbps     00:31:58.249    148,904 bytes   850,735 bytes   00:30:39.796
4               0:33:35.555     0:19:22.536     27,934 kbps     56,319 kbps     00:50:23.020    35,720 kbps     00:37:32.833    32,870 kbps     00:35:29.043    145,636 bytes   870,752 bytes   00:37:11.062
5               0:52:58.091     0:07:33.870     28,625 kbps     53,297 kbps     00:56:38.645    35,154 kbps     00:58:20.413    32,721 kbps     00:56:03.234    149,237 bytes   974,236 bytes   00:53:59.736
6               1:00:31.961     0:11:26.811     28,326 kbps     47,021 kbps     01:09:34.295    35,730 kbps     01:10:43.113    32,867 kbps     01:06:52.008    147,680 bytes   964,553 bytes   01:10:05.326
7               1:11:58.772     0:06:25.927     28,698 kbps     50,987 kbps     01:15:10.756    35,590 kbps     01:15:32.903    32,836 kbps     01:15:31.902    149,616 bytes   860,486 bytes   01:18:21.822
8               1:18:24.700     0:06:42.402     29,225 kbps     48,378 kbps     01:21:22.419    35,724 kbps     01:20:31.493    32,868 kbps     01:21:38.101    152,364 bytes   708,732 bytes   01:20:07.511
9               1:25:07.102     0:08:07.862     28,565 kbps     47,454 kbps     01:30:25.920    35,682 kbps     01:32:34.131    32,843 kbps     01:32:34.090    148,924 bytes   870,611 bytes   01:31:34.363
10              1:33:14.964     0:10:55.279     28,518 kbps     49,621 kbps     01:34:57.650    35,691 kbps     01:39:46.897    32,868 kbps     01:39:46.855    148,682 bytes   942,896 bytes   01:43:24.281
11              1:44:10.244     0:11:13.089     28,828 kbps     43,957 kbps     01:46:49.611    35,437 kbps     01:49:25.517    32,815 kbps     01:51:29.349    150,297 bytes   965,858 bytes   01:55:18.745
12              1:55:23.333     0:16:06.298     27,783 kbps     44,396 kbps     02:06:39.133    35,731 kbps     02:06:22.491    32,870 kbps     02:06:22.491    144,850 bytes   936,320 bytes   02:09:16.832
13              2:11:29.631     0:13:20.341     20,681 kbps     48,439 kbps     02:15:44.136    35,718 kbps     02:12:09.671    32,870 kbps     02:19:38.578    107,827 bytes   816,460 bytes   02:20:12.987
STREAM DIAGNOSTICS:
File            PID             Type            Codec           Language                Seconds                 Bitrate                 Bytes           Packets
----            ---             ----            -----           --------                --------------          --------------          -------------   -----
00001.M2TS      4113 (0x1011)   0x1B            AVC                                     8689.890                27,013                  29,342,511,959  159,591,011
00001.M2TS      4352 (0x1100)   0x80            LPCM            eng (English)           8689.890                4,614                   5,012,363,160   27,807,840
00001.M2TS      4353 (0x1101)   0x86            DTS-HD MA       eng (English)           8689.890                8,806                   9,565,852,784   53,342,967


QUICK SUMMARY:
Disc Title: MARILLION MONTREAL
Disc Size: 46,855,471,024 bytes
Protection: AACS
BD-Java: No
Playlist: 00001.MPLS
Size: 46,278,328,320 bytes
Length: 2:24:49.972
Total Bitrate: 42.60 Mbps
Video: MPEG-4 AVC Video / 27013 kbps / 1080p / 23.976 fps / 16:9 / High Profile 4.1
Audio: English / LPCM Audio / 2.0 / 96 kHz / 4608 kbps / 24-bit
Audio: English / DTS-HD Master Audio / 5.1 / 96 kHz / 8806 kbps / 24-bit (DTS Core: 5.1 / 48 kHz / 1509 kbps / 24-bit)


Скриншоты







BD3: 'Sounds That Can't Be Made' studio album in high res at 96kHz 24bit with stereo and 5.1 audio
Tracklist:
STCBM 96kHz 24Bit 5.1 & Stereo mixes:
Gaza
Sounds That Can't Be Made
Pour My Love
Power
Montreal
Invisible Ink
Lucky Man
The Sky Above The Rain
'UNSOUND' Demos:
Gaza - Loop Demo
Sounds That Can't Be Made - Bridge Demo
Sounds That Can't Be Made - Demo Arrangement
Pour My Love - Slow Jam Demo
Power - Demo Arrangement
Power - Alternative Jam
Montreal - Early Jam
Invisible Ink - Early Jam
Lucky Man - Gospel Demo Arrangement
Lucky Man - Jam Demo Edit
The Sky Above The Rain - Early Jam
Качество: Blu-ray
Контейнер: BDMV
Видео кодек: MPEG-4
Аудио кодек: PCM
Видео: MPEG-4 AVC Video / 11994 kbps / 1080p / 23.976 fps / 16:9 / High Profile 4.1
Аудио: English / LPCM Audio / 2.0 / 48 kHz / 2304 kbps / 24-bit
Отчёт MediaInfo / BDInfo

Disc Title:     RACKET109BD3
Disc Size:      23,157,125,246 bytes
Protection:     AACS
BD-Java:        No
BDInfo:         0.5.8
Notes:
BDINFO HOME:
  Cinema Squid
    http://www.cinemasquid.com/blu-ray/tools/bdinfo
INCLUDES FORUMS REPORT FOR:
  AVS Forum Blu-ray Audio and Video Specifications Thread
    http://www.avsforum.com/avs-vb/showthread.php?t=1155731
********************
PLAYLIST: 00002.MPLS
********************

Код:

                                                                                Total   Video
Title                                                           Codec   Length  Movie Size      Disc Size       Bitrate Bitrate Main Audio Track                          Secondary Audio Track
-----                                                           ------  ------- --------------  --------------  ------- ------- ------------------                        ---------------------
00002.MPLS                                                      AVC     1:14:27 15,684,513,792  23,157,125,246  28.09   14.03   LPCM 2.0 4608Kbps (96kHz/24-bit)          DTS-HD Master 5.1 7877Kbps (96kHz/24-bit)

Код:
DISC INFO:
Disc Title:     RACKET109BD3
Disc Size:      23,157,125,246 bytes
Protection:     AACS
BD-Java:        No
BDInfo:         0.5.8
PLAYLIST REPORT:
Name:                   00002.MPLS
Length:                 1:14:27.463 (h:m:s.ms)
Size:                   15,684,513,792 bytes
Total Bitrate:          28.09 Mbps
VIDEO:
Codec                   Bitrate             Description
-----                   -------             -----------
MPEG-4 AVC Video        14029 kbps          1080p / 23.976 fps / 16:9 / High Profile 4.1
AUDIO:
Codec                           Language        Bitrate         Description
-----                           --------        -------         -----------
LPCM Audio                      English         4608 kbps       2.0 / 96 kHz / 4608 kbps / 24-bit
DTS-HD Master Audio             English         7877 kbps       5.1 / 96 kHz / 7877 kbps / 24-bit (DTS Core: 5.1 / 48 kHz / 1509 kbps / 24-bit)
FILES:
Name            Time In         Length          Size            Total Bitrate
----            -------         ------          ----            -------------
00002.M2TS      0:00:00.000     0:17:32.051     3,865,300,992   29,392
00003.M2TS      0:17:32.051     0:07:16.435     1,592,954,880   29,199
00004.M2TS      0:24:48.486     0:06:02.361     1,296,390,144   28,621
00005.M2TS      0:30:50.848     0:06:07.366     1,345,388,544   29,298
00006.M2TS      0:36:58.215     0:14:05.845     3,028,998,144   28,648
00007.M2TS      0:51:04.060     0:05:48.347     1,116,014,592   25,630
00008.M2TS      0:56:52.408     0:06:59.419     1,395,824,640   26,624
00009.M2TS      1:03:51.827     0:10:35.635     2,043,641,856   25,721
CHAPTERS:
Number          Time In         Length          Avg Video Rate  Max 1-Sec Rate  Max 1-Sec Time  Max 5-Sec Rate  Max 5-Sec Time  Max 10Sec Rate  Max 10Sec Time  Avg Frame Size  Max Frame Size  Max Frame Time
------          -------         ------          --------------  --------------  --------------  --------------  --------------  --------------  --------------  --------------  --------------  --------------
1               0:00:00.000     0:17:32.051     14,987 kbps     18,911 kbps     00:12:47.016    15,721 kbps     00:00:43.793    15,391 kbps     00:12:38.007    78,134 bytes    567,617 bytes   00:12:48.017
2               0:17:32.051     0:07:16.435     14,968 kbps     16,065 kbps     00:20:42.491    15,284 kbps     00:24:43.481    15,106 kbps     00:20:33.482    78,036 bytes    256,130 bytes   00:24:48.486
3               0:24:48.486     0:06:02.361     14,956 kbps     20,214 kbps     00:27:58.927    15,729 kbps     00:25:32.364    15,521 kbps     00:27:49.918    77,973 bytes    730,684 bytes   00:27:59.928
4               0:30:50.848     0:06:07.366     14,959 kbps     18,251 kbps     00:34:01.289    15,650 kbps     00:33:57.285    15,325 kbps     00:33:52.280    77,991 bytes    484,947 bytes   00:34:02.290
5               0:36:58.215     0:14:05.845     14,982 kbps     18,432 kbps     00:49:45.232    15,686 kbps     00:49:41.228    15,343 kbps     00:49:36.223    78,111 bytes    507,695 bytes   00:49:46.233
6               0:51:04.060     0:05:48.347     11,949 kbps     14,028 kbps     00:54:14.501    12,406 kbps     00:54:10.497    12,203 kbps     00:54:05.492    62,297 bytes    316,264 bytes   00:54:15.502
7               0:56:52.408     0:06:59.418     11,955 kbps     15,321 kbps     01:01:44.951    12,548 kbps     00:57:35.493    12,332 kbps     01:01:35.942    62,328 bytes    478,125 bytes   01:00:03.850
8               1:03:51.827     0:10:35.635     11,971 kbps     12,908 kbps     01:07:02.268    12,182 kbps     01:06:58.264    12,091 kbps     01:06:53.259    62,414 bytes    176,207 bytes   01:07:03.269
STREAM DIAGNOSTICS:
File            PID             Type            Codec           Language                Seconds                 Bitrate                 Bytes           Packets
----            ---             ----            -----           --------                --------------          --------------          -------------   -----
00002.M2TS      4113 (0x1011)   0x1B            AVC                                     1051.926                14,988                  1,970,809,951   10,731,572
00002.M2TS      4352 (0x1100)   0x80            LPCM            eng (English)           1051.926                4,610                   606,170,656     3,362,944
00002.M2TS      4353 (0x1101)   0x86            DTS-HD MA       eng (English)           1051.926                8,169                   1,074,167,516   6,002,017
00003.M2TS      4113 (0x1011)   0x1B            AVC                                     436.311                 14,970                  816,432,075     4,446,881
00003.M2TS      4352 (0x1100)   0x80            LPCM            eng (English)           436.311                 4,611                   251,484,800     1,395,200
00003.M2TS      4353 (0x1101)   0x86            DTS-HD MA       eng (English)           436.311                 8,002                   436,430,812     2,439,918
00004.M2TS      4113 (0x1011)   0x1B            AVC                                     362.237                 14,964                  677,545,103     3,688,961
00004.M2TS      4352 (0x1100)   0x80            LPCM            eng (English)           362.237                 4,614                   208,911,192     1,159,008
00004.M2TS      4353 (0x1101)   0x86            DTS-HD MA       eng (English)           362.237                 7,458                   337,711,064     1,891,892
00005.M2TS      4113 (0x1011)   0x1B            AVC                                     367.242                 14,965                  686,965,416     3,740,247
00005.M2TS      4352 (0x1100)   0x80            LPCM            eng (English)           367.242                 4,609                   211,570,240     1,173,760
00005.M2TS      4353 (0x1101)   0x86            DTS-HD MA       eng (English)           367.242                 8,111                   372,356,052     2,080,906
00006.M2TS      4113 (0x1011)   0x1B            AVC                                     845.720                 14,984                  1,584,064,124   8,626,822
00006.M2TS      4352 (0x1100)   0x80            LPCM            eng (English)           845.720                 4,605                   486,836,504     2,700,896
00006.M2TS      4353 (0x1101)   0x86            DTS-HD MA       eng (English)           845.720                 7,464                   789,072,892     4,419,964
00007.M2TS      4113 (0x1011)   0x1B            AVC                                     348.223                 11,953                  520,272,073     2,834,862
00007.M2TS      4352 (0x1100)   0x80            LPCM            eng (English)           348.223                 4,598                   200,149,600     1,110,400
00007.M2TS      4353 (0x1101)   0x86            DTS-HD MA       eng (English)           348.223                 7,615                   331,473,264     1,855,613
00008.M2TS      4113 (0x1011)   0x1B            AVC                                     419.294                 11,961                  626,878,574     3,414,619
00008.M2TS      4352 (0x1100)   0x80            LPCM            eng (English)           419.294                 4,605                   241,341,772     1,338,928
00008.M2TS      4353 (0x1101)   0x86            DTS-HD MA       eng (English)           419.294                 8,555                   448,397,408     2,502,322
00009.M2TS      4113 (0x1011)   0x1B            AVC                                     635.510                 11,974                  951,202,573     5,182,901
00009.M2TS      4352 (0x1100)   0x80            LPCM            eng (English)           635.510                 4,608                   366,057,468     2,030,832
00009.M2TS      4353 (0x1101)   0x86            DTS-HD MA       eng (English)           635.510                 7,666                   609,010,984     3,408,934


QUICK SUMMARY:
Disc Title: RACKET109BD3
Disc Size: 23,157,125,246 bytes
Protection: AACS
BD-Java: No
Playlist: 00002.MPLS
Size: 15,684,513,792 bytes
Length: 1:14:27.463
Total Bitrate: 28.09 Mbps
Video: MPEG-4 AVC Video / 14029 kbps / 1080p / 23.976 fps / 16:9 / High Profile 4.1
Audio: English / LPCM Audio / 2.0 / 96 kHz / 4608 kbps / 24-bit
Audio: English / DTS-HD Master Audio / 5.1 / 96 kHz / 7877 kbps / 24-bit (DTS Core: 5.1 / 48 kHz / 1509 kbps / 24-bit)
********************
PLAYLIST: 00003.MPLS
********************

Код:

                                                                                Total   Video
Title                                                           Codec   Length  Movie Size      Disc Size       Bitrate Bitrate Main Audio Track                          Secondary Audio Track
-----                                                           ------  ------- --------------  --------------  ------- ------- ------------------                        ---------------------
00003.MPLS                                                      AVC     0:52:30 6,895,159,296   23,157,125,246  17.51   11.99   LPCM 2.0 2304Kbps (48kHz/24-bit)          LPCM 2.0 2304Kbps (48kHz/24-bit)

Код:
DISC INFO:
Disc Title:     RACKET109BD3
Disc Size:      23,157,125,246 bytes
Protection:     AACS
BD-Java:        No
BDInfo:         0.5.8
PLAYLIST REPORT:
Name:                   00003.MPLS
Length:                 0:52:30.147 (h:m:s.ms)
Size:                   6,895,159,296 bytes
Total Bitrate:          17.51 Mbps
VIDEO:
Codec                   Bitrate             Description
-----                   -------             -----------
MPEG-4 AVC Video        11994 kbps          1080p / 23.976 fps / 16:9 / High Profile 4.1
AUDIO:
Codec                           Language        Bitrate         Description
-----                           --------        -------         -----------
LPCM Audio                      English         2304 kbps       2.0 / 48 kHz / 2304 kbps / 24-bit
LPCM Audio                      English         2304 kbps       2.0 / 48 kHz / 2304 kbps / 24-bit
FILES:
Name            Time In         Length          Size            Total Bitrate
----            -------         ------          ----            -------------
00012.M2TS      0:00:00.000     0:52:30.147     6,895,159,296   17,511
CHAPTERS:
Number          Time In         Length          Avg Video Rate  Max 1-Sec Rate  Max 1-Sec Time  Max 5-Sec Rate  Max 5-Sec Time  Max 10Sec Rate  Max 10Sec Time  Avg Frame Size  Max Frame Size  Max Frame Time
------          -------         ------          --------------  --------------  --------------  --------------  --------------  --------------  --------------  --------------  --------------  --------------
1               0:00:00.000     0:13:29.809     11,978 kbps     13,039 kbps     00:12:47.016    12,208 kbps     00:12:43.012    12,104 kbps     00:12:38.007    62,447 bytes    192,519 bytes   00:12:48.017
2               0:13:29.809     0:02:40.160     12,006 kbps     13,039 kbps     00:15:59.208    12,208 kbps     00:15:55.204    12,104 kbps     00:15:50.199    62,596 bytes    192,516 bytes   00:16:00.209
3               0:16:09.969     0:01:47.106     11,990 kbps     13,039 kbps     00:16:10.469    12,208 kbps     00:16:10.219    12,104 kbps     00:16:10.469    62,512 bytes    192,516 bytes   00:16:10.719
4               0:17:57.076     0:06:09.368     12,000 kbps     13,039 kbps     00:19:11.400    12,208 kbps     00:19:07.396    12,104 kbps     00:19:02.391    62,563 bytes    192,516 bytes   00:19:12.401
5               0:24:06.445     0:02:07.127     12,008 kbps     13,039 kbps     00:25:35.784    12,208 kbps     00:25:31.780    12,104 kbps     00:25:26.775    62,605 bytes    192,518 bytes   00:25:36.785
6               0:26:13.572     0:03:37.217     11,995 kbps     13,039 kbps     00:28:47.976    12,208 kbps     00:28:43.972    12,104 kbps     00:28:38.967    62,538 bytes    192,517 bytes   00:28:48.977
7               0:29:50.789     0:01:51.110     12,000 kbps     13,039 kbps     00:29:54.793    12,208 kbps     00:29:50.788    12,104 kbps     00:29:51.039    62,563 bytes    192,515 bytes   00:29:51.289
8               0:31:41.900     0:01:25.085     12,000 kbps     13,039 kbps     00:32:00.168    12,208 kbps     00:31:56.164    12,104 kbps     00:31:51.159    62,563 bytes    192,517 bytes   00:32:01.169
9               0:33:06.985     0:03:54.233     12,000 kbps     13,039 kbps     00:35:12.360    12,208 kbps     00:35:08.356    12,104 kbps     00:35:03.351    62,563 bytes    192,516 bytes   00:35:13.361
10              0:37:01.219     0:04:12.251     12,000 kbps     13,039 kbps     00:38:24.552    12,208 kbps     00:38:20.548    12,104 kbps     00:38:15.543    62,563 bytes    192,518 bytes   00:38:25.553
11              0:41:13.471     0:07:29.782     12,000 kbps     13,039 kbps     00:44:48.936    12,208 kbps     00:44:44.932    12,104 kbps     00:44:39.927    62,563 bytes    192,517 bytes   00:44:49.937
12              0:48:43.253     0:03:46.893     11,998 kbps     13,039 kbps     00:51:13.320    12,208 kbps     00:51:09.316    12,104 kbps     00:51:04.311    62,563 bytes    192,518 bytes   00:51:14.321
STREAM DIAGNOSTICS:
File            PID             Type            Codec           Language                Seconds                 Bitrate                 Bytes           Packets
----            ---             ----            -----           --------                --------------          --------------          -------------   -----
00012.M2TS      4113 (0x1011)   0x1B            AVC                                     3150.022                11,995                  4,722,970,574   25,738,604
00012.M2TS      4352 (0x1100)   0x80            LPCM            eng (English)           3150.022                2,308                   908,648,552     5,034,064
00012.M2TS      4353 (0x1101)   0x80            LPCM            eng (English)           3150.022                2,308                   908,648,552     5,034,064


QUICK SUMMARY:
Disc Title: RACKET109BD3
Disc Size: 23,157,125,246 bytes
Protection: AACS
BD-Java: No
Playlist: 00003.MPLS
Size: 6,895,159,296 bytes
Length: 0:52:30.147
Total Bitrate: 17.51 Mbps
Video: MPEG-4 AVC Video / 11994 kbps / 1080p / 23.976 fps / 16:9 / High Profile 4.1
Audio: English / LPCM Audio / 2.0 / 48 kHz / 2304 kbps / 24-bit
Audio: English / LPCM Audio / 2.0 / 48 kHz / 2304 kbps / 24-bit


Скриншоты




Состав
Steve Hogarth - singer, backing vocals, keys, percussion
Mark Kelly - keyboards
Pete Trewavas - bass guitar, backing vocals
Steve Rothery - lead & rhythm guitars
Ian Mosley - drums
                                                                                       
                       
                       
                       
                       
                       
                                磁力下载:(论坛代下载服务)
                                                               
                                       
游客,本主题需向作者支付 7音乐币 才能浏览,金币充值, 免回复、免金币,直接查看内容请开通VIP支付

                                               
  • 107.58 GB
  • 温馨提示

    记得善用社区搜索功能,那里可能会有你想要的资源;论坛站内搜索

    如果你有什么需要的资源可以去资源求档发帖,求助社区的网友,我们会在第一时间给你回复哦;资源求档

    对于本社区网盘链接失效密码错误各种报错请在反馈板块反馈报错发帖,您的支持,是我们发展的最大动力;投诉建议

    回复

    使用道具 举报

    您需要登录后才可以回帖 登录 | 立即注册 微信登录

    本版积分规则

    关注0

    粉丝12

    帖子69803

    发布主题
    阅读排行更多+
    关闭

    站长推荐上一条 /1 下一条

    收藏帖子 返回列表 这是一个自定义按钮
    音乐分享,音乐下载。
    微信公众号
    微信号:hires_
    意见反馈:admin@maomicd.com

    加入我们的官方QQ群和微信群

    Powered by Discuz! X3.4 Archiver|手机版|小黑屋|捌零音乐论坛 ( 苏ICP备20015413号 )|( 苏公网安备 32030502000272号) 繁體

    GMT+8, 2021-5-9 00:52