自购原抓音乐圈:只有自购、合购、原抓级高解析(hires、sacd、dsd)正版音乐资源分享!【点我打开
极速无线网卡:千兆无线网卡、服务器网卡、USB接口台式机笔记本网卡 硬盘代考无损音乐!【点我打开
广告

[摇滚] Night Ranger - 35 Years And A Night In Chicago [2016, Hard rock, Blu-ray, 1080i]

[复制链接]
lz189 发表于 2021-4-13 15:34:07 | 显示全部楼层 |阅读模式 打印 上一主题 下一主题
Night Ranger - 35 Years And A Night In Chicago
Жанр: Hard rock
Продолжительность: 01:37:46 + 00:04:52 (бонус)
Год выпуска: 2016
Описание: Iconic '80s rockers Night Ranger have sold more 17 million albums worldwide and boast several platinum and gold albums to their name.
In celebration of their 35 plus year career and in anticipation of their brand new studio album, expected for spring of 2017, this new live album, featuring all of their classic and most recent hits, sees the band at the top of their game, delivering a superb performance not to be missed!
Recorded May 7, 2016 this concert at the House Of Blues in Chicago, Illinois.
Треклист: 01. Intro
02. Touch Of Madness
03. Sing Me Away
04. Four In The Morning
05. Growing Up In California
06. Rumors In The Air
07. Secret Of My Success
08. Sentimental Street
09. High Road
10. Eddie's Comin' Out Tonight
11. Goodbye
12. Day & Night
13. Night Ranger
14. When You Close Your Eyes
15. Don't Tell Me You Love Me
16. Penny
17. Sister Christian
18. (You Can Still) Rock In America
19. Seven Wishes (Bonus Video) [00:04:52]
Качество: Blu-ray
Разрешение видео/развертка: 1080i
Контейнер: BDMV
Видео кодек: H.264
Аудио кодек: PCM
Видео: MPEG-4 AVC Video / 25963 kbps / 1080i / 29.970 fps / 16:9 / High Profile 4.1
Аудио: English / LPCM Audio / 2.0 / 48 kHz / 1536 kbps / 16-bit
BDInfo

Disc Label:     Night.Ranger.35.Years.and.a.Night.in.Chicago.2016.BluRay.1080i.AVC.LPCM.2.0
Disc Size:      22,519,947,040 bytes
Protection:     AACS
BDInfo:         0.7.5.5
Notes:
BDINFO HOME:
  Cinema Squid (old)
    http://www.cinemasquid.com/blu-ray/tools/bdinfo
  UniqProject GitHub (new)
   https://github.com/UniqProject/BDInfo
INCLUDES FORUMS REPORT FOR:
  AVS Forum Blu-ray Audio and Video Specifications Thread
    http://www.avsforum.com/avs-vb/showthread.php?t=1155731
********************
PLAYLIST: 00001.MPLS
********************

Код:

                                                                                Total   Video
Title                                                           Codec   Length  Movie Size      Disc Size       Bitrate Bitrate Main Audio Track                          Secondary Audio Track
-----                                                           ------  ------- --------------  --------------  ------- ------- ------------------                        ---------------------
00001.MPLS                                                      AVC     1:37:46 21,278,082,432  22,519,947,040  29.01   25.96   LPCM 2.0 1536Kbps (48kHz/16-bit)

Код:
DISC INFO:
Disc Label:     Night.Ranger.35.Years.and.a.Night.in.Chicago.2016.BluRay.1080i.AVC.LPCM.2.0
Disc Size:      22,519,947,040 bytes
Protection:     AACS
BDInfo:         0.7.5.5
PLAYLIST REPORT:
Name:                   00001.MPLS
Length:                 1:37:46.927 (h:m:s.ms)
Size:                   21,278,082,432 bytes
Total Bitrate:          29.01 Mbps
VIDEO:
Codec                   Bitrate             Description
-----                   -------             -----------
MPEG-4 AVC Video        25963 kbps          1080i / 29.970 fps / 16:9 / High Profile 4.1
AUDIO:
Codec                           Language        Bitrate         Description
-----                           --------        -------         -----------
LPCM Audio                      English         1536 kbps       2.0 / 48 kHz /  1536 kbps / 16-bit
FILES:
Name            Time In         Length          Size            Total Bitrate
----            -------         ------          ----            -------------
00001.M2TS      0:00:00.000     1:37:46.927     21,278,082,432  29,014
CHAPTERS:
Number          Time In         Length          Avg Video Rate  Max 1-Sec Rate  Max 1-Sec Time  Max 5-Sec Rate  Max 5-Sec Time  Max 10Sec Rate  Max 10Sec Time  Avg Frame Size  Max Frame Size  Max Frame Time
------          -------         ------          --------------  --------------  --------------  --------------  --------------  --------------  --------------  --------------  --------------  --------------
1               0:00:00.000     0:00:50.250     20,108 kbps     52,006 kbps     00:00:27.727    42,642 kbps     00:00:27.660    30,089 kbps     00:00:22.589    83,812 bytes    340,038 bytes   00:00:30.096
2               0:00:50.250     0:05:17.083     24,356 kbps     52,444 kbps     00:00:57.457    36,869 kbps     00:04:00.406    32,861 kbps     00:03:55.335    101,572 bytes   357,968 bytes   00:04:02.475
3               0:06:07.333     0:04:04.611     26,507 kbps     44,745 kbps     00:06:45.605    39,765 kbps     00:08:29.342    38,517 kbps     00:08:24.337    110,572 bytes   351,130 bytes   00:08:13.392
4               0:10:11.944     0:04:05.612     25,461 kbps     49,823 kbps     00:12:21.941    41,009 kbps     00:12:19.305    36,981 kbps     00:12:14.300    106,179 bytes   307,434 bytes   00:12:00.386
5               0:14:17.556     0:05:23.423     27,407 kbps     42,751 kbps     00:14:50.656    38,760 kbps     00:18:24.536    36,974 kbps     00:18:24.703    114,322 bytes   332,162 bytes   00:14:50.689
6               0:19:40.979     0:04:51.124     25,237 kbps     44,827 kbps     00:23:31.543    39,153 kbps     00:24:22.093    35,195 kbps     00:24:17.589    105,260 bytes   349,908 bytes   00:20:59.157
7               0:24:32.103     0:06:31.591     23,922 kbps     56,996 kbps     00:29:19.257    39,704 kbps     00:26:38.530    34,026 kbps     00:26:53.611    99,767 bytes    373,506 bytes   00:27:01.653
8               0:31:03.695     0:05:43.409     25,114 kbps     58,405 kbps     00:35:57.655    40,297 kbps     00:35:13.211    38,496 kbps     00:35:11.843    104,757 bytes   366,749 bytes   00:35:57.688
9               0:36:47.104     0:04:46.352     25,317 kbps     54,581 kbps     00:38:59.704    41,549 kbps     00:36:56.414    35,217 kbps     00:36:51.342    105,582 bytes   501,011 bytes   00:38:29.407
10              0:41:33.457     0:06:08.768     24,778 kbps     45,034 kbps     00:46:36.393    39,521 kbps     00:43:07.818    33,845 kbps     00:43:40.417    103,343 bytes   348,103 bytes   00:45:24.054
11              0:47:42.226     0:06:09.368     24,978 kbps     48,719 kbps     00:50:55.819    41,408 kbps     00:50:54.518    38,293 kbps     00:52:53.136    104,181 bytes   346,588 bytes   00:52:40.190
12              0:53:51.595     0:05:53.886     26,911 kbps     52,992 kbps     00:54:41.044    41,345 kbps     00:57:18.001    37,496 kbps     00:57:18.101    112,241 bytes   402,752 bytes   00:54:41.077
13              0:59:45.481     0:06:30.123     28,267 kbps     47,353 kbps     01:04:15.751    37,402 kbps     01:03:40.016    36,160 kbps     01:03:37.146    117,896 bytes   366,177 bytes   01:04:16.018
14              1:06:15.604     0:04:48.888     27,029 kbps     44,245 kbps     01:07:22.304    39,957 kbps     01:09:49.485    38,646 kbps     01:09:57.326    112,733 bytes   341,198 bytes   01:09:54.156
15              1:11:04.493     0:09:20.226     26,199 kbps     51,179 kbps     01:19:52.220    40,997 kbps     01:11:54.810    36,100 kbps     01:12:09.358    109,271 bytes   356,616 bytes   01:18:23.131
16              1:20:24.719     0:06:25.218     26,072 kbps     54,568 kbps     01:24:37.605    42,605 kbps     01:24:07.041    39,696 kbps     01:24:25.226    108,753 bytes   418,169 bytes   01:22:12.627
17              1:26:49.938     0:04:05.111     28,916 kbps     51,799 kbps     01:28:59.801    41,734 kbps     01:27:13.161    39,064 kbps     01:27:12.627    120,602 bytes   471,577 bytes   01:28:59.834
18              1:30:55.049     0:06:10.403     27,969 kbps     46,433 kbps     01:31:33.855    39,577 kbps     01:33:14.589    38,130 kbps     01:31:55.009    116,644 bytes   453,309 bytes   01:33:59.367
19              1:37:05.452     0:00:41.474     12,279 kbps     18,966 kbps     01:37:26.707    17,040 kbps     01:37:25.706    15,832 kbps     01:37:32.479    51,379 bytes    270,319 bytes   01:37:27.708
STREAM DIAGNOSTICS:
File            PID             Type            Codec           Language                Seconds                 Bitrate                 Bytes           Packets
----            ---             ----            -----           --------                --------------          --------------          -------------   -----
00001.M2TS      4113 (0x1011)   0x1B            AVC                                     5866.861                25,963                  19,040,480,273  103,586,525
00001.M2TS      4352 (0x1100)   0x80            LPCM            eng (English)           5866.861                1,542                   1,131,137,356   7,040,274


QUICK SUMMARY:
Disc Label: Night.Ranger.35.Years.and.a.Night.in.Chicago.2016.BluRay.1080i.AVC.LPCM.2.0
Disc Size: 22,519,947,040 bytes
Protection: AACS
Playlist: 00001.MPLS
Size: 21,278,082,432 bytes
Length: 1:37:46.927
Total Bitrate: 29.01 Mbps
Video: MPEG-4 AVC Video / 25963 kbps / 1080i / 29.970 fps / 16:9 / High Profile 4.1
Audio: English / LPCM Audio / 2.0 / 48 kHz /  1536 kbps / 16-bit
********************
PLAYLIST: 00002.MPLS
********************

Код:

                                                                                Total   Video
Title                                                           Codec   Length  Movie Size      Disc Size       Bitrate Bitrate Main Audio Track                          Secondary Audio Track
-----                                                           ------  ------- --------------  --------------  ------- ------- ------------------                        ---------------------
00002.MPLS                                                      AVC     0:04:52 983,774,592     22,519,947,040  26.91   23.94   LPCM 2.0 1536Kbps (48kHz/16-bit)

Код:
DISC INFO:
Disc Label:     Night.Ranger.35.Years.and.a.Night.in.Chicago.2016.BluRay.1080i.AVC.LPCM.2.0
Disc Size:      22,519,947,040 bytes
Protection:     AACS
BDInfo:         0.7.5.5
PLAYLIST REPORT:
Name:                   00002.MPLS
Length:                 0:04:52.492 (h:m:s.ms)
Size:                   983,774,592 bytes
Total Bitrate:          26.91 Mbps
VIDEO:
Codec                   Bitrate             Description
-----                   -------             -----------
MPEG-4 AVC Video        23941 kbps          1080i / 29.970 fps / 16:9 / High Profile 4.1
AUDIO:
Codec                           Language        Bitrate         Description
-----                           --------        -------         -----------
LPCM Audio                      English         1536 kbps       2.0 / 48 kHz /  1536 kbps / 16-bit
FILES:
Name            Time In         Length          Size            Total Bitrate
----            -------         ------          ----            -------------
00003.M2TS      0:00:00.000     0:04:52.492     983,774,592     26,904
CHAPTERS:
Number          Time In         Length          Avg Video Rate  Max 1-Sec Rate  Max 1-Sec Time  Max 5-Sec Rate  Max 5-Sec Time  Max 10Sec Rate  Max 10Sec Time  Avg Frame Size  Max Frame Size  Max Frame Time
------          -------         ------          --------------  --------------  --------------  --------------  --------------  --------------  --------------  --------------  --------------  --------------
1               0:00:00.000     0:04:52.492     23,944 kbps     54,386 kbps     00:01:42.469    37,195 kbps     00:01:49.509    33,525 kbps     00:01:42.469    99,889 bytes    329,057 bytes   00:01:52.879
STREAM DIAGNOSTICS:
File            PID             Type            Codec           Language                Seconds                 Bitrate                 Bytes           Packets
----            ---             ----            -----           --------                --------------          --------------          -------------   -----
00003.M2TS      4113 (0x1011)   0x1B            AVC                                     292.392                 23,952                  875,427,618     4,763,066
00003.M2TS      4352 (0x1100)   0x80            LPCM            eng (English)           292.392                 1,543                   56,386,288      350,952


QUICK SUMMARY:
Disc Label: Night.Ranger.35.Years.and.a.Night.in.Chicago.2016.BluRay.1080i.AVC.LPCM.2.0
Disc Size: 22,519,947,040 bytes
Protection: AACS
Playlist: 00002.MPLS
Size: 983,774,592 bytes
Length: 0:04:52.492
Total Bitrate: 26.91 Mbps
Video: MPEG-4 AVC Video / 23941 kbps / 1080i / 29.970 fps / 16:9 / High Profile 4.1
Audio: English / LPCM Audio / 2.0 / 48 kHz /  1536 kbps / 16-bit
********************
PLAYLIST: 00000.MPLS
********************

Код:

                                                                                Total   Video
Title                                                           Codec   Length  Movie Size      Disc Size       Bitrate Bitrate Main Audio Track                          Secondary Audio Track
-----                                                           ------  ------- --------------  --------------  ------- ------- ------------------                        ---------------------
00000.MPLS                                                      AVC     0:01:51 159,873,024     22,519,947,040  11.50   10.52   DD AC3 2.0 320Kbps

Код:
DISC INFO:
Disc Label:     Night.Ranger.35.Years.and.a.Night.in.Chicago.2016.BluRay.1080i.AVC.LPCM.2.0
Disc Size:      22,519,947,040 bytes
Protection:     AACS
BDInfo:         0.7.5.5
PLAYLIST REPORT:
Name:                   00000.MPLS
Length:                 0:01:51.177 (h:m:s.ms)
Size:                   159,873,024 bytes
Total Bitrate:          11.50 Mbps
VIDEO:
Codec                   Bitrate             Description
-----                   -------             -----------
MPEG-4 AVC Video        10520 kbps          1080i / 29.970 fps / 16:9 / High Profile 4.1
AUDIO:
Codec                           Language        Bitrate         Description
-----                           --------        -------         -----------
Dolby Digital Audio             English         320 kbps        2.0 / 48 kHz /   320 kbps / DN -31dB
SUBTITLES:
Codec                           Language        Bitrate         Description
-----                           --------        -------         -----------
Interactive Graphics            English         45.512 kbps
FILES:
Name            Time In         Length          Size            Total Bitrate
----            -------         ------          ----            -------------
00000.M2TS      0:00:00.000     0:01:51.177     159,873,024     11,504
CHAPTERS:
Number          Time In         Length          Avg Video Rate  Max 1-Sec Rate  Max 1-Sec Time  Max 5-Sec Rate  Max 5-Sec Time  Max 10Sec Rate  Max 10Sec Time  Avg Frame Size  Max Frame Size  Max Frame Time
------          -------         ------          --------------  --------------  --------------  --------------  --------------  --------------  --------------  --------------  --------------  --------------
1               0:00:00.000     0:01:51.177     10,520 kbps     15,005 kbps     00:00:00.300    11,578 kbps     00:00:00.500    10,931 kbps     00:00:00.200    43,875 bytes    671,720 bytes   00:01:16.276
STREAM DIAGNOSTICS:
File            PID             Type            Codec           Language                Seconds                 Bitrate                 Bytes           Packets
----            ---             ----            -----           --------                --------------          --------------          -------------   -----
00000.M2TS      4113 (0x1011)   0x1B            AVC                                     111.111                 10,526                  146,192,357     797,618
00000.M2TS      4352 (0x1100)   0x81            AC3             eng (English)           111.111                 320                     4,446,720       27,792
00000.M2TS      5120 (0x1400)   0x91            IGS             eng (English)           111.111                 46                      632,492         3,492


QUICK SUMMARY:
Disc Label: Night.Ranger.35.Years.and.a.Night.in.Chicago.2016.BluRay.1080i.AVC.LPCM.2.0
Disc Size: 22,519,947,040 bytes
Protection: AACS
Playlist: 00000.MPLS
Size: 159,873,024 bytes
Length: 0:01:51.177
Total Bitrate: 11.50 Mbps
Video: MPEG-4 AVC Video / 10520 kbps / 1080i / 29.970 fps / 16:9 / High Profile 4.1
Audio: English / Dolby Digital Audio / 2.0 / 48 kHz /   320 kbps / DN -31dB
Subtitle: English / 45.512 kbps
********************
PLAYLIST: 00003.MPLS
********************

Код:

                                                                                Total   Video
Title                                                           Codec   Length  Movie Size      Disc Size       Bitrate Bitrate Main Audio Track                          Secondary Audio Track
-----                                                           ------  ------- --------------  --------------  ------- ------- ------------------                        ---------------------
00003.MPLS                                                      AVC     0:00:28 93,109,632      22,519,947,040  26.23   24.80   DD AC3 2.0 192Kbps

Код:
DISC INFO:
Disc Label:     Night.Ranger.35.Years.and.a.Night.in.Chicago.2016.BluRay.1080i.AVC.LPCM.2.0
Disc Size:      22,519,947,040 bytes
Protection:     AACS
BDInfo:         0.7.5.5
PLAYLIST REPORT:
Name:                   00003.MPLS
Length:                 0:00:28.395 (h:m:s.ms)
Size:                   93,109,632 bytes
Total Bitrate:          26.23 Mbps
VIDEO:
Codec                   Bitrate             Description
-----                   -------             -----------
MPEG-4 AVC Video        24804 kbps          1080i / 29.970 fps / 16:9 / High Profile 4.1
AUDIO:
Codec                           Language        Bitrate         Description
-----                           --------        -------         -----------
Dolby Digital Audio             English         192 kbps        2.0 / 48 kHz /   192 kbps / DN -31dB
FILES:
Name            Time In         Length          Size            Total Bitrate
----            -------         ------          ----            -------------
00005.M2TS      0:00:00.000     0:00:28.395     93,109,632      26,202
CHAPTERS:
Number          Time In         Length          Avg Video Rate  Max 1-Sec Rate  Max 1-Sec Time  Max 5-Sec Rate  Max 5-Sec Time  Max 10Sec Rate  Max 10Sec Time  Avg Frame Size  Max Frame Size  Max Frame Time
------          -------         ------          --------------  --------------  --------------  --------------  --------------  --------------  --------------  --------------  --------------  --------------
1               0:00:00.000     0:00:28.395     24,833 kbps     44,655 kbps     00:00:01.134    40,800 kbps     00:00:01.034    36,787 kbps     00:00:00.734    103,820 bytes   229,736 bytes   00:00:01.901
STREAM DIAGNOSTICS:
File            PID             Type            Codec           Language                Seconds                 Bitrate                 Bytes           Packets
----            ---             ----            -----           --------                --------------          --------------          -------------   -----
00005.M2TS      4113 (0x1011)   0x1B            AVC                                     28.328                  24,892                  88,144,902      479,536
00005.M2TS      4352 (0x1100)   0x81            AC3             eng (English)           28.328                  192                     681,216         4,435


QUICK SUMMARY:
Disc Label: Night.Ranger.35.Years.and.a.Night.in.Chicago.2016.BluRay.1080i.AVC.LPCM.2.0
Disc Size: 22,519,947,040 bytes
Protection: AACS
Playlist: 00003.MPLS
Size: 93,109,632 bytes
Length: 0:00:28.395
Total Bitrate: 26.23 Mbps
Video: MPEG-4 AVC Video / 24804 kbps / 1080i / 29.970 fps / 16:9 / High Profile 4.1
Audio: English / Dolby Digital Audio / 2.0 / 48 kHz /   192 kbps / DN -31dB

Скриншоты











                                                                                       
                       
                       
                       
                       
                       
                                磁力下载:(论坛代下载服务)
                                                               
                                       
游客,本主题需向作者支付 7音乐币 才能浏览,金币充值, 免回复、免金币,直接查看内容请开通VIP支付

                                               
  • 20.97 GB
  • 温馨提示

    记得善用社区搜索功能,那里可能会有你想要的资源;论坛站内搜索

    如果你有什么需要的资源可以去资源求档发帖,求助社区的网友,我们会在第一时间给你回复哦;资源求档

    对于本社区网盘链接失效密码错误各种报错请在反馈板块反馈报错发帖,您的支持,是我们发展的最大动力;投诉建议

    回复

    使用道具 举报

    您需要登录后才可以回帖 登录 | 立即注册 微信登录

    本版积分规则

    关注0

    粉丝0

    帖子30120

    发布主题
    阅读排行更多+
    关闭

    站长推荐上一条 /1 下一条

    收藏帖子 返回列表 这是一个自定义按钮
    音乐分享,音乐下载。
    微信公众号
    微信号:hires_
    意见反馈:admin@maomicd.com

    加入我们的官方QQ群和微信群

    Powered by Discuz! X3.4 Archiver|手机版|小黑屋|捌零音乐论坛 ( 苏ICP备20015413号 )|( 苏公网安备 32030502000272号) 繁體

    GMT+8, 2021-5-10 06:48