自购原抓音乐圈:只有自购、合购、原抓级高解析(hires、sacd、dsd)正版音乐资源分享!【点我打开
极速无线网卡:千兆无线网卡、服务器网卡、USB接口台式机笔记本网卡 硬盘代考无损音乐!【点我打开
广告

[摇滚] Udo Lindenberg: MTV Unplugged 2 ★ Live vom Atlantik [2018, Rock, Blu-ray, 1080i]

[复制链接]
韬199435 发表于 2021-4-13 15:34:06 | 显示全部楼层 |阅读模式 打印 上一主题 下一主题
Live vom Atlantik
Жанр: Rock
Продолжительность: 02:27:13+00:25:59
Год выпуска: 14. Dezember 2018
Лейбл: Warner Music Germany
ASIN: B07JG6VTDM
Качество: Blu-ray
Разрешение видео/развертка: 1080i
Контейнер: BDMV
Видео кодек: MPEG-4 AVC Video
Аудио кодек: PCM, DTS-HD
Видео: MPEG-4 AVC Video 29000 kbps 1080i / 25 fps / 16:9 / High Profile 4.1
Аудио 1: LPCM Audio German 2304 kbps 2.0 / 48 kHz / 2304 kbps / 24-bit
Аудио 2: DTS-HD Master Audio German 4686 kbps 5.1 / 48 kHz / 4686 kbps / 24-bit (DTS Core: 5.1 / 48 kHz / 1509 kbps / 24-bit)


Треклист
01. Panik-Pirat (MTV Unplugged 2)
02. Ich träume oft davon, ein Segelboot zu klau'n (MTV Unplugged 2)
03. Hoch im Norden (feat. Jan Delay) [MTV Unplugged 2]
04. Wenn du durchhängst (MTV Unplugged 2)
05. Du knallst in mein Leben (feat. Deine Cousine) [MTV Unplugged 2]
06. Meine erste Liebe (feat. Nathalie Dorra) [MTV Unplugged 2]
07. Radio Song (feat. Andreas Bourani) [MTV Unplugged 2]
08. Der Malocher (MTV Unplugged 2)
09. Fernweh (MTV Unplugged 2)
10. Cowboy Rocker (feat. The Last Bandoleros) [MTV Unplugged 2]
11. Alles was sie anhat (MTV Unplugged 2)
12. Kleiner Junge (feat. Gentleman) [MTV Unplugged 2]
13. Wir ziehen in den Frieden (feat. KIDS ON STAGE) [MTV Unplugged 2]
14. Tatort (MTV Unplugged 2)
15. Bist du vom KGB 2018 (feat. Maria Furtwängler) [MTV Unplugged 2]
16. Niemals dran gezweifelt (MTV Unplugged 2)
17. No More Mr. Nice Guy (So'n Ruf musste dir verdienen) [feat. Alice Cooper] [MTV Unplugged 2]
18. Bananenrepublik 2018 (feat. Marteria) [MTV Unplugged 2]
19. Lady Whisky (MTV Unplugged 2)
20. Königreich (MTV Unplugged 2)
21. König von Scheißegalien 2018 (Walk on the Wild Side) [MTV Unplugged 2]
22. Flipper (MTV Unplugged 2)
23. Durch die schweren Zeiten (I'll Carry You) [feat. Angus & Julia Stone] [MTV Unplugged 2]
24. Kugel im Colt (MTV Unplugged 2)
25. Freundschaft (MTV Unplugged 2)
26. Alles im Lot auf dem Riverboat (MTV Unplugged 2)
27. Der Astronaut muss weiter (MTV Unplugged 2)
28. Sandmännchen (MTV Unplugged 2)
29. Rock'n'Roller (MTV Unplugged 2)
30. Good Bye Jonny (MTV Unplugged 2)
31. Sternenreise (feat. Jean-Jacques Kravetz) [MTV Unplugged 2]
32. Abspann (MTV Unplugged 2)
Making Of Udo Lindenberg MTV Unplugged 2 - Live vom Atlantik

Отчёт MediaInfo / BDInfo

Disc Title:     Udo Lindenberg - MTV Unplugged 2 (Live vom Atlantik) 2018 (Blu-ray)
Disc Size:      48 519 844 890 bytes
Protection:     AACS
BD-Java:        No
Extras:         50Hz Content
BDInfo:         0.5.8
Notes:
BDINFO HOME:
  Cinema Squid
    http://www.cinemasquid.com/blu-ray/tools/bdinfo
INCLUDES FORUMS REPORT FOR:
  AVS Forum Blu-ray Audio and Video Specifications Thread
    http://www.avsforum.com/avs-vb/showthread.php?t=1155731
********************
PLAYLIST: 00003.MPLS
********************

Код:

                                                                                Total   Video
Title                                                           Codec   Length  Movie Size      Disc Size       Bitrate Bitrate Main Audio Track                          Secondary Audio Track
-----                                                           ------  ------- --------------  --------------  ------- ------- ------------------                        ---------------------
00003.MPLS                                                      AVC     2:27:13 41 870 260 224  48 519 844 890  37,92   29,00   LPCM 2.0 2304Kbps (48kHz/24-bit)          DTS-HD Master 5.1 4686Kbps (48kHz/24-bit)

Код:
DISC INFO:
Disc Title:     Udo Lindenberg - MTV Unplugged 2 (Live vom Atlantik) 2018 (Blu-ray)
Disc Size:      48 519 844 890 bytes
Protection:     AACS
BD-Java:        No
Extras:         50Hz Content
BDInfo:         0.5.8
PLAYLIST REPORT:
Name:                   00003.MPLS
Length:                 2:27:13.000 (h:m:s.ms)
Size:                   41 870 260 224 bytes
Total Bitrate:          37,92 Mbps
VIDEO:
Codec                   Bitrate             Description
-----                   -------             -----------
MPEG-4 AVC Video        29000 kbps          1080i / 25 fps / 16:9 / High Profile 4.1
AUDIO:
Codec                           Language        Bitrate         Description
-----                           --------        -------         -----------
LPCM Audio                      German          2304 kbps       2.0 / 48 kHz / 2304 kbps / 24-bit
DTS-HD Master Audio             German          4686 kbps       5.1 / 48 kHz / 4686 kbps / 24-bit (DTS Core: 5.1 / 48 kHz / 1509 kbps / 24-bit)
FILES:
Name            Time In         Length          Size            Total Bitrate
----            -------         ------          ----            -------------
00006.M2TS      0:00:00.000     2:27:13.000     41 870 260 224  37 922
CHAPTERS:
Number          Time In         Length          Avg Video Rate  Max 1-Sec Rate  Max 1-Sec Time  Max 5-Sec Rate  Max 5-Sec Time  Max 10Sec Rate  Max 10Sec Time  Avg Frame Size  Max Frame Size  Max Frame Time
------          -------         ------          --------------  --------------  --------------  --------------  --------------  --------------  --------------  --------------  --------------  --------------
1               0:00:00.000     0:02:00.279     20 773 kbps     32 142 kbps     00:01:43.519    30 893 kbps     00:00:01.480    30 661 kbps     00:00:56.320    103 832 bytes   314 030 bytes   00:00:57.360
2               0:02:00.279     0:03:26.000     29 024 kbps     32 392 kbps     00:03:18.440    31 077 kbps     00:03:25.839    30 974 kbps     00:03:40.400    145 122 bytes   361 698 bytes   00:03:19.360
3               0:05:26.279     0:05:26.239     28 272 kbps     32 326 kbps     00:10:01.959    31 103 kbps     00:09:44.080    30 941 kbps     00:09:39.360    141 358 bytes   389 856 bytes   00:07:31.480
4               0:10:52.519     0:04:22.240     28 358 kbps     32 803 kbps     00:10:53.440    31 185 kbps     00:11:13.519    30 725 kbps     00:11:49.799    141 790 bytes   400 808 bytes   00:10:54.440
5               0:15:14.760     0:04:24.799     28 545 kbps     33 288 kbps     00:18:41.000    31 035 kbps     00:19:04.760    30 973 kbps     00:19:20.879    142 723 bytes   365 393 bytes   00:16:54.440
6               0:19:39.559     0:07:12.680     28 773 kbps     34 249 kbps     00:24:55.040    31 283 kbps     00:22:52.720    30 974 kbps     00:26:33.000    143 867 bytes   381 039 bytes   00:21:06.839
7               0:26:52.239     0:06:00.680     29 219 kbps     32 697 kbps     00:32:23.680    31 212 kbps     00:32:22.160    30 997 kbps     00:32:17.120    146 095 bytes   399 337 bytes   00:32:25.559
8               0:32:52.919     0:04:00.560     29 241 kbps     32 476 kbps     00:36:33.000    31 114 kbps     00:34:16.959    30 955 kbps     00:34:12.120    146 207 bytes   368 242 bytes   00:34:57.360
9               0:36:53.480     0:01:04.399     26 193 kbps     32 355 kbps     00:37:42.400    30 820 kbps     00:37:38.400    30 569 kbps     00:37:08.559    130 966 bytes   373 043 bytes   00:37:35.400
10              0:37:57.879     0:05:27.880     29 176 kbps     33 509 kbps     00:40:52.959    31 139 kbps     00:42:50.559    30 981 kbps     00:38:38.839    145 882 bytes   379 682 bytes   00:40:29.839
11              0:43:25.760     0:07:36.680     29 613 kbps     33 144 kbps     00:48:14.000    31 145 kbps     00:48:20.800    30 963 kbps     00:48:48.000    148 063 bytes   374 607 bytes   00:43:35.040
12              0:51:02.440     0:06:30.959     28 800 kbps     33 051 kbps     00:55:19.440    31 117 kbps     00:57:12.760    30 979 kbps     00:57:22.839    143 998 bytes   379 445 bytes   00:55:56.360
13              0:57:33.400     0:05:24.879     28 655 kbps     32 815 kbps     01:00:10.760    31 235 kbps     01:01:57.080    30 999 kbps     01:01:52.080    143 276 bytes   406 265 bytes   00:59:07.360
14              1:02:58.279     0:01:15.400     29 136 kbps     32 554 kbps     01:03:42.720    31 020 kbps     01:03:58.000    30 846 kbps     01:03:57.519    145 681 bytes   385 227 bytes   01:03:36.080
15              1:04:13.680     0:07:01.519     30 485 kbps     32 950 kbps     01:10:29.400    31 226 kbps     01:10:51.040    31 044 kbps     01:10:46.000    152 427 bytes   395 249 bytes   01:10:55.959
16              1:11:15.199     0:05:59.960     29 399 kbps     32 707 kbps     01:13:35.040    31 205 kbps     01:13:51.800    31 040 kbps     01:13:53.280    146 993 bytes   394 812 bytes   01:13:09.680
17              1:17:15.160     0:04:57.159     29 938 kbps     33 230 kbps     01:18:48.599    31 235 kbps     01:17:56.120    30 950 kbps     01:21:48.559    149 690 bytes   373 609 bytes   01:19:27.720
18              1:22:12.320     0:05:08.800     29 304 kbps     33 194 kbps     01:23:51.320    31 198 kbps     01:24:28.519    30 981 kbps     01:22:32.879    146 521 bytes   378 557 bytes   01:22:41.919
19              1:27:21.120     0:05:16.199     29 402 kbps     32 608 kbps     01:32:05.000    31 147 kbps     01:29:10.919    30 968 kbps     01:30:50.799    147 009 bytes   398 973 bytes   01:32:37.320
20              1:32:37.320     0:01:27.919     21 676 kbps     30 892 kbps     01:32:48.440    29 669 kbps     01:32:45.879    27 778 kbps     01:32:40.879    108 380 bytes   246 341 bytes   01:32:37.360
21              1:34:05.239     0:04:45.240     29 171 kbps     32 583 kbps     01:37:16.040    31 170 kbps     01:38:12.120    30 954 kbps     01:35:03.919    145 857 bytes   404 404 bytes   01:37:18.000
22              1:38:50.480     0:06:35.159     29 951 kbps     33 420 kbps     01:40:11.879    31 290 kbps     01:40:08.279    31 035 kbps     01:44:54.479    149 757 bytes   411 065 bytes   01:38:55.480
23              1:45:25.639     0:04:35.239     29 854 kbps     33 402 kbps     01:48:55.839    31 199 kbps     01:48:51.639    30 992 kbps     01:48:46.919    149 271 bytes   386 768 bytes   01:47:33.080
24              1:50:00.879     0:04:03.800     29 855 kbps     32 642 kbps     01:50:12.519    31 178 kbps     01:50:11.480    30 982 kbps     01:52:50.000    149 277 bytes   378 719 bytes   01:53:00.040
25              1:54:04.680     0:00:54.879     15 053 kbps     31 482 kbps     01:54:05.879    30 437 kbps     01:54:05.000    26 520 kbps     01:54:04.680    75 264 bytes    257 550 bytes   01:54:08.959
26              1:54:59.559     0:06:21.800     30 187 kbps     33 227 kbps     01:58:19.680    31 213 kbps     02:00:34.279    31 010 kbps     02:01:06.720    150 937 bytes   385 708 bytes   02:01:20.519
27              2:01:21.360     0:05:27.599     29 380 kbps     32 974 kbps     02:02:51.599    31 190 kbps     02:06:34.080    31 026 kbps     02:04:09.879    146 901 bytes   414 699 bytes   02:03:41.839
28              2:06:48.959     0:03:48.440     29 784 kbps     34 435 kbps     02:10:13.160    31 256 kbps     02:07:22.879    31 034 kbps     02:07:17.960    148 922 bytes   372 796 bytes   02:06:52.080
29              2:10:37.400     0:03:58.799     30 495 kbps     33 044 kbps     02:14:06.680    31 067 kbps     02:10:43.559    30 929 kbps     02:11:32.400    152 476 bytes   335 774 bytes   02:10:41.839
30              2:14:36.199     0:06:00.639     29 774 kbps     33 109 kbps     02:17:24.640    31 184 kbps     02:16:24.800    30 955 kbps     02:16:19.680    148 871 bytes   347 520 bytes   02:15:03.239
31              2:20:36.839     0:02:45.040     29 417 kbps     32 754 kbps     02:20:54.160    31 187 kbps     02:22:25.640    30 955 kbps     02:20:45.120    147 084 bytes   401 671 bytes   02:21:18.480
32              2:23:21.879     0:03:51.120     25 984 kbps     32 562 kbps     02:25:48.040    31 252 kbps     02:25:44.040    30 997 kbps     02:25:39.000    129 944 bytes   425 864 bytes   02:25:48.760
STREAM DIAGNOSTICS:
File            PID             Type            Codec           Language                Seconds                 Bitrate                 Bytes           Packets
----            ---             ----            -----           --------                --------------          --------------          -------------   -----
00006.M2TS      4113 (0x1011)   0x1B            AVC                                     8832,920                29 000                  32 019 439 125  174 147 391
00006.M2TS      4352 (0x1100)   0x80            LPCM            deu (German)            8832,920                2 310                   2 550 970 400   14 132 800
00006.M2TS      4353 (0x1101)   0x86            DTS-HD MA       deu (German)            8832,920                4 686                   5 174 284 500   29 498 158


QUICK SUMMARY:
Disc Title: Udo Lindenberg - MTV Unplugged 2 (Live vom Atlantik) 2018 (Blu-ray)
Disc Size: 48 519 844 890 bytes
Protection: AACS
BD-Java: No
Playlist: 00003.MPLS
Size: 41 870 260 224 bytes
Length: 2:27:13.000
Total Bitrate: 37,92 Mbps
Video: MPEG-4 AVC Video / 29000 kbps / 1080i / 25 fps / 16:9 / High Profile 4.1
Audio: German / LPCM Audio / 2.0 / 48 kHz / 2304 kbps / 24-bit
Audio: German / DTS-HD Master Audio / 5.1 / 48 kHz / 4686 kbps / 24-bit (DTS Core: 5.1 / 48 kHz / 1509 kbps / 24-bit)
********************
PLAYLIST: 00004.MPLS
********************

Код:

                                                                                Total   Video
Title                                                           Codec   Length  Movie Size      Disc Size       Bitrate Bitrate Main Audio Track                          Secondary Audio Track
-----                                                           ------  ------- --------------  --------------  ------- ------- ------------------                        ---------------------
00004.MPLS                                                      AVC     0:25:59 5 615 400 960   48 519 844 890  28,80   24,00   LPCM 2.0 1536Kbps (48kHz/16-bit)          LPCM 2.0 1536Kbps (48kHz/16-bit)

Код:
DISC INFO:
Disc Title:     Udo Lindenberg - MTV Unplugged 2 (Live vom Atlantik) 2018 (Blu-ray)
Disc Size:      48 519 844 890 bytes
Protection:     AACS
BD-Java:        No
Extras:         50Hz Content
BDInfo:         0.5.8
PLAYLIST REPORT:
Name:                   00004.MPLS
Length:                 0:25:59.720 (h:m:s.ms)
Size:                   5 615 400 960 bytes
Total Bitrate:          28,80 Mbps
VIDEO:
Codec                   Bitrate             Description
-----                   -------             -----------
MPEG-4 AVC Video        23998 kbps          1080i / 25 fps / 16:9 / High Profile 4.1
AUDIO:
Codec                           Language        Bitrate         Description
-----                           --------        -------         -----------
LPCM Audio                      German          1536 kbps       2.0 / 48 kHz / 1536 kbps / 16-bit
LPCM Audio                      German          1536 kbps       2.0 / 48 kHz / 1536 kbps / 16-bit
FILES:
Name            Time In         Length          Size            Total Bitrate
----            -------         ------          ----            -------------
00007.M2TS      0:00:00.000     0:25:59.720     5 615 400 960   28 802
CHAPTERS:
Number          Time In         Length          Avg Video Rate  Max 1-Sec Rate  Max 1-Sec Time  Max 5-Sec Rate  Max 5-Sec Time  Max 10Sec Rate  Max 10Sec Time  Avg Frame Size  Max Frame Size  Max Frame Time
------          -------         ------          --------------  --------------  --------------  --------------  --------------  --------------  --------------  --------------  --------------  --------------
1               0:00:00.000     0:09:22.839     23 478 kbps     37 130 kbps     00:00:54.599    35 206 kbps     00:00:50.639    34 279 kbps     00:00:45.960    117 380 bytes   430 536 bytes   00:09:22.839
2               0:09:22.839     0:06:33.000     24 068 kbps     38 064 kbps     00:10:41.319    35 158 kbps     00:10:01.360    35 005 kbps     00:09:54.760    120 338 bytes   558 269 bytes   00:10:42.279
3               0:15:55.839     0:07:02.440     25 116 kbps     37 350 kbps     00:18:03.959    35 226 kbps     00:17:59.879    34 936 kbps     00:17:54.239    125 582 bytes   544 578 bytes   00:18:04.279
4               0:22:58.279     0:03:01.440     22 860 kbps     36 405 kbps     00:24:37.919    34 951 kbps     00:24:42.680    34 019 kbps     00:24:38.279    114 325 bytes   431 421 bytes   00:24:38.559
STREAM DIAGNOSTICS:
File            PID             Type            Codec           Language                Seconds                 Bitrate                 Bytes           Packets
----            ---             ----            -----           --------                --------------          --------------          -------------   -----
00007.M2TS      4113 (0x1011)   0x1B            AVC                                     1559,560                24 001                  4 678 824 264   25 451 173
00007.M2TS      4352 (0x1100)   0x80            LPCM            deu (German)            1559,560                1 543                   300 721 728     1 871 712
00007.M2TS      4353 (0x1101)   0x80            LPCM            deu (German)            1559,560                1 543                   300 721 728     1 871 712


QUICK SUMMARY:
Disc Title: Udo Lindenberg - MTV Unplugged 2 (Live vom Atlantik) 2018 (Blu-ray)
Disc Size: 48 519 844 890 bytes
Protection: AACS
BD-Java: No
Playlist: 00004.MPLS
Size: 5 615 400 960 bytes
Length: 0:25:59.720
Total Bitrate: 28,80 Mbps
Video: MPEG-4 AVC Video / 23998 kbps / 1080i / 25 fps / 16:9 / High Profile 4.1
Audio: German / LPCM Audio / 2.0 / 48 kHz / 1536 kbps / 16-bit
Audio: German / LPCM Audio / 2.0 / 48 kHz / 1536 kbps / 16-bit
********************
PLAYLIST: 00006.MPLS
********************

Код:

                                                                                Total   Video
Title                                                           Codec   Length  Movie Size      Disc Size       Bitrate Bitrate Main Audio Track                          Secondary Audio Track
-----                                                           ------  ------- --------------  --------------  ------- ------- ------------------                        ---------------------
00006.MPLS                                                      AVC     0:02:16 510 210 048     48 519 844 890  30,01   24,96   LPCM 2.0 1536Kbps (48kHz/16-bit)          LPCM 2.0 1536Kbps (48kHz/16-bit)

Код:
DISC INFO:
Disc Title:     Udo Lindenberg - MTV Unplugged 2 (Live vom Atlantik) 2018 (Blu-ray)
Disc Size:      48 519 844 890 bytes
Protection:     AACS
BD-Java:        No
Extras:         50Hz Content
BDInfo:         0.5.8
PLAYLIST REPORT:
Name:                   00006.MPLS
Length:                 0:02:16.000 (h:m:s.ms)
Size:                   510 210 048 bytes
Total Bitrate:          30,01 Mbps
VIDEO:
Codec                   Bitrate             Description
-----                   -------             -----------
MPEG-4 AVC Video        24964 kbps          1080i / 25 fps / 16:9 / High Profile 4.1
AUDIO:
Codec                           Language        Bitrate         Description
-----                           --------        -------         -----------
LPCM Audio                      Undetermined    1536 kbps       2.0 / 48 kHz / 1536 kbps / 16-bit
LPCM Audio                      Undetermined    1536 kbps       2.0 / 48 kHz / 1536 kbps / 16-bit
SUBTITLES:
Codec                           Language        Bitrate         Description
-----                           --------        -------         -----------
Interactive Graphics            German          193,034 kbps
FILES:
Name            Time In         Length          Size            Total Bitrate
----            -------         ------          ----            -------------
00004.M2TS      0:00:00.000     0:02:16.000     510 210 048     30 012
CHAPTERS:
Number          Time In         Length          Avg Video Rate  Max 1-Sec Rate  Max 1-Sec Time  Max 5-Sec Rate  Max 5-Sec Time  Max 10Sec Rate  Max 10Sec Time  Avg Frame Size  Max Frame Size  Max Frame Time
------          -------         ------          --------------  --------------  --------------  --------------  --------------  --------------  --------------  --------------  --------------  --------------
1               0:00:00.000     0:02:16.000     24 964 kbps     36 736 kbps     00:00:03.519    30 384 kbps     00:00:01.160    26 962 kbps     00:00:00.960    124 820 bytes   639 886 bytes   00:01:21.000
STREAM DIAGNOSTICS:
File            PID             Type            Codec           Language                Seconds                 Bitrate                 Bytes           Packets
----            ---             ----            -----           --------                --------------          --------------          -------------   -----
00004.M2TS      4113 (0x1011)   0x1B            AVC                                     135,840                 24 993                  424 388 561     2 308 430
00004.M2TS      4352 (0x1100)   0x80            LPCM            und (Undetermined)      135,840                 1 544                   26 220 800      163 200
00004.M2TS      4353 (0x1101)   0x80            LPCM            und (Undetermined)      135,840                 1 544                   26 220 800      163 200
00004.M2TS      5120 (0x1400)   0x91            IGS             deu (German)            135,840                 193                     3 281 570       17 935


QUICK SUMMARY:
Disc Title: Udo Lindenberg - MTV Unplugged 2 (Live vom Atlantik) 2018 (Blu-ray)
Disc Size: 48 519 844 890 bytes
Protection: AACS
BD-Java: No
Playlist: 00006.MPLS
Size: 510 210 048 bytes
Length: 0:02:16.000
Total Bitrate: 30,01 Mbps
Video: MPEG-4 AVC Video / 24964 kbps / 1080i / 25 fps / 16:9 / High Profile 4.1
Audio: Undetermined / LPCM Audio / 2.0 / 48 kHz / 1536 kbps / 16-bit
Audio: Undetermined / LPCM Audio / 2.0 / 48 kHz / 1536 kbps / 16-bit
Subtitle: German / 193,034 kbps


Скриншоты























Мои раздачи ®
https://rutracker.org/forum/https://rutracker.net/forum/tracker.php?rid=9539252


                                                                                       
                       
                       
                       
                       
                       
                                磁力下载:(论坛代下载服务)
                                                               
                                       
游客,本主题需向作者支付 7音乐币 才能浏览,金币充值, 免回复、免金币,直接查看内容请开通VIP支付

                                               
  • 45.19 GB
  • 温馨提示

    记得善用社区搜索功能,那里可能会有你想要的资源;论坛站内搜索

    如果你有什么需要的资源可以去资源求档发帖,求助社区的网友,我们会在第一时间给你回复哦;资源求档

    对于本社区网盘链接失效密码错误各种报错请在反馈板块反馈报错发帖,您的支持,是我们发展的最大动力;投诉建议

    回复

    使用道具 举报

    您需要登录后才可以回帖 登录 | 立即注册 微信登录

    本版积分规则

    关注0

    粉丝0

    帖子30176

    发布主题
    阅读排行更多+
    关闭

    站长推荐上一条 /1 下一条

    收藏帖子 返回列表 这是一个自定义按钮
    音乐分享,音乐下载。
    微信公众号
    微信号:hires_
    意见反馈:admin@maomicd.com

    加入我们的官方QQ群和微信群

    Powered by Discuz! X3.4 Archiver|手机版|小黑屋|捌零音乐论坛 ( 苏ICP备20015413号 )|( 苏公网安备 32030502000272号) 繁體

    GMT+8, 2021-5-18 19:06