自购原抓音乐圈:只有自购、合购、原抓级高解析(hires、sacd、dsd)正版音乐资源分享!【点我打开
极速无线网卡:千兆无线网卡、服务器网卡、USB接口台式机笔记本网卡 硬盘代考无损音乐!【点我打开
广告

[摇滚] Motley Crue - The End: Live in Los Angeles [2016, Glam Rock, BDRip, 1080p]

[复制链接]
kayda 发表于 2021-4-13 15:34:06 | 显示全部楼层 |阅读模式 打印 上一主题 下一主题
The End
Live in Los Angeles
Жанр: Glam Rock
Продолжительность: 01:48:08
Год выпуска: 2016Описание: On December 31, 2015, before a sold-out Staples Center arena in Los Angeles, Mötley Crüe bid their final farewell. Their 35-year career as a band ended with a spectacular New Year’s Eve performance in their hometown, just a few miles from where it all started on the Sunset Strip. Mötley Crüe: The End – Live In Los Angeles – presented earlier this year in theaters worldwide – captures performances of such mega-hits as “Kickstart My Heart,” “Girls, Girls, Girls,” “Smokin’ in the Boys Room,” and “Dr. Feelgood.” Eagle Rock Entertainment brings the show home on DVD+CD, Blu-ray+CD, and Digital Formats on November 4, 2016.Треклист:
1) Intro
2) Girls, Girls, Girls
3) Wild Side
4) Primal Scream
5) Same Ol' Situation (S.O.S.)
6) Don't Go Away Mad (Just Go Away)
7) Rock N Roll Part II / Smokin' In The Boys' Room
8) Looks That Kill
9) Mutherf***** Of The Year
10) In The Beginning / Shout At The Devil
11) Louder Than Hell
12) Drum Solo
13) Guitar Solo
14) Saints Of Los Angeles
15) Live Wire
16) T.N.T. (Terror 'N Tinseltown) / Dr. Feelgood
17) Kickstart My Heart
18) Home Sweet Home
19) My Way (Credits)Источник: Motley Crue - The End: Live in Los Angeles Blu Ray
Спасибо добряку tatukСемплик
Сравнения скриншотов
http://screenshotcomparison.com/comparison/191156
http://screenshotcomparison.com/comparison/191157/picture:1
Качество: BDRip
Разрешение видео/развертка: 1080p
Контейнер: MKV
Видео кодек: H.264
Аудио кодек: PCM / DTS
Видео: MPEG-4 AVC / 1920*1008 / 6868 kbps / 23.97 fps
Аудио #1: PCM /2304 kbps / 48.0 khz / 2 ch / 24 bit
Аудио #2: DTS /768 kbps / 48.0 khz / 6 ch / 24 bit
MI

Общее
Уникальный идентификатор                 : 184427713286305184010436723292579547622 (0x8ABF7C4D9D301531AAA4D0841D3FC9E6)
Полное имя                               : D:\Video\Motley Crue - The End Live in Los Angeles.mkv
Формат                                   : Matroska
Версия формата                           : Version 4 / Version 2
Размер файла                             : 7,51 Гбайт
Продолжительность                        : 1 ч. 48 м.
Общий поток                              : 9938 Кбит/сек
Дата кодирования                         : UTC 2016-11-17 08:51:35
Программа кодирования                    : mkvmerge v7.1.0 ('Good Love') 64bit built on Jul 27 2014 13:06:55
Библиотека кодирования                   : libebml v1.3.0 + libmatroska v1.4.1
Видео
Идентификатор                            : 1
Формат                                   : AVC
Формат/Информация                        : Advanced Video Codec
Профиль формата                          : High@L4.1
Параметр CABAC формата                   : Да
Параметр ReFrames формата                : 4 кадра
Идентификатор кодека                     : V_MPEG4/ISO/AVC
Продолжительность                        : 1 ч. 48 м.
Битрейт                                  : 6868 Кбит/сек
Ширина                                   : 1920 пикселей
Высота                                   : 1008 пикселей
Соотношение сторон                       : 1,905
Режим частоты кадров                     : Постоянный
Частота кадров                           : 23,976 (24000/1001) кадра/сек
Цветовое пространство                    : YUV
Субдискретизация насыщенности            : 4:2:0
Битовая глубина                          : 8 бит
Тип развёртки                            : Прогрессивная
Бит/(Пиксели*Кадры)                      : 0.148
Размер потока                            : 5,18 Гбайт (69%)
Библиотека кодирования                   : x264 core 148 r2638 7599210
Настройки программы                      : cabac=1 / ref=4 / deblock=1:-1:-1 / analyse=0x3:0x133 / me=umh / subme=9 / psy=1 / psy_rd=1.00:0.15 / mixed_ref=1 / me_range=24 / chroma_me=1 / trellis=2 / 8x8dct=1 / cqm=0 / deadzone=21,11 / fast_pskip=1 / chroma_qp_offset=-3 / threads=6 / lookahead_threads=1 / sliced_threads=0 / nr=0 / decimate=1 / interlaced=0 / bluray_compat=0 / constrained_intra=0 / bframes=6 / b_pyramid=2 / b_adapt=2 / b_bias=0 / direct=3 / weightb=1 / open_gop=0 / weightp=2 / keyint=240 / keyint_min=23 / scenecut=40 / intra_refresh=0 / rc_lookahead=60 / rc=2pass / mbtree=1 / bitrate=6868 / ratetol=1.0 / qcomp=0.60 / qpmin=0 / qpmax=69 / qpstep=4 / cplxblur=20.0 / qblur=0.5 / vbv_maxrate=50000 / vbv_bufsize=50000 / nal_hrd=none / filler=0 / ip_ratio=1.40 / aq=1:1.00
Default                                  : Да
Forced                                   : Нет
Аудио #1
Идентификатор                            : 2
Формат                                   : PCM
Идентификатор кодека                     : A_PCM/INT/LIT
Продолжительность                        : 1 ч. 48 м.
Вид битрейта                             : Постоянный
Битрейт                                  : 2304 Кбит/сек
Каналы                                   : 2 канала
Частота                                  : 48,0 КГц
Частота кадров                           : 32,000 кадра/сек (1500 spf)
Битовая глубина                          : 24 бит
Размер потока                            : 1,74 Гбайт (23%)
Default                                  : Да
Forced                                   : Нет
Аудио #2
Идентификатор                            : 3
Формат                                   : DTS
Формат/Информация                        : Digital Theater Systems
Режим                                    : 16
Параметр Endianness формата              : Big
Идентификатор кодека                     : A_DTS
Продолжительность                        : 1 ч. 48 м.
Вид битрейта                             : Постоянный
Битрейт                                  : 768 Кбит/сек
Каналы                                   : 6 каналов
Расположение каналов                     : Front: L C R, Side: L R, LFE
Частота                                  : 48,0 КГц
Частота кадров                           : 93,750 кадра/сек (512 spf)
Битовая глубина                          : 24 бит
Метод сжатия                             : С потерями
Размер потока                            : 594 Мбайт (8%)
Default                                  : Нет
Forced                                   : Нет
Меню
00:00:00.000                             : en:Intro
00:06:31.140                             : en:Girls, Girls, Girls
00:11:05.706                             : en:Wild Side
00:16:29.905                             : en:Primal Scream
00:22:22.716                             : en:Same Ol' Situation (S.O.S.)
00:26:45.478                             : en:Don't Go Away Mad (Just Go Away)
00:31:28.928                             : en:Rock N Roll Part II / Smokin' In The Boys Room
00:35:49.021                             : en:Looks That Kill
00:40:47.820                             : en:Mutherf***** Of The Year
00:49:45.148                             : en:In The Beginning / Shout At The Devil
00:54:57.961                             : en:Louder Than Hell
00:57:31.656                             : en: Drum Solo
01:02:47.764                             : en:Guitar Solo
01:10:05.701                             : en:Saints Of Los Angeles
01:13:25.234                             : en:Live Wire
01:18:02.219                             : en:T.N.T. (Terror 'N Tinseltown) / Dr. Feelgood
01:23:47.230                             : en:Kickstart My Heart
01:32:24.997                             : en:Home Sweet Home
01:39:46.772                             : en:My Way (Credits)


Log x264

x264 [info]: using SAR=1/1
x264 [info]: using cpu capabilities: MMX2 SSE2Fast SSSE3 SSE4.2 AVX FMA3 AVX2 LZCNT BMI2
x264 [info]: profile High, level 4.1
x264 [info]: frame I:1345 Avg QP:16.80 size:134643
x264 [info]: frame P:54315 Avg QP:20.08 size: 50835
x264 [info]: frame B:99900 Avg QP:21.17 size: 26269
x264 [info]: consecutive B-frames: 11.9% 10.2% 16.4% 32.7% 14.5% 9.9% 4.5%
x264 [info]: mb I I16..4: 33.3% 48.8% 17.8%
x264 [info]: mb P I16..4: 18.4% 27.2% 2.0% P16..4: 30.0% 6.1% 4.3% 0.2% 0.0% skip:11.8%
x264 [info]: mb B I16..4: 4.0% 3.9% 0.4% B16..8: 34.6% 5.5% 1.2% direct:13.2% skip:37.1% L0:44.4% L1:48.2% BI: 7.4%
x264 [info]: 8x8 transform intra:54.5% inter:69.0%
x264 [info]: direct mvs spatial:95.3% temporal:4.7%
x264 [info]: coded y,uvDC,uvAC intra: 44.1% 62.7% 28.7% inter: 23.0% 36.1% 3.9%
x264 [info]: i16 v,h,dc,p: 47% 17% 20% 16%
x264 [info]: i8 v,h,dc,ddl,ddr,vr,hd,vl,hu: 14% 9% 26% 7% 9% 9% 9% 8% 9%
x264 [info]: i4 v,h,dc,ddl,ddr,vr,hd,vl,hu: 13% 11% 13% 8% 12% 11% 11% 9% 13%
x264 [info]: i8c dc,h,v,p: 45% 24% 22% 9%
x264 [info]: Weighted P-Frames: Y:14.1% UV:11.0%
x264 [info]: ref P L0: 56.5% 9.6% 19.4% 10.7% 3.3% 0.3%
x264 [info]: ref B L0: 83.3% 13.4% 3.4%
x264 [info]: ref B L1: 91.5% 8.5%
x264 [info]: kb/s:6863.56

Скриншоты













                                                                                       
                       
                       
                       
                       
                       
                                磁力下载:(论坛代下载服务)
                                                               
                                       
游客,本主题需向作者支付 7音乐币 才能浏览,金币充值, 免回复、免金币,直接查看内容请开通VIP支付

                                               
  • 7.51 GB
  • 温馨提示

    记得善用社区搜索功能,那里可能会有你想要的资源;论坛站内搜索

    如果你有什么需要的资源可以去资源求档发帖,求助社区的网友,我们会在第一时间给你回复哦;资源求档

    对于本社区网盘链接失效密码错误各种报错请在反馈板块反馈报错发帖,您的支持,是我们发展的最大动力;投诉建议

    回复

    使用道具 举报

    您需要登录后才可以回帖 登录 | 立即注册 微信登录

    本版积分规则

    关注0

    粉丝0

    帖子30073

    发布主题
    阅读排行更多+
    关闭

    站长推荐上一条 /1 下一条

    收藏帖子 返回列表 这是一个自定义按钮
    音乐分享,音乐下载。
    微信公众号
    微信号:hires_
    意见反馈:admin@maomicd.com

    加入我们的官方QQ群和微信群

    Powered by Discuz! X3.4 Archiver|手机版|小黑屋|捌零音乐论坛 ( 苏ICP备20015413号 )|( 苏公网安备 32030502000272号) 繁體

    GMT+8, 2021-5-9 00:44